  0
SECTION
  2
HEADER
  9
$ACADVER
  1
AC1009
  9
$INSBASE
 10
0.0
 20
0.0
 30
0.0
  9
$EXTMIN
 10
117762.7067731182
 20
-117166.32490070139
 30
-0.0000000000112498
  9
$EXTMAX
 10
118068.99092654009
 20
-116897.48102638579
 30
0.0000000000002956
  9
$LIMMIN
 10
0.0
 20
0.0
  9
$LIMMAX
 10
420.0
 20
297.0
  9
$ORTHOMODE
 70
     0
  9
$REGENMODE
 70
     1
  9
$FILLMODE
 70
     1
  9
$QTEXTMODE
 70
     0
  9
$MIRRTEXT
 70
     1
  9
$DRAGMODE
 70
     2
  9
$LTSCALE
 40
1.0
  9
$OSMODE
 70
   943
  9
$ATTMODE
 70
     1
  9
$TEXTSIZE
 40
2.5
  9
$TRACEWID
 40
1.0
  9
$TEXTSTYLE
  7
STANDARD
  9
$CLAYER
  8
ér
  9
$CELTYPE
  6
BYLAYER
  9
$CECOLOR
 62
   256
  9
$DIMSCALE
 40
1.0
  9
$DIMASZ
 40
1.1000000000000001
  9
$DIMEXO
 40
5.0
  9
$DIMDLI
 40
10.0
  9
$DIMRND
 40
0.0
  9
$DIMDLE
 40
0.0
  9
$DIMEXE
 40
0.0
  9
$DIMTP
 40
0.0
  9
$DIMTM
 40
0.0
  9
$DIMTXT
 40
3.25
  9
$DIMCEN
 40
3.0
  9
$DIMTSZ
 40
0.0
  9
$DIMTOL
 70
     0
  9
$DIMLIM
 70
     0
  9
$DIMTIH
 70
     0
  9
$DIMTOH
 70
     0
  9
$DIMSE1
 70
     0
  9
$DIMSE2
 70
     0
  9
$DIMTAD
 70
     1
  9
$DIMZIN
 70
     8
  9
$DIMBLK
  1
ORIGIN
  9
$DIMASO
 70
     1
  9
$DIMSHO
 70
     1
  9
$DIMPOST
  1

  9
$DIMAPOST
  1

  9
$DIMALT
 70
     0
  9
$DIMALTD
 70
     3
  9
$DIMALTF
 40
0.03937007874016
  9
$DIMLFAC
 40
1.0
  9
$DIMTOFL
 70
     1
  9
$DIMTVP
 40
0.0
  9
$DIMTIX
 70
     1
  9
$DIMSOXD
 70
     0
  9
$DIMSAH
 70
     0
  9
$DIMBLK1
  1

  9
$DIMBLK2
  1

  9
$DIMSTYLE
  2
Éíû@_1-1
  9
$DIMCLRD
 70
   256
  9
$DIMCLRE
 70
   256
  9
$DIMCLRT
 70
     7
  9
$DIMTFAC
 40
1.0
  9
$DIMGAP
 40
1.0
  9
$LUNITS
 70
     2
  9
$LUPREC
 70
     4
  9
$SKETCHINC
 40
1.0
  9
$FILLETRAD
 40
0.5
  9
$AUNITS
 70
     0
  9
$AUPREC
 70
     0
  9
$MENU
  1
.
  9
$ELEVATION
 40
0.0
  9
$PELEVATION
 40
0.0
  9
$THICKNESS
 40
0.0
  9
$LIMCHECK
 70
     0
  9
$BLIPMODE
 70
     0
  9
$CHAMFERA
 40
10.0
  9
$CHAMFERB
 40
10.0
  9
$SKPOLY
 70
     0
  9
$TDCREATE
 40
2453020.4858881249
  9
$TDUPDATE
 40
2458698.8685778822
  9
$TDINDWG
 40
3.5341750347000001
  9
$TDUSRTIMER
 40
3.5341730440000001
  9
$USRTIMER
 70
     1
  9
$ANGBASE
 50
0.0
  9
$ANGDIR
 70
     0
  9
$PDMODE
 70
     0
  9
$PDSIZE
 40
0.0
  9
$PLINEWID
 40
0.0
  9
$COORDS
 70
     2
  9
$SPLFRAME
 70
     0
  9
$SPLINETYPE
 70
     6
  9
$SPLINESEGS
 70
     8
  9
$ATTDIA
 70
     1
  9
$ATTREQ
 70
     1
  9
$HANDLING
 70
     1
  9
$HANDSEED
  5
1A117
  9
$SURFTAB1
 70
     6
  9
$SURFTAB2
 70
     6
  9
$SURFTYPE
 70
     6
  9
$SURFU
 70
     6
  9
$SURFV
 70
     6
  9
$UCSNAME
  2

  9
$UCSORG
 10
0.0
 20
0.0
 30
0.0
  9
$UCSXDIR
 10
1.0
 20
0.0
 30
0.0
  9
$UCSYDIR
 10
0.0
 20
1.0
 30
0.0
  9
$PUCSNAME
  2

  9
$PUCSORG
 10
0.0
 20
0.0
 30
0.0
  9
$PUCSXDIR
 10
1.0
 20
0.0
 30
0.0
  9
$PUCSYDIR
 10
0.0
 20
1.0
 30
0.0
  9
$USERI1
 70
     0
  9
$USERI2
 70
     0
  9
$USERI3
 70
     0
  9
$USERI4
 70
     0
  9
$USERI5
 70
     0
  9
$USERR1
 40
0.0
  9
$USERR2
 40
0.0
  9
$USERR3
 40
0.0
  9
$USERR4
 40
0.0
  9
$USERR5
 40
0.0
  9
$WORLDVIEW
 70
     1
  9
$SHADEDGE
 70
     3
  9
$SHADEDIF
 70
    70
  9
$TILEMODE
 70
     1
  9
$MAXACTVP
 70
    64
  9
$PLIMCHECK
 70
     0
  9
$PEXTMIN
 10
1.0000000000000000E+020
 20
1.0000000000000000E+020
 30
1.0000000000000000E+020
  9
$PEXTMAX
 10
-1.0000000000000000E+020
 20
-1.0000000000000000E+020
 30
-1.0000000000000000E+020
  9
$PLIMMIN
 10
0.0
 20
0.0
  9
$PLIMMAX
 10
420.0
 20
297.0
  9
$UNITMODE
 70
     0
  9
$VISRETAIN
 70
     1
  9
$PLINEGEN
 70
     0
  9
$PSLTSCALE
 70
     1
  0
ENDSEC
  0
SECTION
  2
TABLES
  0
TABLE
  2
VPORT
 70
     1
  0
VPORT
  2
*ACTIVE
 70
     0
 10
0.0
 20
0.0
 11
1.0
 21
1.0
 12
117915.8488498291
 22
-117031.9029635436
 13
0.0
 23
0.0
 14
10.0
 24
10.0
 15
10.0
 25
10.0
 16
0.0
 26
0.0
 36
1.0
 17
0.0
 27
0.0
 37
0.0
 40
270.94421708374279
 41
1.6401564537157749
 42
50.0
 43
0.0
 44
0.0
 50
0.0
 51
0.0
 71
     0
 72
   100
 73
     1
 74
     3
 75
     0
 76
     0
 77
     0
 78
     0
  0
ENDTAB
  0
TABLE
  2
LTYPE
 70
     7
  0
LTYPE
  2
CONTINUOUS
 70
     0
  3
Solid line
 72
    65
 73
     0
 40
0.0
  0
LTYPE
  2
CENTERX2
 70
     0
  3
Center (2x) ________  __  ________  __  _____
 72
    65
 73
     4
 40
101.59999999999999
 49
63.5
 49
-12.699999999999999
 49
12.699999999999999
 49
-12.699999999999999
  0
LTYPE
  2
CENTER2
 70
     0
  3
Center (.5x) ___ _ ___ _ ___ _ ___ _ ___ _ ___
 72
    65
 73
     4
 40
28.574999999999999
 49
19.050000000000001
 49
-3.174999999999998
 49
3.174999999999998
 49
-3.174999999999998
  0
LTYPE
  2
DASHED
 70
     0
  3
Dashed __ __ __ __ __ __ __ __ __ __ __ __ __ _
 72
    65
 73
     2
 40
19.050000000000001
 49
12.699999999999999
 49
-6.349999999999997
  0
LTYPE
  2
DASHED3
 70
     0
  3
------  ------  ------  ------  
 72
    65
 73
     2
 40
5.0
 49
3.75
 49
-1.25
  0
LTYPE
  2
DASHDOT2
 70
     0
  3
Dash dot (.5x) _._._._._._._._._._._._._._._.
 72
    65
 73
     4
 40
12.699999999999999
 49
6.349999999999997
 49
-3.174999999999998
 49
0.0
 49
-3.174999999999998
  0
LTYPE
  2
HIDDEN2
 70
     0
  3
Hidden (.5x) _ _ _ _ _ _ _ _ _ _ _ _ _ _ _ _ _
 72
    65
 73
     2
 40
4.7624999999999984
 49
3.174999999999998
 49
-1.587499999999999
  0
ENDTAB
  0
TABLE
  2
LAYER
 70
     4
  0
LAYER
  2
0
 70
     0
 62
     7
  6
CONTINUOUS
  0
LAYER
  2
DEFPOINTS
 70
     0
 62
     7
  6
CONTINUOUS
  0
LAYER
  2
ér
 70
     0
 62
     4
  6
CONTINUOUS
  0
LAYER
  2
S
 70
     0
 62
     7
  6
CONTINUOUS
  0
ENDTAB
  0
TABLE
  2
STYLE
 70
    10
  0
STYLE
  2
STANDARD
 70
     0
 40
0.0
 41
1.0
 50
0.0
 71
     0
 42
2.5
  3
txt.shx
  4
@extfont2.shx
  0
STYLE
  2
KANJIY
 70
     0
 40
0.0
 41
1.0
 50
0.0
 71
     0
 42
600.0
  3
MONOTXT
  4
KELF1-K
  0
STYLE
  2
SUNPOU
 70
     0
 40
0.0
 41
0.8
 50
0.0
 71
     0
 42
0.4
  3
ROMANS.shx
  4
KELF1-K.shx
  0
STYLE
  2

 70
     1
 40
0.0
 41
1.0
 50
0.0
 71
     0
 42
2.5
  3
ltypeshp.shx
  4

  0
STYLE
  2
MORISON
 70
     0
 40
3.5
 41
1.0
 50
0.0
 71
     0
 42
3.0
  3
txt
  4

  0
STYLE
  2
Éíû@ùp_BIGFONT
 70
     0
 40
0.0
 41
0.75
 50
0.0
 71
     0
 42
2.5
  3
romand.shx
  4
bigfont.shx
  0
STYLE
  2
òÂÄÜùp_BIGHONT
 70
     0
 40
0.0
 41
1.0
 50
0.0
 71
     0
 42
2.5
  3
romans.shx
  4
bigfont.shx
  0
STYLE
  2
âXâ^âCâï2
 70
     0
 40
0.0
 41
1.0
 50
0.0
 71
     0
 42
2.5
  3
txt
  4

  0
ENDTAB
  0
TABLE
  2
VIEW
 70
     2
  0
ENDTAB
  0
TABLE
  2
UCS
 70
     0
  0
ENDTAB
  0
TABLE
  2
APPID
 70
    11
  0
APPID
  2
ACAD
 70
     0
  0
APPID
  2
ACAD_NAV_VCDISPLAY
 70
     0
  0
APPID
  2
ACAD_EXEMPT_FROM_CAD_STANDARDS
 70
     0
  0
APPID
  2
ACAD_PSEXT
 70
     0
  0
APPID
  2
ACAECLAYERSTANDARD
 70
     0
  0
APPID
  2
ACAD_DSTYLE_DIMJAG
 70
     0
  0
APPID
  2
ACAD_DSTYLE_DIMTALN
 70
     0
  0
APPID
  2
ACADANNOPO
 70
     0
  0
APPID
  2
ACAD_MLEADERVER
 70
     0
  0
APPID
  2
ACADANNOMONITORALERTICONDI
 70
     0
  0
APPID
  2
ACAD_DSTYLE_DIMBREAK
 70
     0
  0
ENDTAB
  0
TABLE
  2
DIMSTYLE
 70
     3
  0
DIMSTYLE
  2
Éíû@_1-1
 70
     0
  3

  4

  5
ORIGIN
  6

  7

 40
1.0
 41
1.1000000000000001
 42
5.0
 43
10.0
 44
0.0
 45
0.0
 46
0.0
 47
0.0
 48
0.0
140
3.25
141
3.0
142
0.0
143
0.03937007874016
144
1.0
145
0.0
146
1.0
147
1.0
 71
     0
 72
     0
 73
     0
 74
     0
 75
     0
 76
     0
 77
     1
 78
     8
170
     0
171
     3
172
     1
173
     0
174
     1
175
     0
176
   256
177
   256
178
     7
  0
ENDTAB
  0
ENDSEC
  0
SECTION
  2
BLOCKS
  0
BLOCK
  8
0
  2
$MODEL_SPACE
 70
     0
 10
0.0
 20
0.0
 30
0.0
  3
$MODEL_SPACE
  1

  0
ENDBLK
  5
21
  8
0
  0
BLOCK
 67
     1
  8
0
  2
$PAPER_SPACE
 70
     0
 10
0.0
 20
0.0
 30
0.0
  3
$PAPER_SPACE
  1

  0
ENDBLK
  5
1D
 67
     1
  8
0
  0
BLOCK
  8
0
  2
_DOT
 70
     0
 10
0.0
 20
0.0
 30
0.0
  3
_DOT
  1

  0
POLYLINE
  5
2C
  8
0
  6
BYBLOCK
 62
     0
 66
     1
 10
0.0
 20
0.0
 30
0.0
 70
     1
 40
0.5
 41
0.5
  0
VERTEX
  5
1A022
  8
0
  6
BYBLOCK
 62
     0
 10
-0.25
 20
0.0
 30
0.0
 42
1.0
  0
VERTEX
  5
1A023
  8
0
  6
BYBLOCK
 62
     0
 10
0.25
 20
0.0
 30
0.0
 42
1.0
  0
SEQEND
  5
1A024
  8
0
  6
BYBLOCK
 62
     0
  0
LINE
  5
2D
  8
0
  6
BYBLOCK
 62
     0
 10
-0.5
 20
0.0
 30
0.0
 11
-1.0
 21
0.0
 31
0.0
  0
ENDBLK
  5
2F
  8
0
  0
BLOCK
  8
0
  2
_OPEN30
 70
     0
 10
0.0
 20
0.0
 30
0.0
  3
_OPEN30
  1

  0
LINE
  5
31
  8
0
  6
BYBLOCK
 62
     0
 10
-1.0
 20
0.26794919
 30
0.0
 11
0.0
 21
0.0
 31
0.0
  0
LINE
  5
32
  8
0
  6
BYBLOCK
 62
     0
 10
0.0
 20
0.0
 30
0.0
 11
-1.0
 21
-0.26794919
 31
0.0
  0
LINE
  5
33
  8
0
  6
BYBLOCK
 62
     0
 10
0.0
 20
0.0
 30
0.0
 11
-1.0
 21
0.0
 31
0.0
  0
ENDBLK
  5
35
  8
0
  0
BLOCK
  8
0
  2
_ORIGIN
 70
     0
 10
0.0
 20
0.0
 30
0.0
  3
_ORIGIN
  1

  0
CIRCLE
  5
29B7
  8
0
  6
BYBLOCK
 62
     0
 10
0.0
 20
0.0
 30
0.0
 40
0.5
  0
LINE
  5
29B8
  8
0
  6
BYBLOCK
 62
     0
 10
0.0
 20
0.0
 30
0.0
 11
-1.0
 21
0.0
 31
0.0
  0
ENDBLK
  5
29BA
  8
0
  0
BLOCK
  8
0
  2
_NONE
 70
     0
 10
0.0
 20
0.0
 30
0.0
  3
_NONE
  1

  0
ENDBLK
  5
44F4
  8
0
  0
BLOCK
  8
0
  2
_ORIGIN2
 70
     0
 10
0.0
 20
0.0
 30
0.0
  3
_ORIGIN2
  1

  0
CIRCLE
  5
D046
  8
0
  6
BYBLOCK
 62
     0
 10
0.0
 20
0.0
 30
0.0
 40
0.5
  0
CIRCLE
  5
D047
  8
0
  6
BYBLOCK
 62
     0
 10
0.0
 20
0.0
 30
0.0
 40
0.25
  0
LINE
  5
D048
  8
0
  6
BYBLOCK
 62
     0
 10
-0.5
 20
0.0
 30
0.0
 11
-1.0
 21
0.0
 31
0.0
  0
ENDBLK
  5
D04A
  8
0
  0
BLOCK
  8
0
  2
_OPEN90
 70
     0
 10
0.0
 20
0.0
 30
0.0
  3
_OPEN90
  1

  0
LINE
  5
D16B
  8
0
  6
BYBLOCK
 62
     0
 10
-0.5
 20
0.5
 30
0.0
 11
0.0
 21
0.0
 31
0.0
  0
LINE
  5
D16C
  8
0
  6
BYBLOCK
 62
     0
 10
0.0
 20
0.0
 30
0.0
 11
-0.5
 21
-0.5
 31
0.0
  0
LINE
  5
D16D
  8
0
  6
BYBLOCK
 62
     0
 10
0.0
 20
0.0
 30
0.0
 11
-1.0
 21
0.0
 31
0.0
  0
ENDBLK
  5
D16F
  8
0
  0
BLOCK
  8
0
  2
_DOTBLANK
 70
     0
 10
0.0
 20
0.0
 30
0.0
  3
_DOTBLANK
  1

  0
CIRCLE
  5
D9C6
  8
0
  6
BYBLOCK
 62
     0
 10
0.0
 20
0.0
 30
0.0
 40
0.5
  0
LINE
  5
D9C7
  8
0
  6
BYBLOCK
 62
     0
 10
-0.5
 20
0.0
 30
0.0
 11
-1.0
 21
0.0
 31
0.0
  0
ENDBLK
  5
D9C9
  8
0
  0
BLOCK
  8
0
  2
É}û╩ÿg_1-6
 70
     0
 10
0.0
 20
0.0
 30
0.0
  3
É}û╩ÿg_1-6
  1

  0
ENDBLK
  5
134A0
  8
0
  0
BLOCK
  8
0
  2
_DOTSMALL
 70
     0
 10
0.0
 20
0.0
 30
0.0
  3
_DOTSMALL
  1

  0
POLYLINE
  5
180FC
  8
0
  6
BYBLOCK
 62
     0
 66
     1
 10
0.0
 20
0.0
 30
0.0
 70
     1
 40
0.5
 41
0.5
  0
VERTEX
  5
1A058
  8
0
  6
BYBLOCK
 62
     0
 10
-0.0625
 20
0.0
 30
0.0
 42
1.0
  0
VERTEX
  5
1A059
  8
0
  6
BYBLOCK
 62
     0
 10
0.0625
 20
0.0
 30
0.0
 42
1.0
  0
SEQEND
  5
1A05A
  8
0
  6
BYBLOCK
 62
     0
  0
ENDBLK
  5
180FD
  8
0
  0
BLOCK
  8
0
  2
*D10
 70
     1
 10
0.0
 20
0.0
 30
0.0
  3
*D10
  1

  0
LINE
  5
19460
  8
ér
 10
117911.3018010607
 20
-116936.3405910017
 30
0.0
 11
117902.2987903788
 21
-116936.3405910017
 31
0.0
  0
LINE
  5
19461
  8
ér
 10
117912.4018010607
 20
-116976.3405910018
 30
0.0
 11
117902.2987903788
 21
-116976.3405910018
 31
0.0
  0
LINE
  5
19462
  8
ér
 10
117902.2987903788
 20
-116937.44059100169
 30
0.0
 11
117902.2987903788
 21
-116975.2405910018
 31
0.0
  0
INSERT
  5
19463
  8
ér
  2
_ORIGIN
 10
117902.2987903788
 20
-116936.3405910017
 30
0.0
 41
1.1000000000000001
 42
1.1000000000000001
 43
1.1000000000000001
 50
90.0
  0
INSERT
  5
19464
  8
ér
  2
_ORIGIN
 10
117902.2987903788
 20
-116976.3405910018
 30
0.0
 41
1.1000000000000001
 42
1.1000000000000001
 43
1.1000000000000001
 50
270.0
  0
INSERT
  5
19465
  8
ér
  2
*U54
 10
0.0
 20
0.0
 30
0.0
  0
POINT
  5
19466
  8
DEFPOINTS
 62
     0
 10
117916.3018010607
 20
-116936.3405910017
 30
0.0
  0
POINT
  5
19467
  8
DEFPOINTS
 62
     0
 10
117917.4018010607
 20
-116976.3405910018
 30
0.0
  0
POINT
  5
19468
  8
DEFPOINTS
 62
     0
 10
117902.2987903788
 20
-116976.3405910018
 30
0.0
  0
ENDBLK
  5
18838
  8
0
  0
BLOCK
  8
0
  2
*D11
 70
     1
 10
0.0
 20
0.0
 30
0.0
  3
*D11
  1

  0
LINE
  5
19469
  8
ér
 10
117936.3018010607
 20
-116971.8405910017
 30
0.0
 11
117936.3018010607
 21
-116927.1705353671
 31
0.0
  0
LINE
  5
1946A
  8
ér
 10
117916.3018010607
 20
-116931.3405910017
 30
0.0
 11
117916.3018010607
 21
-116927.1705353671
 31
0.0
  0
LINE
  5
1946B
  8
ér
 10
117935.2018010607
 20
-116927.1705353671
 30
0.0
 11
117917.4018010607
 21
-116927.1705353671
 31
0.0
  0
INSERT
  5
1946C
  8
ér
  2
_ORIGIN
 10
117936.3018010607
 20
-116927.1705353671
 30
0.0
 41
1.1000000000000001
 42
1.1000000000000001
 43
1.1000000000000001
  0
INSERT
  5
1946D
  8
ér
  2
_ORIGIN
 10
117916.3018010607
 20
-116927.1705353671
 30
0.0
 41
1.1000000000000001
 42
1.1000000000000001
 43
1.1000000000000001
 50
180.0
  0
INSERT
  5
1946E
  8
ér
  2
*U55
 10
0.0
 20
0.0
 30
0.0
  0
POINT
  5
1946F
  8
DEFPOINTS
 62
     0
 10
117936.3018010607
 20
-116976.8405910017
 30
0.0
  0
POINT
  5
19470
  8
DEFPOINTS
 62
     0
 10
117916.3018010607
 20
-116936.3405910017
 30
0.0
  0
POINT
  5
19471
  8
DEFPOINTS
 62
     0
 10
117916.3018010607
 20
-116927.1705353671
 30
0.0
  0
ENDBLK
  5
18859
  8
0
  0
BLOCK
  8
0
  2
*D12
 70
     1
 10
0.0
 20
0.0
 30
0.0
  3
*D12
  1

  0
LINE
  5
198B8
  8
ér
 10
117916.3018010607
 20
-116999.7405910017
 30
0.0
 11
117916.3018010607
 21
-117006.104970905
 31
0.0
  0
LINE
  5
198B9
  8
ér
 10
117936.3018010607
 20
-116999.7405910017
 30
0.0
 11
117936.3018010607
 21
-117006.104970905
 31
0.0
  0
LINE
  5
198BA
  8
ér
 10
117917.4018010607
 20
-117006.104970905
 30
0.0
 11
117935.2018010607
 21
-117006.104970905
 31
0.0
  0
INSERT
  5
198BB
  8
ér
  2
_ORIGIN
 10
117916.3018010607
 20
-117006.104970905
 30
0.0
 41
1.1000000000000001
 42
1.1000000000000001
 43
1.1000000000000001
 50
180.0
  0
INSERT
  5
198BC
  8
ér
  2
_ORIGIN
 10
117936.3018010607
 20
-117006.104970905
 30
0.0
 41
1.1000000000000001
 42
1.1000000000000001
 43
1.1000000000000001
  0
INSERT
  5
198BD
  8
ér
  2
*U76
 10
0.0
 20
0.0
 30
0.0
  0
POINT
  5
198BE
  8
DEFPOINTS
 62
     0
 10
117916.3018010607
 20
-116994.7405910017
 30
0.0
  0
POINT
  5
198BF
  8
DEFPOINTS
 62
     0
 10
117936.3018010607
 20
-116994.7405910017
 30
0.0
  0
POINT
  5
198C0
  8
DEFPOINTS
 62
     0
 10
117936.3018010607
 20
-117006.104970905
 30
0.0
  0
ENDBLK
  5
1889B
  8
0
  0
BLOCK
  8
0
  2
*D13
 70
     1
 10
0.0
 20
0.0
 30
0.0
  3
*D13
  1

  0
LINE
  5
198C1
  8
ér
 10
117911.3018010607
 20
-116989.8405910017
 30
0.0
 11
117902.2987903788
 21
-116989.8405910017
 31
0.0
  0
LINE
  5
198C2
  8
ér
 10
117912.4018010607
 20
-116995.8405910017
 30
0.0
 11
117902.2987903788
 21
-116995.8405910017
 31
0.0
  0
LINE
  5
198C3
  8
ér
 10
117902.2987903788
 20
-116990.94059100169
 30
0.0
 11
117902.2987903788
 21
-116994.7405910017
 31
0.0
  0
INSERT
  5
198C4
  8
ér
  2
_ORIGIN
 10
117902.2987903788
 20
-116989.8405910017
 30
0.0
 41
1.1000000000000001
 42
1.1000000000000001
 43
1.1000000000000001
 50
90.0
  0
INSERT
  5
198C5
  8
ér
  2
_ORIGIN
 10
117902.2987903788
 20
-116995.8405910017
 30
0.0
 41
1.1000000000000001
 42
1.1000000000000001
 43
1.1000000000000001
 50
270.0
  0
INSERT
  5
198C6
  8
ér
  2
*U77
 10
0.0
 20
0.0
 30
0.0
  0
POINT
  5
198C7
  8
DEFPOINTS
 62
     0
 10
117916.3018010607
 20
-116989.8405910017
 30
0.0
  0
POINT
  5
198C8
  8
DEFPOINTS
 62
     0
 10
117917.4018010607
 20
-116995.8405910017
 30
0.0
  0
POINT
  5
198C9
  8
DEFPOINTS
 62
     0
 10
117902.2987903788
 20
-116995.8405910017
 30
0.0
  0
ENDBLK
  5
188E6
  8
0
  0
BLOCK
  8
0
  2
*D28
 70
     1
 10
0.0
 20
0.0
 30
0.0
  3
*D28
  1

  0
LINE
  5
198AF
  8
ér
 10
117912.4018010607
 20
-116976.3405910018
 30
0.0
 11
117902.2987903788
 21
-116976.3405910018
 31
0.0
  0
LINE
  5
198B0
  8
ér
 10
117911.9018010607
 20
-116989.8405910017
 30
0.0
 11
117902.2987903788
 21
-116989.8405910017
 31
0.0
  0
LINE
  5
198B1
  8
ér
 10
117902.2987903788
 20
-116977.4405910018
 30
0.0
 11
117902.2987903788
 21
-116988.7405910017
 31
0.0
  0
INSERT
  5
198B2
  8
ér
  2
_ORIGIN
 10
117902.2987903788
 20
-116976.3405910018
 30
0.0
 41
1.1000000000000001
 42
1.1000000000000001
 43
1.1000000000000001
 50
90.0
  0
INSERT
  5
198B3
  8
ér
  2
_ORIGIN
 10
117902.2987903788
 20
-116989.8405910017
 30
0.0
 41
1.1000000000000001
 42
1.1000000000000001
 43
1.1000000000000001
 50
270.0
  0
INSERT
  5
198B4
  8
ér
  2
*U75
 10
0.0
 20
0.0
 30
0.0
  0
POINT
  5
198B5
  8
DEFPOINTS
 62
     0
 10
117917.4018010607
 20
-116976.3405910018
 30
0.0
  0
POINT
  5
198B6
  8
DEFPOINTS
 62
     0
 10
117916.9018010607
 20
-116989.8405910017
 30
0.0
  0
POINT
  5
198B7
  8
DEFPOINTS
 62
     0
 10
117902.2987903788
 20
-116989.8405910017
 30
0.0
  0
ENDBLK
  5
1906A
  8
0
  0
BLOCK
  8
0
  2
*D29
 70
     1
 10
0.0
 20
0.0
 30
0.0
  3
*D29
  1

  0
LINE
  5
1948D
  8
ér
 10
117775.64831474891
 20
-116946.8299649543
 30
0.0
 11
117775.64831474891
 21
-116943.2157156516
 31
0.0
  0
LINE
  5
1948E
  8
ér
 10
117816.64831474891
 20
-116945.5299649543
 30
0.0
 11
117816.64831474891
 21
-116943.2157156516
 31
0.0
  0
LINE
  5
1948F
  8
ér
 10
117776.7483147489
 20
-116943.2157156516
 30
0.0
 11
117815.5483147489
 21
-116943.2157156516
 31
0.0
  0
INSERT
  5
19490
  8
ér
  2
_ORIGIN
 10
117775.64831474891
 20
-116943.2157156516
 30
0.0
 41
1.1000000000000001
 42
1.1000000000000001
 43
1.1000000000000001
 50
180.0
  0
INSERT
  5
19491
  8
ér
  2
_ORIGIN
 10
117816.64831474891
 20
-116943.2157156516
 30
0.0
 41
1.1000000000000001
 42
1.1000000000000001
 43
1.1000000000000001
  0
INSERT
  5
19492
  8
ér
  2
*U56
 10
0.0
 20
0.0
 30
0.0
  0
POINT
  5
19493
  8
DEFPOINTS
 62
     0
 10
117775.64831474891
 20
-116951.8299649543
 30
0.0
  0
POINT
  5
19494
  8
DEFPOINTS
 62
     0
 10
117816.64831474891
 20
-116950.5299649542
 30
0.0
  0
POINT
  5
19495
  8
DEFPOINTS
 62
     0
 10
117816.64831474891
 20
-116943.2157156516
 30
0.0
  0
ENDBLK
  5
191A1
  8
0
  0
BLOCK
  8
0
  2
*D30
 70
     1
 10
0.0
 20
0.0
 30
0.0
  3
*D30
  1

  0
LINE
  5
19879
  8
ér
 10
117821.64831474891
 20
-116951.3299649542
 30
0.0
 11
117832.05475204191
 21
-116951.3299649542
 31
0.0
  0
LINE
  5
1987A
  8
ér
 10
117794.44831474889
 20
-116964.8299649542
 30
0.0
 11
117832.05475204191
 21
-116964.8299649542
 31
0.0
  0
LINE
  5
1987B
  8
ér
 10
117832.05475204191
 20
-116952.4299649543
 30
0.0
 11
117832.05475204191
 21
-116963.7299649542
 31
0.0
  0
INSERT
  5
1987C
  8
ér
  2
_ORIGIN
 10
117832.05475204191
 20
-116951.3299649542
 30
0.0
 41
1.1000000000000001
 42
1.1000000000000001
 43
1.1000000000000001
 50
90.0
  0
INSERT
  5
1987D
  8
ér
  2
_ORIGIN
 10
117832.05475204191
 20
-116964.8299649542
 30
0.0
 41
1.1000000000000001
 42
1.1000000000000001
 43
1.1000000000000001
 50
270.0
  0
INSERT
  5
1987E
  8
ér
  2
*U74
 10
0.0
 20
0.0
 30
0.0
  0
POINT
  5
1987F
  8
DEFPOINTS
 62
     0
 10
117816.64831474891
 20
-116951.3299649542
 30
0.0
  0
POINT
  5
19880
  8
DEFPOINTS
 62
     0
 10
117789.44831474889
 20
-116964.8299649542
 30
0.0
  0
POINT
  5
19881
  8
DEFPOINTS
 62
     0
 10
117832.05475204191
 20
-116964.8299649542
 30
0.0
  0
ENDBLK
  5
191AE
  8
0
  0
BLOCK
  8
0
  2
*D31
 70
     1
 10
0.0
 20
0.0
 30
0.0
  3
*D31
  1

  0
LINE
  5
194A1
  8
ér
 10
117775.64831474891
 20
-116970.9299649543
 30
0.0
 11
117775.64831474891
 21
-116976.3696851753
 31
0.0
  0
LINE
  5
194A2
  8
ér
 10
117790.6482832442
 20
-116971.03866037809
 30
0.0
 11
117790.6482832442
 21
-116976.3696851753
 31
0.0
  0
LINE
  5
194A3
  8
ér
 10
117776.7483147489
 20
-116976.3696851753
 30
0.0
 11
117789.54828324421
 21
-116976.3696851753
 31
0.0
  0
INSERT
  5
194A4
  8
ér
  2
_ORIGIN
 10
117775.64831474891
 20
-116976.3696851753
 30
0.0
 41
1.1000000000000001
 42
1.1000000000000001
 43
1.1000000000000001
 50
180.0
  0
INSERT
  5
194A5
  8
ér
  2
_ORIGIN
 10
117790.6482832442
 20
-116976.3696851753
 30
0.0
 41
1.1000000000000001
 42
1.1000000000000001
 43
1.1000000000000001
  0
INSERT
  5
194A6
  8
ér
  2
*U57
 10
0.0
 20
0.0
 30
0.0
  0
POINT
  5
194A7
  8
DEFPOINTS
 62
     0
 10
117775.64831474891
 20
-116965.92996495419
 30
0.0
  0
POINT
  5
194A8
  8
DEFPOINTS
 62
     0
 10
117790.6482832442
 20
-116966.03866037809
 30
0.0
  0
POINT
  5
194A9
  8
DEFPOINTS
 62
     0
 10
117790.6482832442
 20
-116976.3696851753
 30
0.0
  0
ENDBLK
  5
191BB
  8
0
  0
BLOCK
  8
0
  2
*D32
 70
     1
 10
0.0
 20
0.0
 30
0.0
  3
*D32
  1

  0
LINE
  5
194C5
  8
ér
 10
118026.6387594337
 20
-116942.0616663425
 30
0.0
 11
118026.6387594337
 21
-116937.74221691561
 31
0.0
  0
LINE
  5
194C6
  8
ér
 10
118066.6387594337
 20
-116942.0616663425
 30
0.0
 11
118066.6387594337
 21
-116937.74221691561
 31
0.0
  0
LINE
  5
194C7
  8
ér
 10
118027.73875943371
 20
-116937.74221691561
 30
0.0
 11
118065.53875943369
 21
-116937.74221691561
 31
0.0
  0
INSERT
  5
194C8
  8
ér
  2
_ORIGIN
 10
118026.6387594337
 20
-116937.74221691561
 30
0.0
 41
1.1000000000000001
 42
1.1000000000000001
 43
1.1000000000000001
 50
180.0
  0
INSERT
  5
194C9
  8
ér
  2
_ORIGIN
 10
118066.6387594337
 20
-116937.74221691561
 30
0.0
 41
1.1000000000000001
 42
1.1000000000000001
 43
1.1000000000000001
  0
INSERT
  5
194CA
  8
ér
  2
*U58
 10
0.0
 20
0.0
 30
0.0
  0
POINT
  5
194CB
  8
DEFPOINTS
 62
     0
 10
118026.6387594337
 20
-116947.0616663425
 30
0.0
  0
POINT
  5
194CC
  8
DEFPOINTS
 62
     0
 10
118066.6387594337
 20
-116947.0616663425
 30
0.0
  0
POINT
  5
194CD
  8
DEFPOINTS
 62
     0
 10
118066.6387594337
 20
-116937.74221691561
 30
0.0
  0
ENDBLK
  5
191C8
  8
0
  0
BLOCK
  8
0
  2
*D33
 70
     1
 10
0.0
 20
0.0
 30
0.0
  3
*D33
  1

  0
LINE
  5
194CE
  8
ér
 10
118021.6387594336
 20
-116947.86166634251
 30
0.0
 11
118010.7740892712
 21
-116947.86166634251
 31
0.0
  0
LINE
  5
194CF
  8
ér
 10
118032.83875943359
 20
-116961.3616663422
 30
0.0
 11
118010.7740892712
 21
-116961.3616663422
 31
0.0
  0
LINE
  5
194D0
  8
ér
 10
118010.7740892712
 20
-116948.9616663426
 30
0.0
 11
118010.7740892712
 21
-116960.26166634211
 31
0.0
  0
INSERT
  5
194D1
  8
ér
  2
_ORIGIN
 10
118010.7740892712
 20
-116947.86166634251
 30
0.0
 41
1.1000000000000001
 42
1.1000000000000001
 43
1.1000000000000001
 50
90.0
  0
INSERT
  5
194D2
  8
ér
  2
_ORIGIN
 10
118010.7740892712
 20
-116961.3616663422
 30
0.0
 41
1.1000000000000001
 42
1.1000000000000001
 43
1.1000000000000001
 50
270.0
  0
INSERT
  5
194D3
  8
ér
  2
*U59
 10
0.0
 20
0.0
 30
0.0
  0
POINT
  5
194D4
  8
DEFPOINTS
 62
     0
 10
118026.6387594337
 20
-116947.86166634251
 30
0.0
  0
POINT
  5
194D5
  8
DEFPOINTS
 62
     0
 10
118037.83875943359
 20
-116961.3616663422
 30
0.0
  0
POINT
  5
194D6
  8
DEFPOINTS
 62
     0
 10
118010.7740892712
 20
-116961.3616663422
 30
0.0
  0
ENDBLK
  5
191D5
  8
0
  0
BLOCK
  8
0
  2
*D34
 70
     1
 10
0.0
 20
0.0
 30
0.0
  3
*D34
  1

  0
LINE
  5
194D7
  8
ér
 10
118036.6387594336
 20
-116967.5616663422
 30
0.0
 11
118036.6387594336
 21
-116973.7988476821
 31
0.0
  0
LINE
  5
194D8
  8
ér
 10
118056.6387594336
 20
-116967.5616663422
 30
0.0
 11
118056.6387594336
 21
-116973.7988476821
 31
0.0
  0
LINE
  5
194D9
  8
ér
 10
118037.73875943371
 20
-116973.7988476821
 30
0.0
 11
118055.53875943361
 21
-116973.7988476821
 31
0.0
  0
INSERT
  5
194DA
  8
ér
  2
_ORIGIN
 10
118036.6387594336
 20
-116973.7988476821
 30
0.0
 41
1.1000000000000001
 42
1.1000000000000001
 43
1.1000000000000001
 50
180.0
  0
INSERT
  5
194DB
  8
ér
  2
_ORIGIN
 10
118056.6387594336
 20
-116973.7988476821
 30
0.0
 41
1.1000000000000001
 42
1.1000000000000001
 43
1.1000000000000001
  0
INSERT
  5
194DC
  8
ér
  2
*U60
 10
0.0
 20
0.0
 30
0.0
  0
POINT
  5
194DD
  8
DEFPOINTS
 62
     0
 10
118036.6387594336
 20
-116962.5616663422
 30
0.0
  0
POINT
  5
194DE
  8
DEFPOINTS
 62
     0
 10
118056.6387594336
 20
-116962.5616663422
 30
0.0
  0
POINT
  5
194DF
  8
DEFPOINTS
 62
     0
 10
118056.6387594336
 20
-116973.7988476821
 30
0.0
  0
ENDBLK
  5
191E2
  8
0
  0
BLOCK
  8
0
  2
*D39
 70
     1
 10
0.0
 20
0.0
 30
0.0
  3
*D39
  1

  0
LINE
  5
19EE2
  8
ér
 10
117836.0008990861
 20
-117110.53465692161
 30
0.0
 11
117836.0008990861
 21
-117116.03363875359
 31
0.0
  0
LINE
  5
19EE3
  8
ér
 10
117806.0008990861
 20
-117110.53465692161
 30
0.0
 11
117806.0008990861
 21
-117116.03363875359
 31
0.0
  0
LINE
  5
19EE4
  8
ér
 10
117834.9008990861
 20
-117116.03363875359
 30
0.0
 11
117807.1008990862
 21
-117116.03363875359
 31
0.0
  0
INSERT
  5
19EE5
  8
ér
  2
_ORIGIN
 10
117836.0008990861
 20
-117116.03363875359
 30
0.0
 41
1.1000000000000001
 42
1.1000000000000001
 43
1.1000000000000001
  0
INSERT
  5
19EE6
  8
ér
  2
_ORIGIN
 10
117806.0008990861
 20
-117116.03363875359
 30
0.0
 41
1.1000000000000001
 42
1.1000000000000001
 43
1.1000000000000001
 50
180.0
  0
INSERT
  5
19EE7
  8
ér
  2
*U95
 10
0.0
 20
0.0
 30
0.0
  0
POINT
  5
19EE8
  8
DEFPOINTS
 62
     0
 10
117836.0008990861
 20
-117105.53465692161
 30
0.0
  0
POINT
  5
19EE9
  8
DEFPOINTS
 62
     0
 10
117806.0008990861
 20
-117105.53465692161
 30
0.0
  0
POINT
  5
19EEA
  8
DEFPOINTS
 62
     0
 10
117806.0008990861
 20
-117116.03363875359
 30
0.0
  0
ENDBLK
  5
19B45
  8
0
  0
BLOCK
  8
0
  2
*D40
 70
     1
 10
0.0
 20
0.0
 30
0.0
  3
*D40
  1

  0
LINE
  5
19D69
  8
ér
 10
117831.6707720672
 20
-117108.03465692161
 30
0.0
 11
117827.17061725759
 21
-117110.6328225123
 31
0.0
  0
LINE
  5
19D6A
  8
ér
 10
117846.6707720672
 20
-117134.0154190351
 30
0.0
 11
117842.17061725759
 21
-117136.6135846259
 31
0.0
  0
LINE
  5
19D6B
  8
ér
 10
117827.7206172576
 20
-117111.58545045651
 30
0.0
 11
117841.62061725761
 21
-117135.66095668171
 31
0.0
  0
INSERT
  5
19D6C
  8
ér
  2
_ORIGIN
 10
117827.17061725759
 20
-117110.6328225123
 30
0.0
 41
1.1000000000000001
 42
1.1000000000000001
 43
1.1000000000000001
 50
119.99999999994481
  0
INSERT
  5
19D6D
  8
ér
  2
_ORIGIN
 10
117842.17061725759
 20
-117136.6135846259
 30
0.0
 41
1.1000000000000001
 42
1.1000000000000001
 43
1.1000000000000001
 50
299.99999999994481
  0
INSERT
  5
19D6E
  8
ér
  2
*U90
 10
0.0
 20
0.0
 30
0.0
  0
POINT
  5
19D6F
  8
DEFPOINTS
 62
     0
 10
117836.0008990862
 20
-117105.53465692161
 30
0.0
  0
POINT
  5
19D70
  8
DEFPOINTS
 62
     0
 10
117851.0008990861
 20
-117131.5154190351
 30
0.0
  0
POINT
  5
19D71
  8
DEFPOINTS
 62
     0
 10
117842.17061725759
 20
-117136.6135846259
 30
0.0
  0
ENDBLK
  5
19B5D
  8
0
  0
BLOCK
  8
0
  2
*D41
 70
     1
 10
0.0
 20
0.0
 30
0.0
  3
*D41
  1

  0
ARC
  5
1A0CB
  8
ér
 10
117836.0008990861
 20
-117105.53465692161
 30
0.0
 40
24.042888894041209
 50
182.62160075340981
 51
297.37839924661949
  0
INSERT
  5
1A0CC
  8
ér
  2
_ORIGIN
 10
117811.9580101921
 20
-117105.53465692161
 30
0.0
 41
1.1000000000000001
 42
1.1000000000000001
 43
1.1000000000000001
 50
91.310800376723876
  0
INSERT
  5
1A0CD
  8
ér
  2
_ORIGIN
 10
117848.0223435332
 20
-117126.3564094842
 30
0.0
 41
1.1000000000000001
 42
1.1000000000000001
 43
1.1000000000000001
 50
28.689199623305349
  0
TEXT
  8
ér
  40
3.25
  5
1A115
  62
7
  72
0
  71
0
 10
117825.
 20
-117128.
 30
0.000000
  1
üª
  7
Éíû@ùp_BIGFONT
  0
POINT
  5
1A0CF
  8
DEFPOINTS
 62
     0
 10
117817.5829776524
 20
-117120.9891280038
 30
0.0
  0
POINT
  5
1A0D0
  8
DEFPOINTS
 62
     0
 10
117835.7122239516
 20
-117105.53465692161
 30
0.0
  0
POINT
  5
1A0D1
  8
DEFPOINTS
 62
     0
 10
117836.14523665349
 20
-117105.78465692161
 30
0.0
  0
POINT
  5
1A0D2
  8
DEFPOINTS
 62
     0
 10
117850.40089908621
 20
-117130.4761885506
 30
0.0
  0
POINT
  5
1A0D3
  8
DEFPOINTS
 62
     0
 10
117807.20089908619
 20
-117105.53465692161
 30
0.0
  0
ENDBLK
  5
19B6A
  8
0
  0
BLOCK
  8
0
  2
*D42
 70
     1
 10
0.0
 20
0.0
 30
0.0
  3
*D42
  1

  0
LINE
  5
19D7B
  8
ér
 10
117787.0008990862
 20
-117083.83465692159
 30
0.0
 11
117787.0008990862
 21
-117076.70625374161
 31
0.0
  0
LINE
  5
19D7C
  8
ér
 10
117817.0008990861
 20
-117083.83465692159
 30
0.0
 11
117817.0008990861
 21
-117076.70625374161
 31
0.0
  0
LINE
  5
19D7D
  8
ér
 10
117788.1008990862
 20
-117076.70625374161
 30
0.0
 11
117815.90089908621
 21
-117076.70625374161
 31
0.0
  0
INSERT
  5
19D7E
  8
ér
  2
_ORIGIN
 10
117787.0008990862
 20
-117076.70625374161
 30
0.0
 41
1.1000000000000001
 42
1.1000000000000001
 43
1.1000000000000001
 50
180.0
  0
INSERT
  5
19D7F
  8
ér
  2
_ORIGIN
 10
117817.0008990861
 20
-117076.70625374161
 30
0.0
 41
1.1000000000000001
 42
1.1000000000000001
 43
1.1000000000000001
  0
INSERT
  5
19D80
  8
ér
  2
*U91
 10
0.0
 20
0.0
 30
0.0
  0
POINT
  5
19D81
  8
DEFPOINTS
 62
     0
 10
117787.0008990862
 20
-117088.83465692159
 30
0.0
  0
POINT
  5
19D82
  8
DEFPOINTS
 62
     0
 10
117817.0008990861
 20
-117088.83465692159
 30
0.0
  0
POINT
  5
19D83
  8
DEFPOINTS
 62
     0
 10
117817.0008990861
 20
-117076.70625374161
 30
0.0
  0
ENDBLK
  5
19B95
  8
0
  0
BLOCK
  8
0
  2
*D43
 70
     1
 10
0.0
 20
0.0
 30
0.0
  3
*D43
  1

  0
LINE
  5
19D84
  8
ér
 10
117879.29365034831
 20
-117137.119901707
 30
0.0
 11
117887.87718546089
 21
-117132.16419539919
 31
0.0
  0
LINE
  5
19D85
  8
ér
 10
117864.29365034831
 20
-117111.13913959351
 30
0.0
 11
117872.87718546089
 21
-117106.18343328559
 31
0.0
  0
LINE
  5
19D86
  8
ér
 10
117887.3271854609
 20
-117131.211567455
 30
0.0
 11
117873.4271854609
 21
-117107.1360612298
 31
0.0
  0
INSERT
  5
19D87
  8
ér
  2
_ORIGIN
 10
117887.87718546089
 20
-117132.16419539919
 30
0.0
 41
1.1000000000000001
 42
1.1000000000000001
 43
1.1000000000000001
 50
300.00000000000682
  0
INSERT
  5
19D88
  8
ér
  2
_ORIGIN
 10
117872.87718546089
 20
-117106.18343328559
 30
0.0
 41
1.1000000000000001
 42
1.1000000000000001
 43
1.1000000000000001
 50
120.00000000000681
  0
INSERT
  5
19D89
  8
ér
  2
*U92
 10
0.0
 20
0.0
 30
0.0
  0
POINT
  5
19D8A
  8
DEFPOINTS
 62
     0
 10
117874.9635233294
 20
-117139.619901707
 30
0.0
  0
POINT
  5
19D8B
  8
DEFPOINTS
 62
     0
 10
117859.96352332929
 20
-117113.63913959351
 30
0.0
  0
POINT
  5
19D8C
  8
DEFPOINTS
 62
     0
 10
117872.87718546089
 20
-117106.18343328559
 30
0.0
  0
ENDBLK
  5
19BAD
  8
0
  0
BLOCK
  8
0
  2
*D44
 70
     1
 10
0.0
 20
0.0
 30
0.0
  3
*D44
  1

  0
LINE
  5
19D8D
  8
ér
 10
117802.20089908611
 20
-117103.1346569216
 30
0.0
 11
117772.5671500593
 21
-117103.1346569216
 31
0.0
  0
LINE
  5
19D8E
  8
ér
 10
117782.0008990861
 20
-117089.6346569216
 30
0.0
 11
117772.5671500593
 21
-117089.6346569216
 31
0.0
  0
LINE
  5
19D8F
  8
ér
 10
117772.5671500593
 20
-117102.03465692161
 30
0.0
 11
117772.5671500593
 21
-117090.7346569216
 31
0.0
  0
INSERT
  5
19D90
  8
ér
  2
_ORIGIN
 10
117772.5671500593
 20
-117103.1346569216
 30
0.0
 41
1.1000000000000001
 42
1.1000000000000001
 43
1.1000000000000001
 50
270.0
  0
INSERT
  5
19D91
  8
ér
  2
_ORIGIN
 10
117772.5671500593
 20
-117089.6346569216
 30
0.0
 41
1.1000000000000001
 42
1.1000000000000001
 43
1.1000000000000001
 50
90.0
  0
INSERT
  5
19D92
  8
ér
  2
*U93
 10
0.0
 20
0.0
 30
0.0
  0
POINT
  5
19D93
  8
DEFPOINTS
 62
     0
 10
117807.20089908611
 20
-117103.1346569216
 30
0.0
  0
POINT
  5
19D94
  8
DEFPOINTS
 62
     0
 10
117787.0008990862
 20
-117089.6346569216
 30
0.0
  0
POINT
  5
19D95
  8
DEFPOINTS
 62
     0
 10
117772.5671500593
 20
-117089.6346569216
 30
0.0
  0
ENDBLK
  5
19BC5
  8
0
  0
BLOCK
  8
0
  2
*D45
 70
     1
 10
0.0
 20
0.0
 30
0.0
  3
*D45
  1

  0
LINE
  5
19D96
  8
ér
 10
117854.97936005519
 20
-117133.6063155695
 30
0.0
 11
117868.5894006022
 21
-117157.1795972899
 31
0.0
  0
LINE
  5
19D97
  8
ér
 10
117866.6707030063
 20
-117126.8563155695
 30
0.0
 11
117880.2807435533
 21
-117150.42959729
 31
0.0
  0
LINE
  5
19D98
  8
ér
 10
117869.54202854641
 20
-117156.6295972899
 30
0.0
 11
117879.3281156091
 21
-117150.97959729
 31
0.0
  0
INSERT
  5
19D99
  8
ér
  2
_ORIGIN
 10
117868.5894006022
 20
-117157.1795972899
 30
0.0
 41
1.1000000000000001
 42
1.1000000000000001
 43
1.1000000000000001
 50
209.99999999998639
  0
INSERT
  5
19D9A
  8
ér
  2
_ORIGIN
 10
117880.2807435533
 20
-117150.42959729
 30
0.0
 41
1.1000000000000001
 42
1.1000000000000001
 43
1.1000000000000001
 50
29.999999999986329
  0
INSERT
  5
19D9B
  8
ér
  2
*U94
 10
0.0
 20
0.0
 30
0.0
  0
POINT
  5
19D9C
  8
DEFPOINTS
 62
     0
 10
117852.47936005529
 20
-117129.2761885506
 30
0.0
  0
POINT
  5
19D9D
  8
DEFPOINTS
 62
     0
 10
117864.1707030063
 20
-117122.5261885506
 30
0.0
  0
POINT
  5
19D9E
  8
DEFPOINTS
 62
     0
 10
117880.2807435533
 20
-117150.42959729
 30
0.0
  0
ENDBLK
  5
19BDD
  8
0
  0
BLOCK
  8
0
  2
*D46
 70
     1
 10
0.0
 20
0.0
 30
0.0
  3
*D46
  1

  0
LINE
  5
19D2A
  8
ér
 10
117989.1808177285
 20
-117125.62608076871
 30
0.0
 11
117993.6809725381
 21
-117128.2242463594
 31
0.0
  0
LINE
  5
19D2B
  8
ér
 10
118004.1808177285
 20
-117099.64531865509
 30
0.0
 11
118008.6809725382
 21
-117102.2434842459
 31
0.0
  0
LINE
  5
19D2C
  8
ér
 10
117994.23097253811
 20
-117127.27161841519
 30
0.0
 11
118008.1309725381
 21
-117103.1961121901
 31
0.0
  0
INSERT
  5
19D2D
  8
ér
  2
_ORIGIN
 10
117993.6809725381
 20
-117128.2242463594
 30
0.0
 41
1.1000000000000001
 42
1.1000000000000001
 43
1.1000000000000001
 50
239.99999999991729
  0
INSERT
  5
19D2E
  8
ér
  2
_ORIGIN
 10
118008.6809725382
 20
-117102.2434842459
 30
0.0
 41
1.1000000000000001
 42
1.1000000000000001
 43
1.1000000000000001
 50
59.999999999917229
  0
INSERT
  5
19D2F
  8
ér
  2
*U85
 10
0.0
 20
0.0
 30
0.0
  0
POINT
  5
19D30
  8
DEFPOINTS
 62
     0
 10
117984.8506907096
 20
-117123.1260807686
 30
0.0
  0
POINT
  5
19D31
  8
DEFPOINTS
 62
     0
 10
117999.8506907096
 20
-117097.14531865509
 30
0.0
  0
POINT
  5
19D32
  8
DEFPOINTS
 62
     0
 10
118008.6809725382
 20
-117102.2434842459
 30
0.0
  0
ENDBLK
  5
19C2E
  8
0
  0
BLOCK
  8
0
  2
*D47
 70
     1
 10
0.0
 20
0.0
 30
0.0
  3
*D47
  1

  0
LINE
  5
19D21
  8
ér
 10
117984.8506907096
 20
-117128.12608076871
 30
0.0
 11
117984.8506907096
 21
-117133.62506260059
 31
0.0
  0
LINE
  5
19D22
  8
ér
 10
117954.8506907095
 20
-117128.1260807686
 30
0.0
 11
117954.8506907095
 21
-117133.62506260059
 31
0.0
  0
LINE
  5
19D23
  8
ér
 10
117983.75069070949
 20
-117133.62506260059
 30
0.0
 11
117955.95069070959
 21
-117133.62506260059
 31
0.0
  0
INSERT
  5
19D24
  8
ér
  2
_ORIGIN
 10
117984.8506907096
 20
-117133.62506260059
 30
0.0
 41
1.1000000000000001
 42
1.1000000000000001
 43
1.1000000000000001
  0
INSERT
  5
19D25
  8
ér
  2
_ORIGIN
 10
117954.8506907095
 20
-117133.62506260059
 30
0.0
 41
1.1000000000000001
 42
1.1000000000000001
 43
1.1000000000000001
 50
180.0
  0
INSERT
  5
19D26
  8
ér
  2
*U84
 10
0.0
 20
0.0
 30
0.0
  0
POINT
  5
19D27
  8
DEFPOINTS
 62
     0
 10
117984.8506907096
 20
-117123.1260807686
 30
0.0
  0
POINT
  5
19D28
  8
DEFPOINTS
 62
     0
 10
117954.8506907095
 20
-117123.1260807686
 30
0.0
  0
POINT
  5
19D29
  8
DEFPOINTS
 62
     0
 10
117954.8506907095
 20
-117133.62506260059
 30
0.0
  0
ENDBLK
  5
19C3A
  8
0
  0
BLOCK
  8
0
  2
*D48
 70
     1
 10
0.0
 20
0.0
 30
0.0
  3
*D48
  1

  0
ARC
  5
1A0D4
  8
ér
 10
117984.8506907095
 20
-117123.1260807686
 30
0.0
 40
12.60413947073161
 50
65.001957990909645
 51
174.99804200914059
  0
INSERT
  5
1A0D5
  8
ér
  2
_ORIGIN
 10
117991.15276044489
 20
-117112.2105757941
 30
0.0
 41
1.1000000000000001
 42
1.1000000000000001
 43
1.1000000000000001
 50
332.50097899544232
  0
INSERT
  5
1A0D6
  8
ér
  2
_ORIGIN
 10
117972.2465512388
 20
-117123.1260807686
 30
0.0
 41
1.1000000000000001
 42
1.1000000000000001
 43
1.1000000000000001
 50
267.49902100460798
  0
TEXT
  8
ér
  40
3.25
  5
1A116
  62
7
  72
0
  71
0
 10
117977.
 20
-117114.
 30
0.000000
  1
üª
  7
Éíû@ùp_BIGFONT
  0
POINT
  5
1A0D8
  8
DEFPOINTS
 62
     0
 10
117982.6620048594
 20
-117110.71342649771
 30
0.0
  0
POINT
  5
1A0D9
  8
DEFPOINTS
 62
     0
 10
117984.10013535959
 20
-117123.1260807686
 30
0.0
  0
POINT
  5
1A0DA
  8
DEFPOINTS
 62
     0
 10
117985.2259683845
 20
-117122.4760807686
 30
0.0
  0
POINT
  5
1A0DB
  8
DEFPOINTS
 62
     0
 10
117999.2506907096
 20
-117098.18454913959
 30
0.0
  0
POINT
  5
1A0DC
  8
DEFPOINTS
 62
     0
 10
117956.0506907095
 20
-117123.1260807686
 30
0.0
  0
ENDBLK
  5
19C4F
  8
0
  0
BLOCK
  8
0
  2
*D49
 70
     1
 10
0.0
 20
0.0
 30
0.0
  3
*D49
  1

  0
LINE
  5
19D3C
  8
ér
 10
117935.8506907095
 20
-117101.42608076859
 30
0.0
 11
117935.8506907095
 21
-117094.29767758861
 31
0.0
  0
LINE
  5
19D3D
  8
ér
 10
117965.8506907095
 20
-117101.42608076859
 30
0.0
 11
117965.8506907095
 21
-117094.29767758861
 31
0.0
  0
LINE
  5
19D3E
  8
ér
 10
117936.95069070951
 20
-117094.29767758861
 30
0.0
 11
117964.75069070949
 21
-117094.29767758861
 31
0.0
  0
INSERT
  5
19D3F
  8
ér
  2
_ORIGIN
 10
117935.8506907095
 20
-117094.29767758861
 30
0.0
 41
1.1000000000000001
 42
1.1000000000000001
 43
1.1000000000000001
 50
180.0
  0
INSERT
  5
19D40
  8
ér
  2
_ORIGIN
 10
117965.8506907095
 20
-117094.29767758861
 30
0.0
 41
1.1000000000000001
 42
1.1000000000000001
 43
1.1000000000000001
  0
INSERT
  5
19D41
  8
ér
  2
*U86
 10
0.0
 20
0.0
 30
0.0
  0
POINT
  5
19D42
  8
DEFPOINTS
 62
     0
 10
117935.8506907095
 20
-117106.42608076859
 30
0.0
  0
POINT
  5
19D43
  8
DEFPOINTS
 62
     0
 10
117965.8506907095
 20
-117106.42608076859
 30
0.0
  0
POINT
  5
19D44
  8
DEFPOINTS
 62
     0
 10
117965.8506907095
 20
-117094.29767758861
 30
0.0
  0
ENDBLK
  5
19C5B
  8
0
  0
BLOCK
  8
0
  2
*D50
 70
     1
 10
0.0
 20
0.0
 30
0.0
  3
*D50
  1

  0
LINE
  5
19D45
  8
ér
 10
117990.55793944751
 20
-117069.8408359832
 30
0.0
 11
117981.9744043348
 21
-117064.8851296753
 31
0.0
  0
LINE
  5
19D46
  8
ér
 10
117975.5579394474
 20
-117095.82159809671
 30
0.0
 11
117966.9744043348
 21
-117090.8658917888
 31
0.0
  0
LINE
  5
19D47
  8
ér
 10
117981.4244043348
 20
-117065.83775761951
 30
0.0
 11
117967.52440433481
 21
-117089.9132638447
 31
0.0
  0
INSERT
  5
19D48
  8
ér
  2
_ORIGIN
 10
117981.9744043348
 20
-117064.8851296753
 30
0.0
 41
1.1000000000000001
 42
1.1000000000000001
 43
1.1000000000000001
 50
59.99999999999315
  0
INSERT
  5
19D49
  8
ér
  2
_ORIGIN
 10
117966.9744043348
 20
-117090.8658917888
 30
0.0
 41
1.1000000000000001
 42
1.1000000000000001
 43
1.1000000000000001
 50
239.99999999999309
  0
INSERT
  5
19D4A
  8
ér
  2
*U87
 10
0.0
 20
0.0
 30
0.0
  0
POINT
  5
19D4B
  8
DEFPOINTS
 62
     0
 10
117994.8880664664
 20
-117072.3408359832
 30
0.0
  0
POINT
  5
19D4C
  8
DEFPOINTS
 62
     0
 10
117979.8880664663
 20
-117098.32159809671
 30
0.0
  0
POINT
  5
19D4D
  8
DEFPOINTS
 62
     0
 10
117966.9744043348
 20
-117090.8658917888
 30
0.0
  0
ENDBLK
  5
19C67
  8
0
  0
BLOCK
  8
0
  2
*D51
 70
     1
 10
0.0
 20
0.0
 30
0.0
  3
*D51
  1

  0
LINE
  5
19D4E
  8
ér
 10
117951.0506907095
 20
-117120.7260807686
 30
0.0
 11
117921.41694168271
 21
-117120.7260807686
 31
0.0
  0
LINE
  5
19D4F
  8
ér
 10
117930.8506907095
 20
-117107.2260807686
 30
0.0
 11
117921.41694168271
 21
-117107.2260807686
 31
0.0
  0
LINE
  5
19D50
  8
ér
 10
117921.41694168271
 20
-117119.6260807686
 30
0.0
 11
117921.41694168271
 21
-117108.3260807686
 31
0.0
  0
INSERT
  5
19D51
  8
ér
  2
_ORIGIN
 10
117921.41694168271
 20
-117120.7260807686
 30
0.0
 41
1.1000000000000001
 42
1.1000000000000001
 43
1.1000000000000001
 50
270.0
  0
INSERT
  5
19D52
  8
ér
  2
_ORIGIN
 10
117921.41694168271
 20
-117107.2260807686
 30
0.0
 41
1.1000000000000001
 42
1.1000000000000001
 43
1.1000000000000001
 50
90.0
  0
INSERT
  5
19D53
  8
ér
  2
*U88
 10
0.0
 20
0.0
 30
0.0
  0
POINT
  5
19D54
  8
DEFPOINTS
 62
     0
 10
117956.0506907095
 20
-117120.7260807686
 30
0.0
  0
POINT
  5
19D55
  8
DEFPOINTS
 62
     0
 10
117935.8506907095
 20
-117107.2260807686
 30
0.0
  0
POINT
  5
19D56
  8
DEFPOINTS
 62
     0
 10
117921.41694168271
 20
-117107.2260807686
 30
0.0
  0
ENDBLK
  5
19C73
  8
0
  0
BLOCK
  8
0
  2
*D52
 70
     1
 10
0.0
 20
0.0
 30
0.0
  3
*D52
  1

  0
LINE
  5
19D57
  8
ér
 10
117999.6722297404
 20
-117092.6544221207
 30
0.0
 11
118013.2822702874
 21
-117069.0811404003
 31
0.0
  0
LINE
  5
19D58
  8
ér
 10
117987.9808867894
 20
-117085.9044221208
 30
0.0
 11
118001.59092733631
 21
-117062.3311404003
 31
0.0
  0
LINE
  5
19D59
  8
ér
 10
118012.3296423432
 20
-117068.5311404003
 30
0.0
 11
118002.5435552805
 21
-117062.88114040031
 31
0.0
  0
INSERT
  5
19D5A
  8
ér
  2
_ORIGIN
 10
118013.2822702874
 20
-117069.0811404003
 30
0.0
 41
1.1000000000000001
 42
1.1000000000000001
 43
1.1000000000000001
 50
330.00000000008981
  0
INSERT
  5
19D5B
  8
ér
  2
_ORIGIN
 10
118001.59092733631
 20
-117062.3311404003
 30
0.0
 41
1.1000000000000001
 42
1.1000000000000001
 43
1.1000000000000001
 50
150.0000000000897
  0
INSERT
  5
19D5C
  8
ér
  2
*U89
 10
0.0
 20
0.0
 30
0.0
  0
POINT
  5
19D5D
  8
DEFPOINTS
 62
     0
 10
117997.17222974051
 20
-117096.9845491396
 30
0.0
  0
POINT
  5
19D5E
  8
DEFPOINTS
 62
     0
 10
117985.4808867894
 20
-117090.2345491397
 30
0.0
  0
POINT
  5
19D5F
  8
DEFPOINTS
 62
     0
 10
118001.59092733631
 20
-117062.3311404003
 30
0.0
  0
ENDBLK
  5
19C7F
  8
0
  0
BLOCK
  8
0
  2
*U54
 70
     1
 10
0.0
 20
0.0
 30
0.0
  3
*U54
  1

  0
TEXT
  5
1A05C
  8
ér
 62
     7
 10
117901.2987903789
 20
-116958.66201957309
 30
0.0
 40
3.25
  1
40
 50
90.0
 41
0.75
  7
Éíû@ùp_BIGFONT
  0
ENDBLK
  5
1A05E
  8
0
  0
BLOCK
  8
0
  2
*U55
 70
     1
 10
0.0
 20
0.0
 30
0.0
  3
*U55
  1

  0
TEXT
  5
1A060
  8
ér
 62
     7
 10
117923.9803724893
 20
-116926.1705353671
 30
0.0
 40
3.25
  1
20
 41
0.75
  7
Éíû@ùp_BIGFONT
  0
ENDBLK
  5
1A062
  8
0
  0
BLOCK
  8
0
  2
*U56
 70
     1
 10
0.0
 20
0.0
 30
0.0
  3
*U56
  1

  0
TEXT
  5
1A064
  8
ér
 62
     7
 10
117794.1751004632
 20
-116942.2157156516
 30
0.0
 40
3.25
  1
41
 41
0.75
  7
Éíû@ùp_BIGFONT
  0
ENDBLK
  5
1A066
  8
0
  0
BLOCK
  8
0
  2
*U57
 70
     1
 10
0.0
 20
0.0
 30
0.0
  3
*U57
  1

  0
TEXT
  5
1A068
  8
ér
 62
     7
 10
117780.6527632823
 20
-116975.3696851753
 30
0.0
 40
3.25
  1
15
 41
0.75
  7
Éíû@ùp_BIGFONT
  0
ENDBLK
  5
1A06A
  8
0
  0
BLOCK
  8
0
  2
*U58
 70
     1
 10
0.0
 20
0.0
 30
0.0
  3
*U58
  1

  0
TEXT
  5
1A06C
  8
ér
 62
     7
 10
118044.31733086229
 20
-116936.74221691561
 30
0.0
 40
3.25
  1
40
 41
0.75
  7
Éíû@ùp_BIGFONT
  0
ENDBLK
  5
1A06E
  8
0
  0
BLOCK
  8
0
  2
*U59
 70
     1
 10
0.0
 20
0.0
 30
0.0
  3
*U59
  1

  0
TEXT
  5
1A070
  8
ér
 62
     7
 10
118009.7740892713
 20
-116958.9063091994
 30
0.0
 40
3.25
  1
13.5
 50
90.0
 41
0.75
  7
Éíû@ùp_BIGFONT
  0
ENDBLK
  5
1A072
  8
0
  0
BLOCK
  8
0
  2
*U60
 70
     1
 10
0.0
 20
0.0
 30
0.0
  3
*U60
  1

  0
TEXT
  5
1A074
  8
ér
 62
     7
 10
118044.31733086221
 20
-116972.7988476821
 30
0.0
 40
3.25
  1
20
 41
0.75
  7
Éíû@ùp_BIGFONT
  0
ENDBLK
  5
1A076
  8
0
  0
BLOCK
  8
0
  2
*U61
 70
     1
 10
0.0
 20
0.0
 30
0.0
  3
*U61
  1

  0
TEXT
  5
1A078
  8
ér
 62
     7
 10
117785.5437466798
 20
-117080.0247943937
 30
0.0
 40
3.25
  1
30
 41
0.75
  7
Éíû@ùp_BIGFONT
  0
ENDBLK
  5
1A07A
  8
0
  0
BLOCK
  8
0
  2
*U62
 70
     1
 10
0.0
 20
0.0
 30
0.0
  3
*U62
  1

  0
TEXT
  5
1A07C
  8
ér
 62
     7
 10
117775.5773772259
 20
-117105.0954776696
 30
0.0
 40
3.25
  1
13.5
 50
90.0
 41
0.75
  7
Éíû@ùp_BIGFONT
  0
ENDBLK
  5
1A07E
  8
0
  0
BLOCK
  8
0
  2
*U63
 70
     1
 10
0.0
 20
0.0
 30
0.0
  3
*U63
  1

  0
TEXT
  5
1A080
  8
ér
 62
     7
 10
117821.0733735707
 20
-117123.03964460389
 30
0.0
 40
3.25
  1
30
 50
300.00000000394118
 41
0.75
  7
Éíû@ùp_BIGFONT
  0
ENDBLK
  5
1A082
  8
0
  0
BLOCK
  8
0
  2
*U64
 70
     1
 10
0.0
 20
0.0
 30
0.0
  3
*U64
  1

  0
TEXT
  5
1A084
  8
ér
 62
     7
 10
117802.52054159901
 20
-117115.1784786669
 30
0.0
 40
3.25
  1
30
 41
0.75
  7
Éíû@ùp_BIGFONT
  0
ENDBLK
  5
1A086
  8
0
  0
BLOCK
  8
0
  2
*U65
 70
     1
 10
0.0
 20
0.0
 30
0.0
  3
*U65
  1

  0
TEXT
  5
1A088
  8
ér
 62
     7
 10
117864.18898906519
 20
-117117.7499466226
 30
0.0
 40
3.25
  1
30
 50
300.00000000275492
 41
0.75
  7
Éíû@ùp_BIGFONT
  0
ENDBLK
  5
1A08A
  8
0
  0
BLOCK
  8
0
  2
*U66
 70
     1
 10
0.0
 20
0.0
 30
0.0
  3
*U66
  1

  0
TEXT
  5
1A08C
  8
ér
 62
     7
 10
117807.8842937122
 20
-117127.5469456002
 30
0.0
 40
3.25
  1
üª
 50
330.00000000060339
 41
0.75
  7
Éíû@ùp_BIGFONT
  0
ENDBLK
  5
1A08E
  8
0
  0
BLOCK
  8
0
  2
*U67
 70
     1
 10
0.0
 20
0.0
 30
0.0
  3
*U67
  1

  0
TEXT
  5
1A090
  8
ér
 62
     7
 10
117949.2358561866
 20
-117134.657733364
 30
0.0
 40
3.25
  1
30
 41
0.75
  7
Éíû@ùp_BIGFONT
  0
ENDBLK
  5
1A092
  8
0
  0
BLOCK
  8
0
  2
*U68
 70
     1
 10
0.0
 20
0.0
 30
0.0
  3
*U68
  1

  0
TEXT
  5
1A094
  8
ér
 62
     7
 10
117981.2659126424
 20
-117117.6500884597
 30
0.0
 40
3.25
  1
30
 50
60.120130593756869
 41
0.75
  7
Éíû@ùp_BIGFONT
  0
ENDBLK
  5
1A096
  8
0
  0
BLOCK
  8
0
  2
*U69
 70
     1
 10
0.0
 20
0.0
 30
0.0
  3
*U69
  1

  0
TEXT
  5
1A098
  8
ér
 62
     7
 10
117976.3032012091
 20
-117081.73750937069
 30
0.0
 40
3.25
  1
13.5
 50
330.0000000007185
 41
0.75
  7
Éíû@ùp_BIGFONT
  0
ENDBLK
  5
1A09A
  8
0
  0
BLOCK
  8
0
  2
*U70
 70
     1
 10
0.0
 20
0.0
 30
0.0
  3
*U70
  1

  0
TEXT
  5
1A09C
  8
ér
 62
     7
 10
117958.73491767239
 20
-117085.0083635737
 30
0.0
 40
3.25
  1
30
 50
59.99999999802472
 41
0.75
  7
Éíû@ùp_BIGFONT
  0
ENDBLK
  5
1A09E
  8
0
  0
BLOCK
  8
0
  2
*U71
 70
     1
 10
0.0
 20
0.0
 30
0.0
  3
*U71
  1

  0
TEXT
  5
1A0A0
  8
ér
 62
     7
 10
117932.21257603059
 20
-117098.17828072549
 30
0.0
 40
3.25
  1
30
 41
0.75
  7
Éíû@ùp_BIGFONT
  0
ENDBLK
  5
1A0A2
  8
0
  0
BLOCK
  8
0
  2
*U72
 70
     1
 10
0.0
 20
0.0
 30
0.0
  3
*U72
  1

  0
TEXT
  5
1A0A4
  8
ér
 62
     7
 10
117922.8169584448
 20
-117119.80892829569
 30
0.0
 40
3.25
  1
13.5
 50
90.0
 41
0.75
  7
Éíû@ùp_BIGFONT
  0
ENDBLK
  5
1A0A6
  8
0
  0
BLOCK
  8
0
  2
*U73
 70
     1
 10
0.0
 20
0.0
 30
0.0
  3
*U73
  1

  0
TEXT
  5
1A0A8
  8
ér
 62
     7
 10
117958.8974602722
 20
-117112.8291481458
 30
0.0
 40
3.25
  1
üª
 50
30.000000000072241
 41
0.75
  7
Éíû@ùp_BIGFONT
  0
ENDBLK
  5
1A0AA
  8
0
  0
BLOCK
  8
0
  2
*U74
 70
     1
 10
0.0
 20
0.0
 30
0.0
  3
*U74
  1

  0
TEXT
  5
1A0AC
  8
ér
 62
     7
 10
117831.05475204191
 20
-116962.37460781141
 30
0.0
 40
3.25
  1
13.5
 50
90.0
 41
0.75
  7
Éíû@ùp_BIGFONT
  0
ENDBLK
  5
1A0AE
  8
0
  0
BLOCK
  8
0
  2
*U75
 70
     1
 10
0.0
 20
0.0
 30
0.0
  3
*U75
  1

  0
TEXT
  5
1A0B0
  8
ér
 62
     7
 10
117901.2987903789
 20
-116987.3852338588
 30
0.0
 40
3.25
  1
13.5
 50
90.0
 41
0.75
  7
Éíû@ùp_BIGFONT
  0
ENDBLK
  5
1A0B2
  8
0
  0
BLOCK
  8
0
  2
*U76
 70
     1
 10
0.0
 20
0.0
 30
0.0
  3
*U76
  1

  0
TEXT
  5
1A0B4
  8
ér
 62
     7
 10
117923.9803724892
 20
-117005.104970905
 30
0.0
 40
3.25
  1
20
 41
0.75
  7
Éíû@ùp_BIGFONT
  0
ENDBLK
  5
1A0B6
  8
0
  0
BLOCK
  8
0
  2
*U77
 70
     1
 10
0.0
 20
0.0
 30
0.0
  3
*U77
  1

  0
TEXT
  5
1A0B8
  8
ér
 62
     7
 10
117901.2987903789
 20
-116994.0593410016
 30
0.0
 40
3.25
  1
6
 50
90.0
 41
0.75
  7
Éíû@ùp_BIGFONT
  0
ENDBLK
  5
1A0BA
  8
0
  0
BLOCK
  8
0
  2
*U78
 70
     1
 10
0.0
 20
0.0
 30
0.0
  3
*U78
  1

  0
TEXT
  5
1A0BC
  8
0
 62
     7
 10
117768.8030612367
 20
-117199.3745965627
 30
0.0
 40
3.25
  1
30
 41
0.75
  7
Éíû@ùp_BIGFONT
  0
ENDBLK
  5
1A0BE
  8
0
  0
BLOCK
  8
0
  2
*U79
 70
     1
 10
0.0
 20
0.0
 30
0.0
  3
*U79
  1

  0
TEXT
  5
1A0C0
  8
0
 62
     7
 10
117744.18698980811
 20
-117217.03704929139
 30
0.0
 40
3.25
  1
19
 41
0.75
  7
Éíû@ùp_BIGFONT
  0
ENDBLK
  5
1A0C2
  8
0
  0
BLOCK
  8
0
  2
*U80
 70
     1
 10
0.0
 20
0.0
 30
0.0
  3
*U80
  1

  0
TEXT
  5
1A0C4
  8
0
 62
     7
 10
117712.89656293159
 20
-117171.9101942726
 30
0.0
 40
3.25
  1
13.5
 50
90.0
 41
0.75
  7
Éíû@ùp_BIGFONT
  0
ENDBLK
  5
1A0C6
  8
0
  0
BLOCK
  8
0
  2
*U81
 70
     1
 10
0.0
 20
0.0
 30
0.0
  3
*U81
  1

  0
TEXT
  5
1A0C8
  8
0
 62
     7
 10
117825.94331587671
 20
-117236.023066978
 30
0.0
 40
3.25
  1
13.5
 50
30.000000000062439
 41
0.75
  7
Éíû@ùp_BIGFONT
  0
ENDBLK
  5
1A0CA
  8
0
  0
BLOCK
  8
0
  2
*U82
 70
     1
 10
0.0
 20
0.0
 30
0.0
  3
*U82
  1

  0
TEXT
  5
1A0DE
  8
ér
 62
     7
 10
117943.81602043469
 20
-117092.9055423817
 30
0.0
 40
3.25
  1
120\U+00B0
 50
30.000000000072241
 41
0.75
  7
Éíû@ùp_BIGFONT
  0
ENDBLK
  5
1A0E0
  8
0
  0
BLOCK
  8
0
  2
*U83
 70
     1
 10
0.0
 20
0.0
 30
0.0
  3
*U83
  1

  0
TEXT
  5
1A0E2
  8
ér
 62
     7
 10
117844.4873181322
 20
-117143.7673077426
 30
0.0
 40
3.25
  1
13.5
 50
30.00000000279789
 41
0.75
  7
Éíû@ùp_BIGFONT
  0
ENDBLK
  5
1A0E4
  8
0
  0
BLOCK
  8
0
  2
*U84
 70
     1
 10
0.0
 20
0.0
 30
0.0
  3
*U84
  1

  0
TEXT
  5
1A0E6
  8
ér
 62
     7
 10
117967.52926213809
 20
-117132.62506260059
 30
0.0
 40
3.25
  1
30
 41
0.75
  7
Éíû@ùp_BIGFONT
  0
ENDBLK
  5
1A0E8
  8
0
  0
BLOCK
  8
0
  2
*U85
 70
     1
 10
0.0
 20
0.0
 30
0.0
  3
*U85
  1

  0
TEXT
  5
1A0EA
  8
ér
 62
     7
 10
117999.1542328486
 20
-117116.74428141861
 30
0.0
 40
3.25
  1
30
 50
59.999999999917229
 41
0.75
  7
Éíû@ùp_BIGFONT
  0
ENDBLK
  5
1A0EC
  8
0
  0
BLOCK
  8
0
  2
*U86
 70
     1
 10
0.0
 20
0.0
 30
0.0
  3
*U86
  1

  0
TEXT
  5
1A0EE
  8
ér
 62
     7
 10
117948.52926213809
 20
-117093.29767758861
 30
0.0
 40
3.25
  1
30
 41
0.75
  7
Éíû@ùp_BIGFONT
  0
ENDBLK
  5
1A0F0
  8
0
  0
BLOCK
  8
0
  2
*U87
 70
     1
 10
0.0
 20
0.0
 30
0.0
  3
*U87
  1

  0
TEXT
  5
1A0F2
  8
ér
 62
     7
 10
117972.4476646453
 20
-117079.385926848
 30
0.0
 40
3.25
  1
30
 50
59.999999999993157
 41
0.75
  7
Éíû@ùp_BIGFONT
  0
ENDBLK
  5
1A0F4
  8
0
  0
BLOCK
  8
0
  2
*U88
 70
     1
 10
0.0
 20
0.0
 30
0.0
  3
*U88
  1

  0
TEXT
  5
1A0F6
  8
ér
 62
     7
 10
117920.41694168279
 20
-117118.2707236257
 30
0.0
 40
3.25
  1
13.5
 50
90.0
 41
0.75
  7
Éíû@ùp_BIGFONT
  0
ENDBLK
  5
1A0F8
  8
0
  0
BLOCK
  8
0
  2
*U89
 70
     1
 10
0.0
 20
0.0
 30
0.0
  3
*U89
  1

  0
TEXT
  5
1A0FA
  8
ér
 62
     7
 10
118004.2173289974
 20
-117062.6927935679
 30
0.0
 40
3.25
  1
13.5
 50
330.00000000008981
 41
0.75
  7
Éíû@ùp_BIGFONT
  0
ENDBLK
  5
1A0FC
  8
0
  0
BLOCK
  8
0
  2
*U90
 70
     1
 10
0.0
 20
0.0
 30
0.0
  3
*U90
  1

  0
TEXT
  5
1A0FE
  8
ér
 62
     7
 10
117834.37592837559
 20
-117121.11278745309
 30
0.0
 40
3.25
  1
30
 50
299.99999999994481
 41
0.75
  7
Éíû@ùp_BIGFONT
  0
ENDBLK
  5
1A100
  8
0
  0
BLOCK
  8
0
  2
*U91
 70
     1
 10
0.0
 20
0.0
 30
0.0
  3
*U91
  1

  0
TEXT
  5
1A102
  8
ér
 62
     7
 10
117799.6794705147
 20
-117075.70625374161
 30
0.0
 40
3.25
  1
30
 41
0.75
  7
Éíû@ùp_BIGFONT
  0
ENDBLK
  5
1A104
  8
0
  0
BLOCK
  8
0
  2
*U92
 70
     1
 10
0.0
 20
0.0
 30
0.0
  3
*U92
  1

  0
TEXT
  5
1A106
  8
ér
 62
     7
 10
117880.08249657899
 20
-117116.6633982265
 30
0.0
 40
3.25
  1
30
 50
300.00000000000682
 41
0.75
  7
Éíû@ùp_BIGFONT
  0
ENDBLK
  5
1A108
  8
0
  0
BLOCK
  8
0
  2
*U93
 70
     1
 10
0.0
 20
0.0
 30
0.0
  3
*U93
  1

  0
TEXT
  5
1A10A
  8
ér
 62
     7
 10
117771.5671500594
 20
-117100.6792997787
 30
0.0
 40
3.25
  1
13.5
 50
90.0
 41
0.75
  7
Éíû@ùp_BIGFONT
  0
ENDBLK
  5
1A10C
  8
0
  0
BLOCK
  8
0
  2
*U94
 70
     1
 10
0.0
 20
0.0
 30
0.0
  3
*U94
  1

  0
TEXT
  5
1A10E
  8
ér
 62
     7
 10
117870.21580226329
 20
-117155.0858933147
 30
0.0
 40
3.25
  1
13.5
 50
29.999999999986329
 41
0.75
  7
Éíû@ùp_BIGFONT
  0
ENDBLK
  5
1A110
  8
0
  0
BLOCK
  8
0
  2
*U95
 70
     1
 10
0.0
 20
0.0
 30
0.0
  3
*U95
  1

  0
TEXT
  5
1A112
  8
ér
 62
     7
 10
117818.6794705147
 20
-117115.03363875359
 30
0.0
 40
3.25
  1
30
 41
0.75
  7
Éíû@ùp_BIGFONT
  0
ENDBLK
  5
1A114
  8
0
  0
ENDSEC
  0
SECTION
  2
ENTITIES
  0
TEXT
  5
17EB9
  8
ér
 10
117896.9542016284
 20
-117052.51198154531
 30
0.0
 40
6.0
  1
CB-
  7
òÂÄÜùp_BIGHONT
1001
ACAD
1000
MTEXTBEGIN
1070
    73
1070
     1
1070
    44
1040
1.0
1070
    74
1070
     0
1000
MTEXTEND
  0
TEXT
  5
17EBA
  8
ér
 10
117914.9257598487
 20
-117052.51198154539
 30
0.0
 40
6.0
  1
17
  7
òÂÄÜùp_BIGHONT
1001
ACAD
1000
MTEXTBEGIN
1070
    73
1070
     1
1070
    44
1040
1.0
1070
    74
1070
     0
1000
MTEXTEND
  0
TEXT
  5
17ECD
  8
ér
 10
117764.8752158687
 20
-117052.616825067
 30
0.0
 40
6.0
  1
CB-
  7
òÂÄÜùp_BIGHONT
1001
ACAD
1000
MTEXTBEGIN
1070
    73
1070
     1
1070
    44
1040
1.0
1070
    74
1070
     0
1000
MTEXTEND
  0
TEXT
  5
17ECE
  8
ér
 10
117782.4669307599
 20
-117052.616825067
 30
0.0
 40
6.0
  1
16
  7
òÂÄÜùp_BIGHONT
1001
ACAD
1000
MTEXTBEGIN
1070
    73
1070
     1
1070
    44
1040
1.0
1070
    74
1070
     0
1000
MTEXTEND
  0
TEXT
  5
17F96
  8
ér
 10
117992.38711893219
 20
-116913.4440293552
 30
0.0
 40
6.0
  1
CB-9
  7
òÂÄÜùp_BIGHONT
1001
ACAD
1000
MTEXTBEGIN
1070
    73
1070
     1
1070
    44
1040
1.0
1070
    74
1070
     0
1000
MTEXTEND
  0
TEXT
  5
18047
  8
ér
 10
117764.16448466609
 20
-116912.6568155204
 30
0.0
 40
6.0
  1
CB-3
  7
òÂÄÜùp_BIGHONT
1001
ACAD
1000
MTEXTBEGIN
1070
    73
1070
     1
1070
    44
1040
1.0
1070
    74
1070
     0
1000
MTEXTEND
  0
LINE
  5
18258
  8
0
 10
117916.3018010607
 20
-116936.3405910017
 30
0.0
 11
117916.90180106059
 21
-116936.3405910017
 31
0.0
  0
LINE
  5
1827C
  8
0
 10
117936.3018010607
 20
-116976.8405910017
 30
0.0
 11
117936.3018010607
 21
-116994.7405910017
 31
0.0
  0
LINE
  5
1827E
  8
0
 10
117916.3018010607
 20
-116989.8405910017
 30
0.0
 11
117916.3018010607
 21
-116994.7405910017
 31
0.0
  0
LINE
  5
18282
  8
0
 10
117916.3018010607
 20
-116989.8405910017
 30
0.0
 11
117916.9018010607
 21
-116989.8405910017
 31
0.0
  0
LINE
  5
18283
  8
0
 10
117917.4018010607
 20
-116995.8405910017
 30
0.0
 11
117935.2018010607
 21
-116995.8405910017
 31
0.0
  0
LINE
  5
18284
  8
0
 10
117916.3018010607
 20
-116936.3405910017
 30
0.0
 11
117916.90180106059
 21
-116936.3405910017
 31
0.0
  0
LINE
  5
18285
  8
0
 10
117917.4018010607
 20
-116975.7405910018
 30
0.0
 11
117935.2018010607
 21
-116975.7405910017
 31
0.0
  0
LINE
  5
18286
  8
0
 10
117916.3018010607
 20
-116936.3405910017
 30
0.0
 11
117916.3018010607
 21
-116975.2405910018
 31
0.0
  0
TEXT
  5
18287
  8
ér
 10
117863.5686434107
 20
-116911.2900639147
 30
0.0
 40
6.0
  1
CB-
  7
òÂÄÜùp_BIGHONT
1001
ACAD
1000
MTEXTBEGIN
1070
    73
1070
     1
1070
    44
1040
1.0
1070
    74
1070
     0
1000
MTEXTEND
  0
TEXT
  5
18288
  8
ér
 10
117882.42236766771
 20
-116911.2900639147
 30
0.0
 40
6.0
  1
6
  7
òÂÄÜùp_BIGHONT
1001
ACAD
1000
MTEXTBEGIN
1070
    73
1070
     1
1070
    44
1040
1.0
1070
    74
1070
     0
1000
MTEXTEND
  0
LINE
  5
18453
  8
0
 10
117916.90180106059
 20
-116936.3405910017
 30
0.0
 11
117916.90180106059
 21
-116975.2405910018
 31
0.0
  0
LINE
  5
18454
  8
0
 10
117917.4018010607
 20
-116976.3405910018
 30
0.0
 11
117935.2018010607
 21
-116976.3405910017
 31
0.0
  0
LINE
  5
18455
  8
0
 10
117935.7018010607
 20
-116976.8405910017
 30
0.0
 11
117935.7018010607
 21
-116994.7405910017
 31
0.0
  0
LINE
  5
18456
  8
0
 10
117917.4018010607
 20
-116995.2405910017
 30
0.0
 11
117935.2018010607
 21
-116995.2405910017
 31
0.0
  0
LINE
  5
18457
  8
0
 10
117916.9018010607
 20
-116989.8405910017
 30
0.0
 11
117916.9018010607
 21
-116994.7405910017
 31
0.0
  0
ARC
  5
18458
  8
0
 10
117917.4018010607
 20
-116975.2405910018
 30
0.0
 40
1.1000000000000001
 50
180.0
 51
270.00000000030622
  0
ARC
  5
18459
  8
0
 10
117935.2018010607
 20
-116976.8405910017
 30
0.0
 40
1.1000000000000001
 50
0.0
 51
90.000000000306144
  0
ARC
  5
1845A
  8
0
 10
117935.2018010607
 20
-116994.7405910017
 30
0.0
 40
1.1000000000000001
 50
270.0
 51
0.0
  0
ARC
  5
1845B
  8
0
 10
117917.4018010607
 20
-116994.7405910017
 30
0.0
 40
1.1000000000000001
 50
180.0
 51
270.0
  0
ARC
  5
1845C
  8
0
 10
117917.4018010607
 20
-116975.2405910018
 30
0.0
 40
0.5
 50
180.0
 51
270.0000000003094
  0
ARC
  5
1845D
  8
0
 10
117935.2018010607
 20
-116976.8405910017
 30
0.0
 40
0.5
 50
0.0
 51
90.000000000309413
  0
ARC
  5
1845E
  8
0
 10
117935.2018010607
 20
-116994.7405910017
 30
0.0
 40
0.5
 50
270.0
 51
0.0
  0
ARC
  5
1845F
  8
0
 10
117917.4018010607
 20
-116994.7405910017
 30
0.0
 40
0.5
 50
180.0
 51
270.0
  0
DIMENSION
  5
18835
  8
ér
  2
*D10
 10
117902.2987903788
 20
-116976.3405910018
 30
0.0
 11
117899.6737903789
 21
-116956.3405910017
 31
0.0
 70
     0
 13
117916.3018010607
 23
-116936.3405910017
 33
0.0
 14
117917.4018010607
 24
-116976.3405910018
 34
0.0
 50
90.0
  0
DIMENSION
  5
18856
  8
ér
  2
*D11
 10
117916.3018010607
 20
-116927.1705353671
 30
0.0
 11
117926.3018010607
 21
-116924.5455353671
 31
0.0
 70
     0
 13
117936.3018010607
 23
-116976.8405910017
 33
0.0
 14
117916.3018010607
 24
-116936.3405910017
 34
0.0
  0
DIMENSION
  5
18898
  8
ér
  2
*D12
 10
117936.3018010607
 20
-117006.104970905
 30
0.0
 11
117926.3018010606
 21
-117003.479970905
 31
0.0
 70
     0
 13
117916.3018010607
 23
-116994.7405910017
 33
0.0
 14
117936.3018010607
 24
-116994.7405910017
 34
0.0
  0
DIMENSION
  5
188E3
  8
ér
  2
*D13
 10
117902.2987903788
 20
-116995.8405910017
 30
0.0
 11
117899.6737903789
 21
-116992.8405910017
 31
0.0
 70
     0
 13
117916.3018010607
 23
-116989.8405910017
 33
0.0
 14
117917.4018010607
 24
-116995.8405910017
 34
0.0
 50
90.0
  0
DIMENSION
  5
19067
  8
ér
  2
*D28
 10
117902.2987903788
 20
-116989.8405910017
 30
0.0
 11
117899.6737903789
 21
-116983.0905910017
 31
0.0
 70
     0
 13
117917.4018010607
 23
-116976.3405910018
 33
0.0
 14
117916.9018010607
 24
-116989.8405910017
 34
0.0
 50
90.0
  0
LINE
  5
19158
  8
0
 10
117816.64831474891
 20
-116950.5299649542
 30
0.0
 11
117776.94831474889
 21
-116950.5299649542
 31
0.0
  0
LINE
  5
19159
  8
0
 10
117816.64831474891
 20
-116951.3299649542
 30
0.0
 11
117776.94831474889
 21
-116951.3299649542
 31
0.0
  0
ARC
  5
1915A
  8
0
 10
117776.94831474889
 20
-116951.8299649543
 30
0.0
 40
1.3
 50
90.0
 51
180.0
  0
ARC
  5
1915B
  8
0
 10
117776.94831474889
 20
-116951.8299649543
 30
0.0
 40
0.5
 50
90.0
 51
180.0
  0
LINE
  5
1915C
  8
0
 10
117775.64831474891
 20
-116951.8299649543
 30
0.0
 11
117775.64831474891
 21
-116965.92996495419
 31
0.0
  0
LINE
  5
1915D
  8
0
 10
117776.44831474889
 20
-116951.8299649543
 30
0.0
 11
117776.44831474889
 21
-116965.92996495419
 31
0.0
  0
LINE
  5
1915E
  8
0
 10
117776.94831474889
 20
-116967.2299649543
 30
0.0
 11
117789.44831474889
 21
-116967.2299649543
 31
0.0
  0
LINE
  5
1915F
  8
0
 10
117776.94831474889
 20
-116966.42996495419
 30
0.0
 11
117789.44831474889
 21
-116966.42996495419
 31
0.0
  0
ARC
  5
19160
  8
0
 10
117776.94831474889
 20
-116965.92996495419
 30
0.0
 40
1.3
 50
180.0
 51
270.0
  0
ARC
  5
19161
  8
0
 10
117776.94831474889
 20
-116965.92996495419
 30
0.0
 40
0.5
 50
180.0
 51
270.0
  0
LINE
  5
19162
  8
0
 10
117784.64831474891
 20
-116964.8299649543
 30
0.0
 11
117789.44831474889
 21
-116964.8299649542
 31
0.0
  0
LINE
  5
19163
  8
0
 10
117784.64831474891
 20
-116965.62996495431
 30
0.0
 11
117789.44831474889
 21
-116965.62996495431
 31
0.0
  0
ARC
  5
19164
  8
0
 10
117789.44831474889
 20
-116966.0299649542
 30
0.0
 40
1.199999999997089
 50
270.0
 51
90.0
  0
ARC
  5
19165
  8
0
 10
117789.44831474889
 20
-116966.0299649542
 30
0.0
 40
0.3999999999970896
 50
270.0
 51
90.0
  0
LINE
  5
19166
  8
0
 10
117784.64831474891
 20
-116964.8299649543
 30
0.0
 11
117784.64831474891
 21
-116965.62996495431
 31
0.0
  0
LINE
  5
19167
  8
0
 10
117816.64831474891
 20
-116950.5299649542
 30
0.0
 11
117816.64831474891
 21
-116951.3299649542
 31
0.0
  0
DIMENSION
  5
19168
  8
ér
  2
*D29
 10
117816.64831474891
 20
-116943.2157156516
 30
0.0
 11
117796.14831474891
 21
-116940.5907156516
 31
0.0
 70
     0
  1
41
 13
117775.64831474891
 23
-116951.8299649543
 33
0.0
 14
117816.64831474891
 24
-116950.5299649542
 34
0.0
  0
DIMENSION
  5
1916B
  8
ér
  2
*D30
 10
117832.05475204191
 20
-116964.8299649542
 30
0.0
 11
117829.42975204191
 21
-116958.0799649542
 31
0.0
 70
     0
 13
117816.64831474891
 23
-116951.3299649542
 33
0.0
 14
117789.44831474889
 24
-116964.8299649542
 34
0.0
 50
90.0
  0
DIMENSION
  5
1916E
  8
ér
  2
*D31
 10
117790.6482832442
 20
-116976.3696851753
 30
0.0
 11
117783.1482989966
 21
-116973.7446851753
 31
0.0
 70
     0
  1
15
 13
117775.64831474891
 23
-116965.92996495419
 33
0.0
 14
117790.6482832442
 24
-116966.03866037809
 34
0.0
  0
LINE
  5
19171
  8
0
 10
118037.83875943359
 20
-116963.76166634211
 30
0.0
 11
118055.4387594336
 21
-116963.76166634211
 31
0.0
  0
LINE
  5
19172
  8
0
 10
118037.83875943359
 20
-116962.9616663421
 30
0.0
 11
118055.4387594336
 21
-116962.9616663421
 31
0.0
  0
LINE
  5
19173
  8
0
 10
118050.6387594336
 20
-116961.3616663422
 30
0.0
 11
118055.4387594336
 21
-116961.3616663422
 31
0.0
  0
LINE
  5
19174
  8
0
 10
118050.6387594336
 20
-116962.1616663422
 30
0.0
 11
118055.4387594336
 21
-116962.1616663421
 31
0.0
  0
ARC
  5
19175
  8
0
 10
118055.4387594336
 20
-116962.5616663422
 30
0.0
 40
1.199999999997089
 50
270.0
 51
90.0
  0
ARC
  5
19176
  8
0
 10
118055.4387594336
 20
-116962.5616663422
 30
0.0
 40
0.3999999999970896
 50
270.0
 51
90.0
  0
LINE
  5
19177
  8
0
 10
118050.6387594336
 20
-116961.3616663422
 30
0.0
 11
118050.6387594336
 21
-116962.1616663422
 31
0.0
  0
LINE
  5
19178
  8
0
 10
118042.6387594336
 20
-116961.3616663422
 30
0.0
 11
118037.83875943359
 21
-116961.3616663422
 31
0.0
  0
LINE
  5
19179
  8
0
 10
118042.6387594336
 20
-116962.1616663422
 30
0.0
 11
118037.83875943359
 21
-116962.1616663421
 31
0.0
  0
ARC
  5
1917A
  8
0
 10
118037.83875943359
 20
-116962.5616663422
 30
0.0
 40
1.199999999997089
 50
90.0
 51
270.0
  0
ARC
  5
1917B
  8
0
 10
118037.83875943359
 20
-116962.5616663422
 30
0.0
 40
0.3999999999970896
 50
90.0
 51
270.0
  0
LINE
  5
1917C
  8
0
 10
118042.6387594336
 20
-116961.3616663422
 30
0.0
 11
118042.6387594336
 21
-116962.1616663422
 31
0.0
  0
LINE
  5
1917D
  8
0
 10
118066.6387594337
 20
-116947.0616663425
 30
0.0
 11
118047.9387594337
 21
-116947.0616663422
 31
0.0
  0
LINE
  5
1917E
  8
0
 10
118066.6387594337
 20
-116947.86166634251
 30
0.0
 11
118047.9387594337
 21
-116947.8616663422
 31
0.0
  0
ARC
  5
1917F
  8
0
 10
118047.9387594337
 20
-116948.3616663422
 30
0.0
 40
1.3
 50
90.0
 51
180.0
  0
ARC
  5
19180
  8
0
 10
118047.9387594337
 20
-116948.3616663422
 30
0.0
 40
0.5
 50
90.0
 51
180.0
  0
LINE
  5
19181
  8
0
 10
118046.6387594337
 20
-116948.3616663422
 30
0.0
 11
118046.6387594337
 21
-116961.6616663422
 31
0.0
  0
LINE
  5
19182
  8
0
 10
118047.4387594337
 20
-116948.3616663422
 30
0.0
 11
118047.4387594337
 21
-116961.6616663422
 31
0.0
  0
ARC
  5
19183
  8
0
 10
118047.9387594337
 20
-116961.6616663422
 30
0.0
 40
1.3
 50
180.0
 51
270.0
  0
ARC
  5
19184
  8
0
 10
118047.9387594337
 20
-116961.6616663422
 30
0.0
 40
0.5
 50
180.0
 51
270.0
  0
LINE
  5
19185
  8
0
 10
118066.6387594337
 20
-116947.0616663425
 30
0.0
 11
118066.6387594337
 21
-116947.86166634251
 31
0.0
  0
LINE
  5
19186
  8
0
 10
118047.9387594337
 20
-116962.96166634221
 30
0.0
 11
118055.4387594336
 21
-116962.96166634221
 31
0.0
  0
LINE
  5
19187
  8
0
 10
118047.9387594337
 20
-116962.1616663422
 30
0.0
 11
118055.4387594336
 21
-116962.1616663422
 31
0.0
  0
LINE
  5
19188
  8
0
 10
118055.4387594336
 20
-116962.1616663422
 30
0.0
 11
118055.4387594336
 21
-116962.96166634221
 31
0.0
  0
LINE
  5
19189
  8
0
 10
118026.6387594337
 20
-116947.0616663425
 30
0.0
 11
118045.3387594337
 21
-116947.0616663422
 31
0.0
  0
LINE
  5
1918A
  8
0
 10
118026.6387594337
 20
-116947.86166634251
 30
0.0
 11
118045.3387594337
 21
-116947.8616663422
 31
0.0
  0
ARC
  5
1918B
  8
0
 10
118045.3387594337
 20
-116948.3616663422
 30
0.0
 40
1.3
 50
0.0
 51
90.0
  0
ARC
  5
1918C
  8
0
 10
118045.3387594337
 20
-116948.3616663422
 30
0.0
 40
0.5
 50
0.0
 51
90.0
  0
LINE
  5
1918D
  8
0
 10
118046.6387594337
 20
-116948.3616663422
 30
0.0
 11
118046.6387594338
 21
-116961.6616663422
 31
0.0
  0
LINE
  5
1918E
  8
0
 10
118045.8387594337
 20
-116948.3616663422
 30
0.0
 11
118045.8387594338
 21
-116961.6616663422
 31
0.0
  0
ARC
  5
1918F
  8
0
 10
118045.3387594338
 20
-116961.6616663422
 30
0.0
 40
1.3
 50
270.0
 51
0.0
  0
ARC
  5
19190
  8
0
 10
118045.3387594338
 20
-116961.6616663422
 30
0.0
 40
0.5
 50
270.0
 51
0.0
  0
LINE
  5
19191
  8
0
 10
118026.6387594337
 20
-116947.0616663425
 30
0.0
 11
118026.6387594337
 21
-116947.86166634251
 31
0.0
  0
LINE
  5
19192
  8
0
 10
118045.3387594338
 20
-116962.96166634221
 30
0.0
 11
118037.8387594338
 21
-116962.96166634221
 31
0.0
  0
LINE
  5
19193
  8
0
 10
118045.3387594338
 20
-116962.1616663422
 30
0.0
 11
118037.8387594338
 21
-116962.1616663422
 31
0.0
  0
LINE
  5
19194
  8
0
 10
118037.8387594338
 20
-116962.1616663422
 30
0.0
 11
118037.8387594338
 21
-116962.96166634229
 31
0.0
  0
DIMENSION
  5
19196
  8
ér
  2
*D32
 10
118066.6387594337
 20
-116937.74221691561
 30
0.0
 11
118046.6387594337
 21
-116935.11721691561
 31
0.0
 70
     0
  1
40
 13
118026.6387594337
 23
-116947.0616663425
 33
0.0
 14
118066.6387594337
 24
-116947.0616663425
 34
0.0
  0
DIMENSION
  5
19199
  8
ér
  2
*D33
 10
118010.7740892712
 20
-116961.3616663422
 30
0.0
 11
118008.1490892713
 21
-116954.6116663423
 31
0.0
 70
     0
  1
13.5
 13
118026.6387594337
 23
-116947.86166634251
 33
0.0
 14
118037.83875943359
 24
-116961.3616663422
 34
0.0
 50
90.0
  0
DIMENSION
  5
1919C
  8
ér
  2
*D34
 10
118056.6387594336
 20
-116973.7988476821
 30
0.0
 11
118046.6387594336
 21
-116971.1738476821
 31
0.0
 70
     0
  1
20
 13
118036.6387594336
 23
-116962.5616663422
 33
0.0
 14
118056.6387594336
 24
-116962.5616663422
 34
0.0
  0
LINE
  5
19A64
  8
0
 10
117787.0008990862
 20
-117088.83465692159
 30
0.0
 11
117815.70089908611
 21
-117088.83465692159
 31
0.0
  0
LINE
  5
19A65
  8
0
 10
117817.0008990861
 20
-117090.1346569216
 30
0.0
 11
117817.0008990861
 21
-117103.4346569216
 31
0.0
  0
LINE
  5
19A66
  8
0
 10
117815.70089908611
 20
-117104.7346569216
 30
0.0
 11
117808.0008990861
 21
-117104.7346569216
 31
0.0
  0
LINE
  5
19A67
  8
0
 10
117787.0008990862
 20
-117089.6346569216
 30
0.0
 11
117815.70089908611
 21
-117089.6346569216
 31
0.0
  0
LINE
  5
19A68
  8
0
 10
117816.20089908611
 20
-117090.1346569216
 30
0.0
 11
117816.20089908611
 21
-117103.4346569216
 31
0.0
  0
LINE
  5
19A69
  8
0
 10
117815.70089908611
 20
-117103.9346569216
 30
0.0
 11
117808.0008990861
 21
-117103.9346569216
 31
0.0
  0
ARC
  5
19A6A
  8
0
 10
117815.70089908611
 20
-117090.1346569216
 30
0.0
 40
0.5
 50
0.0
 51
90.0
  0
ARC
  5
19A6B
  8
0
 10
117815.70089908611
 20
-117103.4346569216
 30
0.0
 40
0.5
 50
270.0
 51
0.0
  0
ARC
  5
19A6C
  8
0
 10
117815.70089908611
 20
-117090.1346569216
 30
0.0
 40
1.3
 50
0.0
 51
90.0
  0
ARC
  5
19A6D
  8
0
 10
117815.70089908611
 20
-117103.4346569216
 30
0.0
 40
1.3
 50
270.0
 51
0.0
  0
LINE
  5
19A6E
  8
0
 10
117808.0008990861
 20
-117103.9346569216
 30
0.0
 11
117808.0008990861
 21
-117104.7346569216
 31
0.0
  0
LINE
  5
19A6F
  8
0
 10
117787.0008990862
 20
-117088.83465692159
 30
0.0
 11
117787.0008990862
 21
-117089.6346569216
 31
0.0
  0
LINE
  5
19A70
  8
0
 10
117815.0008990861
 20
-117103.1346569216
 30
0.0
 11
117807.20089908611
 21
-117103.1346569216
 31
0.0
  0
LINE
  5
19A71
  8
0
 10
117815.0008990861
 20
-117103.9346569216
 30
0.0
 11
117807.20089908611
 21
-117103.9346569216
 31
0.0
  0
LINE
  5
19A72
  8
0
 10
117835.7122239516
 20
-117104.7346569216
 30
0.0
 11
117807.20089908611
 21
-117104.7346569216
 31
0.0
  0
LINE
  5
19A73
  8
0
 10
117835.7122239516
 20
-117105.53465692161
 30
0.0
 11
117807.20089908611
 21
-117105.53465692161
 31
0.0
  0
ARC
  5
19A75
  8
0
 10
117807.20089908611
 20
-117104.33465692159
 30
0.0
 40
0.3999999999941792
 50
90.0
 51
270.0
  0
ARC
  5
19A76
  8
0
 10
117807.20089908611
 20
-117104.33465692159
 30
0.0
 40
1.199999999997089
 50
90.0
 51
270.0
  0
LINE
  5
19AA6
  8
0
 10
117815.0008990861
 20
-117103.1346569216
 30
0.0
 11
117815.0008990861
 21
-117103.9346569216
 31
0.0
  0
LINE
  5
19AF2
  8
0
 10
117874.9635233294
 20
-117139.619901707
 30
0.0
 11
117860.6135233293
 21
-117114.7649726185
 31
0.0
  0
LINE
  5
19AF3
  8
0
 10
117874.2707030063
 20
-117140.0199017071
 30
0.0
 11
117859.9207030063
 21
-117115.1649726184
 31
0.0
  0
LINE
  5
19AF4
  8
0
 10
117858.8376903044
 20
-117114.2891395935
 30
0.0
 11
117847.3195524341
 21
-117120.93913959349
 31
0.0
  0
ARC
  5
19AF5
  8
0
 10
117859.48769030441
 20
-117115.4149726185
 30
0.0
 40
1.3
 50
30.000000000062151
 51
120.0000000000625
  0
LINE
  5
19AF6
  8
0
 10
117859.23769030441
 20
-117114.98195991659
 30
0.0
 11
117847.71955243409
 21
-117121.6319599166
 31
0.0
  0
ARC
  5
19AF7
  8
0
 10
117859.48769030441
 20
-117115.4149726185
 30
0.0
 40
0.5
 50
30.000000000062151
 51
120.0000000000625
  0
LINE
  5
19AF8
  8
0
 10
117846.8437194092
 20
-117122.7149726185
 30
0.0
 11
117850.6937194092
 21
-117129.3833682276
 31
0.0
  0
ARC
  5
19AF9
  8
0
 10
117847.96955243409
 20
-117122.06497261849
 30
0.0
 40
1.3
 50
120.0000000000625
 51
210.00000000006219
  0
LINE
  5
19AFA
  8
0
 10
117847.5365397322
 20
-117122.31497261841
 30
0.0
 11
117851.38653973219
 21
-117128.98336822759
 31
0.0
  0
ARC
  5
19AFB
  8
0
 10
117847.96955243409
 20
-117122.06497261849
 30
0.0
 40
0.5
 50
120.0000000000625
 51
210.00000000006219
  0
LINE
  5
19AFC
  8
0
 10
117851.38653973219
 20
-117128.98336822759
 30
0.0
 11
117850.6937194092
 21
-117129.3833682276
 31
0.0
  0
LINE
  5
19AFD
  8
0
 10
117874.9635233294
 20
-117139.619901707
 30
0.0
 11
117874.2707030063
 21
-117140.0199017071
 31
0.0
  0
LINE
  5
19AFE
  8
0
 10
117848.5793600553
 20
-117122.52119040109
 30
0.0
 11
117852.47936005529
 21
-117129.2761885506
 31
0.0
  0
LINE
  5
19AFF
  8
0
 10
117847.88653973219
 20
-117122.9211904011
 30
0.0
 11
117851.7865397322
 21
-117129.6761885506
 31
0.0
  0
LINE
  5
19B00
  8
0
 10
117836.8380569765
 20
-117105.3846569216
 30
0.0
 11
117851.0937194092
 21
-117130.07618855061
 31
0.0
  0
LINE
  5
19B01
  8
0
 10
117836.14523665349
 20
-117105.78465692161
 30
0.0
 11
117850.40089908621
 21
-117130.4761885506
 31
0.0
  0
ARC
  5
19B02
  8
0
 10
117851.44012957071
 20
-117129.8761885506
 30
0.0
 40
0.3999999999941792
 50
210.00000000006219
 51
30.000000000062151
  0
ARC
  5
19B03
  8
0
 10
117851.44012957071
 20
-117129.8761885506
 30
0.0
 40
1.199999999997089
 50
210.00000000006219
 51
30.000000000062151
  0
LINE
  5
19B05
  8
0
 10
117848.5793600553
 20
-117122.52119040109
 30
0.0
 11
117847.88653973219
 21
-117122.9211904011
 31
0.0
  0
ARC
  5
19B41
  8
0
 10
117835.7122239516
 20
-117106.03465692161
 30
0.0
 40
1.3
 50
29.99999999997096
 51
90.0
  0
DIMENSION
  5
19B42
  8
ér
  2
*D39
 10
117806.0008990861
 20
-117116.03363875359
 30
0.0
 11
117821.0008990862
 21
-117113.40863875359
 31
0.0
 70
     0
 13
117836.0008990861
 23
-117105.53465692161
 33
0.0
 14
117806.0008990861
 24
-117105.53465692161
 34
0.0
  0
DIMENSION
  5
19B5A
  8
ér
  2
*D40
 10
117842.17061725759
 20
-117136.6135846259
 30
0.0
 11
117836.9439339425
 21
-117122.31070356911
 31
0.0
 70
     1
 13
117836.0008990861
 23
-117105.53465692161
 33
0.0
 14
117851.0008990861
 24
-117131.5154190351
 34
0.0
  0
DIMENSION
  5
19B67
  8
ér
  2
*D41
 10
117807.20089908611
 20
-117105.53465692161
 30
0.0
 11
117825.29195463911
 21
-117124.08309279929
 31
0.0
 70
     2
  1
üª
 13
117836.14523665349
 23
-117105.78465692161
 33
0.0
 14
117850.40089908621
 24
-117130.4761885506
 34
0.0
 15
117835.7122239516
 25
-117105.53465692161
 35
0.0
 16
117817.5829776524
 26
-117120.9891280038
 36
0.0
1001
ACAD
1000
DSTYLE
1002
{
1070
   271
1070
     0
1002
}
  0
DIMENSION
  5
19B92
  8
ér
  2
*D42
 10
117817.0008990861
 20
-117076.70625374161
 30
0.0
 11
117802.0008990862
 21
-117074.08125374161
 31
0.0
 70
     0
 13
117787.0008990862
 23
-117088.83465692159
 33
0.0
 14
117817.0008990861
 24
-117088.83465692159
 34
0.0
  0
DIMENSION
  5
19BAA
  8
ér
  2
*D43
 10
117872.87718546089
 20
-117106.18343328559
 30
0.0
 11
117882.6505021458
 21
-117117.8613143424
 31
0.0
 70
     1
 13
117874.9635233294
 23
-117139.619901707
 33
0.0
 14
117859.96352332929
 24
-117113.63913959351
 34
0.0
  0
DIMENSION
  5
19BC2
  8
ér
  2
*D44
 10
117772.5671500593
 20
-117089.6346569216
 30
0.0
 11
117769.9421500594
 21
-117096.3846569216
 31
0.0
 70
     0
 13
117807.20089908611
 23
-117103.1346569216
 33
0.0
 14
117787.0008990862
 24
-117089.6346569216
 34
0.0
 50
90.0
  0
DIMENSION
  5
19BDA
  8
ér
  2
*D45
 10
117880.2807435533
 20
-117150.42959729
 30
0.0
 11
117873.1225720778
 21
-117151.53128060501
 31
0.0
 70
     1
 13
117852.47936005529
 23
-117129.2761885506
 33
0.0
 14
117864.1707030063
 24
-117122.5261885506
 34
0.0
  0
LINE
  5
19BF2
  8
0
 10
117935.8506907095
 20
-117106.42608076859
 30
0.0
 11
117964.5506907095
 21
-117106.42608076859
 31
0.0
  0
LINE
  5
19BF3
  8
0
 10
117935.8506907095
 20
-117107.2260807686
 30
0.0
 11
117964.5506907095
 21
-117107.2260807686
 31
0.0
  0
LINE
  5
19BF4
  8
0
 10
117965.8506907095
 20
-117107.7260807686
 30
0.0
 11
117965.8506907095
 21
-117121.0260807686
 31
0.0
  0
ARC
  5
19BF5
  8
0
 10
117964.5506907095
 20
-117107.7260807686
 30
0.0
 40
1.3
 50
0.0
 51
90.0
  0
LINE
  5
19BF6
  8
0
 10
117965.0506907095
 20
-117107.7260807686
 30
0.0
 11
117965.0506907095
 21
-117121.0260807686
 31
0.0
  0
ARC
  5
19BF7
  8
0
 10
117964.5506907095
 20
-117107.7260807686
 30
0.0
 40
0.5
 50
0.0
 51
90.0
  0
LINE
  5
19BF8
  8
0
 10
117964.5506907095
 20
-117122.3260807686
 30
0.0
 11
117956.8506907095
 21
-117122.3260807686
 31
0.0
  0
ARC
  5
19BF9
  8
0
 10
117964.5506907095
 20
-117121.0260807686
 30
0.0
 40
1.3
 50
270.0
 51
0.0
  0
LINE
  5
19BFA
  8
0
 10
117964.5506907095
 20
-117121.5260807687
 30
0.0
 11
117956.8506907095
 21
-117121.5260807687
 31
0.0
  0
ARC
  5
19BFB
  8
0
 10
117964.5506907095
 20
-117121.0260807686
 30
0.0
 40
0.5
 50
270.0
 51
0.0
  0
LINE
  5
19BFC
  8
0
 10
117956.8506907095
 20
-117121.5260807687
 30
0.0
 11
117956.8506907095
 21
-117122.3260807686
 31
0.0
  0
LINE
  5
19BFD
  8
0
 10
117935.8506907095
 20
-117106.42608076859
 30
0.0
 11
117935.8506907095
 21
-117107.2260807686
 31
0.0
  0
LINE
  5
19BFE
  8
0
 10
117963.8506907095
 20
-117120.7260807686
 30
0.0
 11
117956.0506907095
 21
-117120.7260807686
 31
0.0
  0
LINE
  5
19BFF
  8
0
 10
117963.8506907095
 20
-117121.5260807686
 30
0.0
 11
117956.0506907095
 21
-117121.5260807686
 31
0.0
  0
LINE
  5
19C00
  8
0
 10
117984.10013535959
 20
-117122.3260807686
 30
0.0
 11
117956.0506907095
 21
-117122.3260807686
 31
0.0
  0
LINE
  5
19C01
  8
0
 10
117984.10013535959
 20
-117123.1260807686
 30
0.0
 11
117956.0506907095
 21
-117123.1260807686
 31
0.0
  0
ARC
  5
19C02
  8
0
 10
117956.0506907095
 20
-117121.92608076859
 30
0.0
 40
0.3999999999941792
 50
90.0
 51
270.0
  0
ARC
  5
19C03
  8
0
 10
117956.0506907095
 20
-117121.92608076859
 30
0.0
 40
1.199999999997089
 50
90.0
 51
270.0
  0
LINE
  5
19C04
  8
0
 10
117963.8506907095
 20
-117120.7260807686
 30
0.0
 11
117963.8506907095
 21
-117121.5260807686
 31
0.0
  0
LINE
  5
19C05
  8
0
 10
117994.8880664664
 20
-117072.3408359832
 30
0.0
 11
117980.5380664664
 21
-117097.1957650718
 31
0.0
  0
LINE
  5
19C06
  8
0
 10
117995.58088678939
 20
-117072.7408359832
 30
0.0
 11
117981.2308867894
 21
-117097.5957650718
 31
0.0
  0
LINE
  5
19C07
  8
0
 10
117981.0138994913
 20
-117098.9715980967
 30
0.0
 11
117992.5320373616
 21
-117105.6215980967
 31
0.0
  0
ARC
  5
19C08
  8
0
 10
117981.66389949129
 20
-117097.8457650718
 30
0.0
 40
1.3
 50
149.99999999993781
 51
239.9999999999375
  0
LINE
  5
19C09
  8
0
 10
117981.41389949129
 20
-117098.2787777737
 30
0.0
 11
117992.93203736161
 21
-117104.9287777737
 31
0.0
  0
ARC
  5
19C0A
  8
0
 10
117981.66389949129
 20
-117097.8457650718
 30
0.0
 40
0.5
 50
149.99999999993781
 51
239.9999999999375
  0
LINE
  5
19C0B
  8
0
 10
117994.3078703866
 20
-117105.14576507179
 30
0.0
 11
117998.15787038649
 21
-117098.47736946261
 31
0.0
  0
ARC
  5
19C0C
  8
0
 10
117993.18203736161
 20
-117104.4957650718
 30
0.0
 40
1.3
 50
239.9999999999375
 51
329.99999999993793
  0
LINE
  5
19C0D
  8
0
 10
117993.6150500635
 20
-117104.7457650718
 30
0.0
 11
117997.4650500635
 21
-117098.0773694627
 31
0.0
  0
ARC
  5
19C0E
  8
0
 10
117993.18203736161
 20
-117104.4957650718
 30
0.0
 40
0.5
 50
239.9999999999375
 51
329.99999999993793
  0
LINE
  5
19C0F
  8
0
 10
117997.4650500635
 20
-117098.0773694627
 30
0.0
 11
117998.15787038649
 21
-117098.47736946269
 31
0.0
  0
LINE
  5
19C10
  8
0
 10
117994.8880664664
 20
-117072.3408359832
 30
0.0
 11
117995.58088678939
 21
-117072.7408359832
 31
0.0
  0
LINE
  5
19C11
  8
0
 10
117993.2722297405
 20
-117103.73954728909
 30
0.0
 11
117997.17222974051
 21
-117096.9845491396
 31
0.0
  0
LINE
  5
19C12
  8
0
 10
117993.9650500635
 20
-117104.1395472891
 30
0.0
 11
117997.8650500635
 21
-117097.38454913961
 31
0.0
  0
LINE
  5
19C13
  8
0
 10
117984.5331480615
 20
-117122.0760807687
 30
0.0
 11
117998.5578703865
 21
-117097.7845491396
 31
0.0
  0
LINE
  5
19C15
  8
0
 10
117985.2259683845
 20
-117122.4760807686
 30
0.0
 11
117999.2506907096
 21
-117098.18454913959
 31
0.0
  0
ARC
  5
19C16
  8
0
 10
117998.21146022499
 20
-117097.5845491396
 30
0.0
 40
0.3999999999941792
 50
329.99999999993793
 51
149.99999999993781
  0
ARC
  5
19C17
  8
0
 10
117998.21146022499
 20
-117097.5845491396
 30
0.0
 40
1.199999999997089
 50
329.99999999993793
 51
149.99999999993781
  0
LINE
  5
19C18
  8
0
 10
117993.2722297405
 20
-117103.73954728909
 30
0.0
 11
117993.9650500635
 21
-117104.1395472891
 31
0.0
  0
DIMENSION
  5
19C19
  8
ér
  2
*D47
 10
117954.8506907095
 20
-117133.62506260059
 30
0.0
 11
117969.8506907095
 21
-117131.00006260059
 31
0.0
 70
     0
 13
117984.8506907096
 23
-117123.1260807686
 33
0.0
 14
117954.8506907095
 24
-117123.1260807686
 34
0.0
  0
DIMENSION
  5
19C1C
  8
ér
  2
*D46
 10
118008.6809725382
 20
-117102.2434842459
 30
0.0
 11
117998.9076558532
 21
-117113.92136530259
 31
0.0
 70
     1
 13
117984.8506907096
 23
-117123.1260807686
 33
0.0
 14
117999.8506907096
 24
-117097.1453186552
 34
0.0
  0
DIMENSION
  5
19C1D
  8
ér
  2
*D48
 10
117956.0506907095
 20
-117123.1260807686
 30
0.0
 11
117977.23612097419
 21
-117109.9372591092
 31
0.0
 70
     2
  1
üª
 13
117985.2259683845
 23
-117122.4760807686
 33
0.0
 14
117999.2506907096
 24
-117098.18454913959
 34
0.0
 15
117984.10013535959
 25
-117123.1260807686
 35
0.0
 16
117982.6620048594
 26
-117110.71342649771
 36
0.0
1001
ACAD
1000
DSTYLE
1002
{
1070
   271
1070
     0
1002
}
  0
DIMENSION
  5
19C20
  8
ér
  2
*D49
 10
117965.8506907095
 20
-117094.29767758861
 30
0.0
 11
117950.8506907096
 21
-117091.67267758861
 31
0.0
 70
     0
 13
117935.8506907095
 23
-117106.42608076859
 33
0.0
 14
117965.8506907095
 24
-117106.42608076859
 34
0.0
  0
DIMENSION
  5
19C23
  8
ér
  2
*D50
 10
117966.9744043348
 20
-117090.8658917888
 30
0.0
 11
117972.2010876499
 21
-117076.5630107321
 31
0.0
 70
     1
 13
117994.8880664664
 23
-117072.3408359832
 33
0.0
 14
117979.8880664663
 24
-117098.32159809671
 34
0.0
  0
DIMENSION
  5
19C26
  8
ér
  2
*D51
 10
117921.41694168271
 20
-117107.2260807686
 30
0.0
 11
117918.79194168271
 21
-117113.9760807686
 31
0.0
 70
     0
 13
117956.0506907095
 23
-117120.7260807686
 33
0.0
 14
117935.8506907095
 24
-117107.2260807686
 34
0.0
 50
90.0
  0
DIMENSION
  5
19C29
  8
ér
  2
*D52
 10
118001.59092733631
 20
-117062.3311404003
 30
0.0
 11
118008.74909881179
 21
-117063.43282371529
 31
0.0
 70
     1
 13
117997.1722297404
 23
-117096.9845491396
 33
0.0
 14
117985.4808867894
 24
-117090.2345491397
 34
0.0
  0
ARC
  5
19CDF
  8
0
 10
117984.10013535959
 20
-117121.8260807687
 30
0.0
 40
0.5
 50
270.0
 51
329.99999999999909
  0
ARC
  5
19CE0
  8
0
 10
117984.10013535959
 20
-117121.8260807686
 30
0.0
 40
1.3
 50
270.00000000002888
 51
330.00000000000369
  0
ARC
  5
19D05
  8
0
 10
117835.7122239516
 20
-117106.03465692161
 30
0.0
 40
0.5
 50
29.99999999997166
 51
90.000000000028905
  0
ENDSEC
  0
EOF
