  0
SECTION
  2
HEADER
  9
$ACADVER
  1
AC1015
  9
$ACADMAINTVER
 70
    20
  9
$DWGCODEPAGE
  3
ANSI_932
  9
$INSBASE
 10
0.0
 20
0.0
 30
0.0
  9
$EXTMIN
 10
9679.957443235714
 20
12683.72839994993
 30
-0.000000000000013
  9
$EXTMAX
 10
10311.72421555713
 20
13239.89968716702
 30
0.0000000000000023
  9
$LIMMIN
 10
0.0
 20
0.0
  9
$LIMMAX
 10
420.0
 20
297.0
  9
$ORTHOMODE
 70
     0
  9
$REGENMODE
 70
     1
  9
$FILLMODE
 70
     1
  9
$QTEXTMODE
 70
     0
  9
$MIRRTEXT
 70
     1
  9
$LTSCALE
 40
1.0
  9
$ATTMODE
 70
     1
  9
$TEXTSIZE
 40
2.5
  9
$TRACEWID
 40
1.0
  9
$TEXTSTYLE
  7
STANDARD
  9
$CLAYER
  8
0
  9
$CELTYPE
  6
ByLayer
  9
$CECOLOR
 62
   256
  9
$CELTSCALE
 40
1.0
  9
$DISPSILH
 70
     0
  9
$DIMSCALE
 40
1.0
  9
$DIMASZ
 40
2.0
  9
$DIMEXO
 40
5.0
  9
$DIMDLI
 40
3.75
  9
$DIMRND
 40
0.0
  9
$DIMDLE
 40
0.0
  9
$DIMEXE
 40
1.25
  9
$DIMTP
 40
0.0
  9
$DIMTM
 40
0.0
  9
$DIMTXT
 40
5.0
  9
$DIMCEN
 40
2.5
  9
$DIMTSZ
 40
0.0
  9
$DIMTOL
 70
     0
  9
$DIMLIM
 70
     0
  9
$DIMTIH
 70
     0
  9
$DIMTOH
 70
     0
  9
$DIMSE1
 70
     0
  9
$DIMSE2
 70
     0
  9
$DIMTAD
 70
     1
  9
$DIMZIN
 70
     8
  9
$DIMBLK
  1
OPEN30
  9
$DIMASO
 70
     1
  9
$DIMSHO
 70
     1
  9
$DIMPOST
  1

  9
$DIMAPOST
  1

  9
$DIMALT
 70
     1
  9
$DIMALTD
 70
     3
  9
$DIMALTF
 40
0.03937007874016
  9
$DIMLFAC
 40
1.0
  9
$DIMTOFL
 70
     1
  9
$DIMTVP
 40
0.0
  9
$DIMTIX
 70
     0
  9
$DIMSOXD
 70
     0
  9
$DIMSAH
 70
     0
  9
$DIMBLK1
  1

  9
$DIMBLK2
  1

  9
$DIMSTYLE
  2
ISO-25
  9
$DIMCLRD
 70
     0
  9
$DIMCLRE
 70
     0
  9
$DIMCLRT
 70
     0
  9
$DIMTFAC
 40
1.0
  9
$DIMGAP
 40
1.0
  9
$DIMJUST
 70
     0
  9
$DIMSD1
 70
     0
  9
$DIMSD2
 70
     0
  9
$DIMTOLJ
 70
     1
  9
$DIMTZIN
 70
     0
  9
$DIMALTZ
 70
     0
  9
$DIMALTTZ
 70
     0
  9
$DIMUPT
 70
     0
  9
$DIMDEC
 70
     4
  9
$DIMTDEC
 70
     4
  9
$DIMALTU
 70
     2
  9
$DIMALTTD
 70
     3
  9
$DIMTXSTY
  7
STANDARD
  9
$DIMAUNIT
 70
     0
  9
$DIMADEC
 70
     0
  9
$DIMALTRND
 40
0.0
  9
$DIMAZIN
 70
     0
  9
$DIMDSEP
 70
    46
  9
$DIMATFIT
 70
     3
  9
$DIMFRAC
 70
     0
  9
$DIMLDRBLK
  1
OPEN30
  9
$DIMLUNIT
 70
     2
  9
$DIMLWD
 70
    -2
  9
$DIMLWE
 70
    -2
  9
$DIMTMOVE
 70
     0
  9
$LUNITS
 70
     2
  9
$LUPREC
 70
     4
  9
$SKETCHINC
 40
1.0
  9
$FILLETRAD
 40
10.0
  9
$AUNITS
 70
     0
  9
$AUPREC
 70
     0
  9
$MENU
  1
.
  9
$ELEVATION
 40
0.0
  9
$PELEVATION
 40
0.0
  9
$THICKNESS
 40
0.0
  9
$LIMCHECK
 70
     0
  9
$CHAMFERA
 40
10.0
  9
$CHAMFERB
 40
10.0
  9
$CHAMFERC
 40
0.0
  9
$CHAMFERD
 40
0.0
  9
$SKPOLY
 70
     0
  9
$TDCREATE
 40
2456336.369642072
  9
$TDUCREATE
 40
2456335.994642072
  9
$TDUPDATE
 40
2458045.861006794
  9
$TDUUPDATE
 40
2458045.486006794
  9
$TDINDWG
 40
0.2784366319
  9
$TDUSRTIMER
 40
0.2784364468
  9
$USRTIMER
 70
     1
  9
$ANGBASE
 50
0.0
  9
$ANGDIR
 70
     0
  9
$PDMODE
 70
     0
  9
$PDSIZE
 40
0.0
  9
$PLINEWID
 40
0.0
  9
$SPLFRAME
 70
     0
  9
$SPLINETYPE
 70
     6
  9
$SPLINESEGS
 70
     8
  9
$HANDSEED
  5
19CA
  9
$SURFTAB1
 70
     6
  9
$SURFTAB2
 70
     6
  9
$SURFTYPE
 70
     6
  9
$SURFU
 70
     6
  9
$SURFV
 70
     6
  9
$UCSBASE
  2

  9
$UCSNAME
  2

  9
$UCSORG
 10
0.0
 20
0.0
 30
0.0
  9
$UCSXDIR
 10
1.0
 20
0.0
 30
0.0
  9
$UCSYDIR
 10
0.0
 20
1.0
 30
0.0
  9
$UCSORTHOREF
  2

  9
$UCSORTHOVIEW
 70
     0
  9
$UCSORGTOP
 10
0.0
 20
0.0
 30
0.0
  9
$UCSORGBOTTOM
 10
0.0
 20
0.0
 30
0.0
  9
$UCSORGLEFT
 10
0.0
 20
0.0
 30
0.0
  9
$UCSORGRIGHT
 10
0.0
 20
0.0
 30
0.0
  9
$UCSORGFRONT
 10
0.0
 20
0.0
 30
0.0
  9
$UCSORGBACK
 10
0.0
 20
0.0
 30
0.0
  9
$PUCSBASE
  2

  9
$PUCSNAME
  2

  9
$PUCSORG
 10
0.0
 20
0.0
 30
0.0
  9
$PUCSXDIR
 10
1.0
 20
0.0
 30
0.0
  9
$PUCSYDIR
 10
0.0
 20
1.0
 30
0.0
  9
$PUCSORTHOREF
  2

  9
$PUCSORTHOVIEW
 70
     0
  9
$PUCSORGTOP
 10
0.0
 20
0.0
 30
0.0
  9
$PUCSORGBOTTOM
 10
0.0
 20
0.0
 30
0.0
  9
$PUCSORGLEFT
 10
0.0
 20
0.0
 30
0.0
  9
$PUCSORGRIGHT
 10
0.0
 20
0.0
 30
0.0
  9
$PUCSORGFRONT
 10
0.0
 20
0.0
 30
0.0
  9
$PUCSORGBACK
 10
0.0
 20
0.0
 30
0.0
  9
$USERI1
 70
     0
  9
$USERI2
 70
     0
  9
$USERI3
 70
     0
  9
$USERI4
 70
     0
  9
$USERI5
 70
     0
  9
$USERR1
 40
0.0
  9
$USERR2
 40
0.0
  9
$USERR3
 40
0.0
  9
$USERR4
 40
0.0
  9
$USERR5
 40
0.0
  9
$WORLDVIEW
 70
     1
  9
$SHADEDGE
 70
     3
  9
$SHADEDIF
 70
    70
  9
$TILEMODE
 70
     1
  9
$MAXACTVP
 70
    64
  9
$PINSBASE
 10
0.0
 20
0.0
 30
0.0
  9
$PLIMCHECK
 70
     0
  9
$PEXTMIN
 10
26.66999878883363
 20
20.31999878883363
 30
0.0
  9
$PEXTMAX
 10
240.0299890995026
 20
182.8799890995025
 30
0.0
  9
$PLIMMIN
 10
-6.350006103515625
 20
-6.349999904632568
  9
$PLIMMAX
 10
273.0499877929688
 20
209.5499939918518
  9
$UNITMODE
 70
     0
  9
$VISRETAIN
 70
     1
  9
$PLINEGEN
 70
     0
  9
$PSLTSCALE
 70
     1
  9
$TREEDEPTH
 70
  3020
  9
$CMLSTYLE
  2
Standard
  9
$CMLJUST
 70
     0
  9
$CMLSCALE
 40
1.0
  9
$PROXYGRAPHICS
 70
     1
  9
$MEASUREMENT
 70
     0
  9
$CELWEIGHT
370
    -1
  9
$ENDCAPS
280
     0
  9
$JOINSTYLE
280
     0
  9
$LWDISPLAY
290
     0
  9
$INSUNITS
 70
     0
  9
$HYPERLINKBASE
  1

  9
$STYLESHEET
  1
monochrome.ctb
  9
$XEDIT
290
     1
  9
$CEPSNTYPE
380
     0
  9
$PSTYLEMODE
290
     1
  9
$FINGERPRINTGUID
  2
{5901E372-B198-4A18-AABA-7D57615FC108}
  9
$VERSIONGUID
  2
{101FFE36-5AC8-4BF8-A066-230878ECC74A}
  9
$EXTNAMES
290
     1
  9
$PSVPSCALE
 40
0.0
  9
$OLESTARTUP
290
     0
  0
ENDSEC
  0
SECTION
  2
CLASSES
  0
CLASS
  1
ACDBDICTIONARYWDFLT
  2
AcDbDictionaryWithDefault
  3
ObjectDBX Classes
 90
        0
280
     0
281
     0
  0
CLASS
  1
MATERIAL
  2
AcDbMaterial
  3
ObjectDBX Classes
 90
     1153
280
     0
281
     0
  0
CLASS
  1
VISUALSTYLE
  2
AcDbVisualStyle
  3
ObjectDBX Classes
 90
     4095
280
     0
281
     0
  0
CLASS
  1
SCALE
  2
AcDbScale
  3
ObjectDBX Classes
 90
     1153
280
     0
281
     0
  0
CLASS
  1
TABLESTYLE
  2
AcDbTableStyle
  3
ObjectDBX Classes
 90
     4095
280
     0
281
     0
  0
CLASS
  1
MLEADERSTYLE
  2
AcDbMLeaderStyle
  3
ACDB_MLEADERSTYLE_CLASS
 90
     4095
280
     0
281
     0
  0
CLASS
  1
ACDBSECTIONVIEWSTYLE
  2
AcDbSectionViewStyle
  3
ObjectDBX Classes
 90
     1025
280
     0
281
     0
  0
CLASS
  1
ACDBDETAILVIEWSTYLE
  2
AcDbDetailViewStyle
  3
ObjectDBX Classes
 90
     1025
280
     0
281
     0
  0
CLASS
  1
DICTIONARYVAR
  2
AcDbDictionaryVar
  3
ObjectDBX Classes
 90
        0
280
     0
281
     0
  0
CLASS
  1
CELLSTYLEMAP
  2
AcDbCellStyleMap
  3
ObjectDBX Classes
 90
     1152
280
     0
281
     0
  0
CLASS
  1
ACDB_ALDIMOBJECTCONTEXTDATA_CLASS
  2
AcDbAlignedDimensionObjectContextData
  3
ObjectDBX Classes
 90
    33921
280
     0
281
     0
  0
CLASS
  1
SORTENTSTABLE
  2
AcDbSortentsTable
  3
ObjectDBX Classes
 90
        0
280
     0
281
     0
  0
CLASS
  1
ACDBPLACEHOLDER
  2
AcDbPlaceHolder
  3
ObjectDBX Classes
 90
        0
280
     0
281
     0
  0
CLASS
  1
LAYOUT
  2
AcDbLayout
  3
ObjectDBX Classes
 90
        0
280
     0
281
     0
  0
ENDSEC
  0
SECTION
  2
TABLES
  0
TABLE
  2
VPORT
  5
FB9
330
0
100
AcDbSymbolTable
 70
     1
  0
VPORT
  5
1024
330
FB9
100
AcDbSymbolTableRecord
100
AcDbViewportTableRecord
  2
*ACTIVE
 70
     0
 10
0.0
 20
0.0
 11
1.0
 21
1.0
 12
9995.840829396426
 22
12961.81404355847
 13
0.0
 23
0.0
 14
10.0
 24
10.0
 15
10.0
 25
10.0
 16
0.0
 26
0.0
 36
1.0
 17
0.0
 27
0.0
 37
0.0
 40
560.516375398467
 41
1.640156453715775
 42
50.0
 43
0.0
 44
0.0
 50
0.0
 51
0.0
 71
     0
 72
  1000
 73
     1
 74
     3
 75
     0
 76
     0
 77
     0
 78
     0
281
     0
 65
     1
110
0.0
120
0.0
130
0.0
111
1.0
121
0.0
131
0.0
112
0.0
122
1.0
132
0.0
 79
     0
146
0.0
1001
ACAD_NAV_VCDISPLAY
1070
     3
  0
ENDTAB
  0
TABLE
  2
LTYPE
  5
FB6
330
0
100
AcDbSymbolTable
 70
     3
  0
LTYPE
  5
100B
330
FB6
100
AcDbSymbolTableRecord
100
AcDbLinetypeTableRecord
  2
ByBlock
 70
     0
  3

 72
    65
 73
     0
 40
0.0
  0
LTYPE
  5
100C
330
FB6
100
AcDbSymbolTableRecord
100
AcDbLinetypeTableRecord
  2
ByLayer
 70
     0
  3

 72
    65
 73
     0
 40
0.0
  0
LTYPE
  5
100D
330
FB6
100
AcDbSymbolTableRecord
100
AcDbLinetypeTableRecord
  2
CONTINUOUS
 70
     0
  3
Solid line
 72
    65
 73
     0
 40
0.0
  0
LTYPE
  5
1025
330
FB6
100
AcDbSymbolTableRecord
100
AcDbLinetypeTableRecord
  2
DASHED
 70
     0
  3
Dashed __ __ __ __ __ __ __ __ __ __ __ __ __ _
 72
    65
 73
     2
 40
19.05
 49
12.7
 74
     0
 49
-6.349999999999998
 74
     0
  0
ENDTAB
  0
TABLE
  2
LAYER
  5
FB3
102
{ACAD_XDICTIONARY
360
1601
102
}
330
0
100
AcDbSymbolTable
 70
     3
  0
LAYER
  5
1005
102
{ACAD_XDICTIONARY
360
10BF
102
}
330
FB3
100
AcDbSymbolTableRecord
100
AcDbLayerTableRecord
  2
0
 70
     0
 62
     7
  6
CONTINUOUS
370
    -3
390
FC0
  0
LAYER
  5
1026
102
{ACAD_XDICTIONARY
360
10C1
102
}
330
FB3
100
AcDbSymbolTableRecord
100
AcDbLayerTableRecord
  2
主製品
 70
     0
 62
     7
  6
CONTINUOUS
370
    -3
390
FC0
  0
LAYER
  5
1027
330
FB3
100
AcDbSymbolTableRecord
100
AcDbLayerTableRecord
  2
DEFPOINTS
 70
     0
 62
     7
  6
CONTINUOUS
290
     0
370
    -3
390
FC0
  0
ENDTAB
  0
TABLE
  2
STYLE
  5
FB4
330
0
100
AcDbSymbolTable
 70
     4
  0
STYLE
  5
1006
330
FB4
100
AcDbSymbolTableRecord
100
AcDbTextStyleTableRecord
  2
STANDARD
 70
     0
 40
0.0
 41
1.0
 50
0.0
 71
     0
 42
2.5
  3
txt.shx
  4
@extfont2.shx
  0
STYLE
  5
100A
330
FB4
100
AcDbSymbolTableRecord
100
AcDbTextStyleTableRecord
  2
Annotative
 70
     0
 40
0.0
 41
1.0
 50
0.0
 71
     0
 42
0.2
  3
txt
  4

1001
AcadAnnotative
1000
AnnotativeData
1002
{
1070
     1
1070
     1
1002
}
  0
STYLE
  5
1028
330
FB4
100
AcDbSymbolTableRecord
100
AcDbTextStyleTableRecord
  2

 70
     1
 40
0.0
 41
1.0
 50
0.0
 71
     0
 42
2.5
  3
ltypeshp.shx
  4

  0
ENDTAB
  0
TABLE
  2
VIEW
  5
FB7
330
0
100
AcDbSymbolTable
 70
     1
  0
ENDTAB
  0
TABLE
  2
UCS
  5
FB8
330
0
100
AcDbSymbolTable
 70
     0
  0
ENDTAB
  0
TABLE
  2
APPID
  5
FBA
330
0
100
AcDbSymbolTable
 70
    11
  0
APPID
  5
1007
330
FBA
100
AcDbSymbolTableRecord
100
AcDbRegAppTableRecord
  2
ACAD
 70
     0
  0
APPID
  5
100E
330
FBA
100
AcDbSymbolTableRecord
100
AcDbRegAppTableRecord
  2
AcadAnnotative
 70
     0
  0
APPID
  5
1029
330
FBA
100
AcDbSymbolTableRecord
100
AcDbRegAppTableRecord
  2
ACAD_PSEXT
 70
     0
  0
APPID
  5
102A
330
FBA
100
AcDbSymbolTableRecord
100
AcDbRegAppTableRecord
  2
ACAD_DSTYLE_DIMTEXT_FILL
 70
     0
  0
APPID
  5
102B
330
FBA
100
AcDbSymbolTableRecord
100
AcDbRegAppTableRecord
  2
ACAD_NAV_VCDISPLAY
 70
     0
  0
APPID
  5
102C
330
FBA
100
AcDbSymbolTableRecord
100
AcDbRegAppTableRecord
  2
ACADANNOPO
 70
     0
  0
APPID
  5
102D
330
FBA
100
AcDbSymbolTableRecord
100
AcDbRegAppTableRecord
  2
ACAD_MLEADERVER
 70
     0
  0
APPID
  5
155A
330
FBA
100
AcDbSymbolTableRecord
100
AcDbRegAppTableRecord
  2
ACAD_DSTYLE_DIMJAG
 70
     0
  0
APPID
  5
155B
330
FBA
100
AcDbSymbolTableRecord
100
AcDbRegAppTableRecord
  2
ACAD_DSTYLE_DIMTALN
 70
     0
  0
APPID
  5
18E4
330
FBA
100
AcDbSymbolTableRecord
100
AcDbRegAppTableRecord
  2
AcadAnnoMonitorAlertIconDisabled
 70
     0
  0
APPID
  5
18E5
330
FBA
100
AcDbSymbolTableRecord
100
AcDbRegAppTableRecord
  2
ACAD_EXEMPT_FROM_CAD_STANDARDS
 70
     0
  0
ENDTAB
  0
TABLE
  2
DIMSTYLE
  5
FBB
330
0
100
AcDbSymbolTable
 70
     4
100
AcDbDimStyleTable
 71
     1
340
102E
  0
DIMSTYLE
105
1008
330
FBB
100
AcDbSymbolTableRecord
100
AcDbDimStyleTableRecord
  2
STANDARD
 70
     0
274
     3
279
     2
284
     8
285
     8
286
     8
340
1006
  0
DIMSTYLE
105
1009
330
FBB
100
AcDbSymbolTableRecord
100
AcDbDimStyleTableRecord
  2
Annotative
 70
     0
340
1006
1001
AcadAnnotative
1000
AnnotativeData
1002
{
1070
     1
1070
     1
1002
}
  0
DIMSTYLE
105
102E
102
{ACAD_REACTORS
330
BC5
330
BB6
330
A5C
330
A1B
330
A18
330
A17
330
A16
330
A13
330
A0D
330
9BE
330
9BB
330
9B8
330
918
330
8E5
330
8C4
330
821
330
6CB
330
6BB
330
6AB
330
693
330
665
330
64D
330
5E5
330
5CD
330
5B5
330
1884
102
}
330
FBB
100
AcDbSymbolTableRecord
100
AcDbDimStyleTableRecord
  2
ISO-25
 70
     0
 41
2.0
 42
5.0
 43
3.75
 44
1.25
 73
     0
 74
     0
 77
     1
 78
     8
140
5.0
141
2.5
143
0.03937007874016
147
1.0
171
     3
172
     1
274
     3
279
     2
284
     8
285
     8
286
     8
340
1006
  0
ENDTAB
  0
TABLE
  2
BLOCK_RECORD
  5
FB2
330
0
100
AcDbSymbolTable
 70
    43
  0
BLOCK_RECORD
  5
1020
102
{ACAD_XDICTIONARY
360
1920
102
}
330
FB2
100
AcDbSymbolTableRecord
100
AcDbBlockTableRecord
  2
*Model_Space
340
1023
  0
BLOCK_RECORD
  5
101C
330
FB2
100
AcDbSymbolTableRecord
100
AcDbBlockTableRecord
  2
*Paper_Space
340
101F
  0
BLOCK_RECORD
  5
1032
330
FB2
100
AcDbSymbolTableRecord
100
AcDbBlockTableRecord
  2
$MODEL_SPACE
340
0
  0
BLOCK_RECORD
  5
1034
330
FB2
100
AcDbSymbolTableRecord
100
AcDbBlockTableRecord
  2
$PAPER_SPACE
340
0
  0
BLOCK_RECORD
  5
1036
330
FB2
100
AcDbSymbolTableRecord
100
AcDbBlockTableRecord
  2
GRP_2231
340
0
102
{BLKREFS
331
123
102
}
  0
BLOCK_RECORD
  5
1038
330
FB2
100
AcDbSymbolTableRecord
100
AcDbBlockTableRecord
  2
GRP_2359
340
0
102
{BLKREFS
331
D4
102
}
  0
BLOCK_RECORD
  5
1039
330
FB2
100
AcDbSymbolTableRecord
100
AcDbBlockTableRecord
  2
GRP_2360
340
0
102
{BLKREFS
331
D5
102
}
  0
BLOCK_RECORD
  5
103C
330
FB2
100
AcDbSymbolTableRecord
100
AcDbBlockTableRecord
  2
A$C4A68546B
340
0
  0
BLOCK_RECORD
  5
103E
330
FB2
100
AcDbSymbolTableRecord
100
AcDbBlockTableRecord
  2
_OPEN30
340
0
  0
BLOCK_RECORD
  5
1040
330
FB2
100
AcDbSymbolTableRecord
100
AcDbBlockTableRecord
  2
_DOT
340
0
  0
BLOCK_RECORD
  5
1097
330
FB2
100
AcDbSymbolTableRecord
100
AcDbBlockTableRecord
  2
*U8
340
0
102
{BLKREFS
331
D3D
102
}
  0
BLOCK_RECORD
  5
1099
330
FB2
100
AcDbSymbolTableRecord
100
AcDbBlockTableRecord
  2
*U9
340
0
102
{BLKREFS
331
D3F
102
}
  0
BLOCK_RECORD
  5
109B
330
FB2
100
AcDbSymbolTableRecord
100
AcDbBlockTableRecord
  2
*U10
340
0
102
{BLKREFS
331
D42
102
}
  0
BLOCK_RECORD
  5
109D
330
FB2
100
AcDbSymbolTableRecord
100
AcDbBlockTableRecord
  2
*U11
340
0
102
{BLKREFS
331
D44
102
}
  0
BLOCK_RECORD
  5
109F
330
FB2
100
AcDbSymbolTableRecord
100
AcDbBlockTableRecord
  2
*U12
340
0
102
{BLKREFS
331
D46
102
}
  0
BLOCK_RECORD
  5
10A1
330
FB2
100
AcDbSymbolTableRecord
100
AcDbBlockTableRecord
  2
*U13
340
0
102
{BLKREFS
331
D48
102
}
  0
BLOCK_RECORD
  5
10B6
330
FB2
100
AcDbSymbolTableRecord
100
AcDbBlockTableRecord
  2
*U14
340
0
102
{BLKREFS
331
E33
102
}
  0
BLOCK_RECORD
  5
10B8
330
FB2
100
AcDbSymbolTableRecord
100
AcDbBlockTableRecord
  2
*U15
340
0
102
{BLKREFS
331
E35
102
}
  0
BLOCK_RECORD
  5
1422
330
FB2
100
AcDbSymbolTableRecord
100
AcDbBlockTableRecord
  2
*D16
340
0
  0
BLOCK_RECORD
  5
142E
330
FB2
100
AcDbSymbolTableRecord
100
AcDbBlockTableRecord
  2
*D17
340
0
  0
BLOCK_RECORD
  5
143A
330
FB2
100
AcDbSymbolTableRecord
100
AcDbBlockTableRecord
  2
*D18
340
0
  0
BLOCK_RECORD
  5
1446
330
FB2
100
AcDbSymbolTableRecord
100
AcDbBlockTableRecord
  2
*D19
340
0
  0
BLOCK_RECORD
  5
1452
330
FB2
100
AcDbSymbolTableRecord
100
AcDbBlockTableRecord
  2
*D20
340
0
  0
BLOCK_RECORD
  5
145E
330
FB2
100
AcDbSymbolTableRecord
100
AcDbBlockTableRecord
  2
*D21
340
0
  0
BLOCK_RECORD
  5
146A
330
FB2
100
AcDbSymbolTableRecord
100
AcDbBlockTableRecord
  2
*D22
340
0
  0
BLOCK_RECORD
  5
1476
330
FB2
100
AcDbSymbolTableRecord
100
AcDbBlockTableRecord
  2
*D23
340
0
  0
BLOCK_RECORD
  5
148E
330
FB2
100
AcDbSymbolTableRecord
100
AcDbBlockTableRecord
  2
*D24
340
0
  0
BLOCK_RECORD
  5
149A
330
FB2
100
AcDbSymbolTableRecord
100
AcDbBlockTableRecord
  2
*D25
340
0
  0
BLOCK_RECORD
  5
14A6
330
FB2
100
AcDbSymbolTableRecord
100
AcDbBlockTableRecord
  2
*D26
340
0
  0
BLOCK_RECORD
  5
14B2
330
FB2
100
AcDbSymbolTableRecord
100
AcDbBlockTableRecord
  2
*D27
340
0
  0
BLOCK_RECORD
  5
14BE
330
FB2
100
AcDbSymbolTableRecord
100
AcDbBlockTableRecord
  2
*D28
340
0
  0
BLOCK_RECORD
  5
14CA
330
FB2
100
AcDbSymbolTableRecord
100
AcDbBlockTableRecord
  2
*D29
340
0
  0
BLOCK_RECORD
  5
14D6
330
FB2
100
AcDbSymbolTableRecord
100
AcDbBlockTableRecord
  2
*D30
340
0
  0
BLOCK_RECORD
  5
14E2
330
FB2
100
AcDbSymbolTableRecord
100
AcDbBlockTableRecord
  2
*D31
340
0
  0
BLOCK_RECORD
  5
14EE
330
FB2
100
AcDbSymbolTableRecord
100
AcDbBlockTableRecord
  2
*D32
340
0
  0
BLOCK_RECORD
  5
14FA
330
FB2
100
AcDbSymbolTableRecord
100
AcDbBlockTableRecord
  2
*D33
340
0
  0
BLOCK_RECORD
  5
1506
330
FB2
100
AcDbSymbolTableRecord
100
AcDbBlockTableRecord
  2
*D34
340
0
  0
BLOCK_RECORD
  5
1512
330
FB2
100
AcDbSymbolTableRecord
100
AcDbBlockTableRecord
  2
*D35
340
0
  0
BLOCK_RECORD
  5
151E
330
FB2
100
AcDbSymbolTableRecord
100
AcDbBlockTableRecord
  2
*D36
340
0
  0
BLOCK_RECORD
  5
152A
330
FB2
100
AcDbSymbolTableRecord
100
AcDbBlockTableRecord
  2
*D37
340
0
  0
BLOCK_RECORD
  5
1536
330
FB2
100
AcDbSymbolTableRecord
100
AcDbBlockTableRecord
  2
*D38
340
0
  0
BLOCK_RECORD
  5
1542
330
FB2
100
AcDbSymbolTableRecord
100
AcDbBlockTableRecord
  2
*D39
340
0
  0
BLOCK_RECORD
  5
154E
330
FB2
100
AcDbSymbolTableRecord
100
AcDbBlockTableRecord
  2
*D40
340
0
  0
BLOCK_RECORD
  5
1885
330
FB2
100
AcDbSymbolTableRecord
100
AcDbBlockTableRecord
  2
*D41
340
0
  0
ENDTAB
  0
ENDSEC
  0
SECTION
  2
BLOCKS
  0
BLOCK
  5
1021
330
1020
100
AcDbEntity
  8
0
100
AcDbBlockBegin
  2
*Model_Space
 70
     0
 10
0.0
 20
0.0
 30
0.0
  3
*Model_Space
  1

  0
ENDBLK
  5
1022
330
1020
100
AcDbEntity
  8
0
100
AcDbBlockEnd
  0
BLOCK
  5
101D
330
101C
100
AcDbEntity
 67
     1
  8
0
100
AcDbBlockBegin
  2
*Paper_Space
 70
     0
 10
0.0
 20
0.0
 30
0.0
  3
*Paper_Space
  1

  0
ENDBLK
  5
101E
330
101C
100
AcDbEntity
 67
     1
  8
0
100
AcDbBlockEnd
  0
BLOCK
  5
1033
330
1032
100
AcDbEntity
  8
0
100
AcDbBlockBegin
  2
$MODEL_SPACE
 70
     0
 10
0.0
 20
0.0
 30
0.0
  3
$MODEL_SPACE
  1

  0
ENDBLK
  5
21
330
1032
100
AcDbEntity
  8
0
100
AcDbBlockEnd
  0
BLOCK
  5
1035
330
1034
100
AcDbEntity
  8
0
100
AcDbBlockBegin
  2
$PAPER_SPACE
 70
     0
 10
0.0
 20
0.0
 30
0.0
  3
$PAPER_SPACE
  1

  0
ENDBLK
  5
58
330
1034
100
AcDbEntity
  8
0
100
AcDbBlockEnd
  0
BLOCK
  5
1037
330
1036
100
AcDbEntity
  8
0
100
AcDbBlockBegin
  2
GRP_2231
 70
     0
 10
0.0
 20
0.0
 30
0.0
  3
GRP_2231
  1

  0
INSERT
  5
D4
330
1036
100
AcDbEntity
  8
主製品
  6
Continuous
100
AcDbBlockReference
  2
GRP_2359
 10
0.0
 20
0.0
 30
0.0
  0
INSERT
  5
D5
330
1036
100
AcDbEntity
  8
主製品
  6
Continuous
100
AcDbBlockReference
  2
GRP_2360
 10
0.0
 20
0.0
 30
0.0
  0
ENDBLK
  5
D6
330
1036
100
AcDbEntity
  8
0
100
AcDbBlockEnd
  0
BLOCK
  5
103A
330
1038
100
AcDbEntity
  8
0
100
AcDbBlockBegin
  2
GRP_2359
 70
     0
 10
0.0
 20
0.0
 30
0.0
  3
GRP_2359
  1

  0
ARC
  5
D9
330
1038
100
AcDbEntity
  8
主製品
  6
Continuous
 62
     8
100
AcDbCircle
 10
16780.19925957994
 20
1102.193052040559
 30
0.0
 40
83.49007499999997
100
AcDbArc
 50
209.4941600742907
 51
330.5058500901123
  0
ARC
  5
DA
330
1038
100
AcDbEntity
  8
主製品
  6
Continuous
 62
     8
100
AcDbCircle
 10
16780.19925957994
 20
1102.193052040559
 30
0.0
 40
43.49009999999999
100
AcDbArc
 50
209.4941200743645
 51
330.5058900901808
  0
LINE
  5
DB
330
1038
100
AcDbEntity
  8
主製品
  6
Continuous
 62
     8
100
AcDbLine
 10
16615.20000957996
 20
1108.700052040615
 30
0.0
 11
16615.20000957996
 21
1068.700302040508
 31
0.0
  0
ARC
  5
DC
330
1038
100
AcDbEntity
  8
主製品
  6
Continuous
 62
     8
100
AcDbCircle
 10
16694.47800957984
 20
1053.702552040761
 30
0.0
 40
55.00019999999985
100
AcDbArc
 50
29.49428005092766
 51
89.99969505875295
  0
ARC
  5
DD
330
1038
100
AcDbEntity
  8
主製品
  6
Continuous
 62
     8
100
AcDbCircle
 10
16694.47800957984
 20
1053.702552040761
 30
0.0
 40
15.0003
100
AcDbArc
 50
29.49453005082693
 51
89.99888705871326
  0
LINE
  5
DE
330
1038
100
AcDbEntity
  8
主製品
  6
Continuous
 62
     8
100
AcDbLine
 10
16615.20000957996
 20
1108.700052040615
 30
0.0
 11
16694.47800957984
 21
1108.700052040615
 31
0.0
  0
LINE
  5
DF
330
1038
100
AcDbEntity
  8
主製品
  6
Continuous
 62
     8
100
AcDbLine
 10
16615.20000957996
 20
1068.700302040508
 30
0.0
 11
16694.47800957984
 21
1068.700302040508
 31
0.0
  0
LINE
  5
E0
330
1038
100
AcDbEntity
  8
主製品
  6
Continuous
 62
     8
100
AcDbLine
 10
16865.92725957968
 20
1068.700302040508
 30
0.0
 11
16990.19975957969
 21
1068.700302040508
 31
0.0
  0
LINE
  5
E1
330
1038
100
AcDbEntity
  8
主製品
  6
Continuous
 62
     8
100
AcDbLine
 10
16865.92725957968
 20
1108.700052040615
 30
0.0
 11
16990.19875957999
 21
1108.700052040615
 31
0.0
  0
ARC
  5
E2
330
1038
100
AcDbEntity
  8
主製品
  6
Continuous
 62
     8
100
AcDbCircle
 10
16865.92725957968
 20
1053.702552040761
 30
0.0
 40
14.999925
100
AcDbArc
 50
89.9987650587114
 51
150.506043066631
  0
ARC
  5
E3
330
1038
100
AcDbEntity
  8
主製品
  6
Continuous
 62
     8
100
AcDbCircle
 10
16865.92725957968
 20
1053.702552040761
 30
0.0
 40
54.9999
100
AcDbArc
 50
89.99966505880218
 51
150.5057840667019
  0
ARC
  5
E4
330
1038
100
AcDbEntity
  8
主製品
  6
Continuous
 62
     8
100
AcDbCircle
 10
16990.19975957969
 20
1043.700302040554
 30
0.0
 40
25.0
100
AcDbArc
 50
0.0000000470063188
 51
90.00000005875765
  0
ARC
  5
E5
330
1038
100
AcDbEntity
  8
主製品
  6
Continuous
 62
     8
100
AcDbCircle
 10
16990.19875957999
 20
1043.700052040697
 30
0.0
 40
65.0
100
AcDbArc
 50
0.0000000470063188
 51
90.00000005875765
  0
LINE
  5
E6
330
1038
100
AcDbEntity
  8
主製品
  6
Continuous
 62
     8
100
AcDbLine
 10
17015.19975957969
 20
1043.700302040554
 30
0.0
 11
17015.19975957969
 21
723.704302040653
 31
0.0
  0
LINE
  5
E7
330
1038
100
AcDbEntity
  8
主製品
  6
Continuous
 62
     8
100
AcDbLine
 10
17055.19875957995
 20
1043.700052040697
 30
0.0
 11
17055.19875957995
 21
723.7053020407187
 31
0.0
  0
LINE
  5
E8
330
1038
100
AcDbEntity
  8
主製品
  6
Continuous
 62
     8
100
AcDbLine
 10
16990.19875957963
 20
658.7053020407097
 30
0.0
 11
11120.19126637794
 21
658.7053020407097
 31
0.0
  0
ARC
  5
E9
330
1038
100
AcDbEntity
  8
主製品
  6
Continuous
 62
     8
100
AcDbCircle
 10
11120.19126637794
 20
723.7053020407187
 30
0.0
 40
65.0
100
AcDbArc
 50
180.0000000705093
 51
270.0000000822609
  0
ARC
  5
EA
330
1038
100
AcDbEntity
  8
主製品
  6
Continuous
 62
     8
100
AcDbCircle
 10
16990.19875957963
 20
723.7053020407187
 30
0.0
 40
65.0
100
AcDbArc
 50
270.0000000352627
 51
0.0000000470063188
  0
LINE
  5
EB
330
1038
100
AcDbEntity
  8
主製品
  6
Continuous
 62
     8
100
AcDbLine
 10
16990.19975957969
 20
698.7043020405621
 30
0.0
 11
11120.19026637806
 21
698.7043020405168
 31
0.0
  0
ARC
  5
EC
330
1038
100
AcDbEntity
  8
主製品
  6
Continuous
 62
     8
100
AcDbCircle
 10
11120.19026637806
 20
723.7043020405166
 30
0.0
 40
25.0
100
AcDbArc
 50
180.0000000705093
 51
270.0000000822609
  0
ARC
  5
ED
330
1038
100
AcDbEntity
  8
主製品
  6
Continuous
 62
     8
100
AcDbCircle
 10
16990.19975957969
 20
723.704302040653
 30
0.0
 40
25.0
100
AcDbArc
 50
270.0000000352547
 51
0.0000000470063188
  0
ARC
  5
EE
330
1038
100
AcDbEntity
  8
主製品
  6
Continuous
 62
     8
100
AcDbCircle
 10
11030.19026637819
 20
1093.702552040543
 30
0.0
 40
65.0
100
AcDbArc
 50
0.0000000470063188
 51
90.00000005875765
  0
LINE
  5
EF
330
1038
100
AcDbEntity
  8
主製品
  6
Continuous
 62
     8
100
AcDbLine
 10
11055.19126637789
 20
723.7053020407187
 30
0.0
 11
11055.19126637789
 21
1093.703552040517
 31
0.0
  0
ARC
  5
F0
330
1038
100
AcDbEntity
  8
主製品
  6
Continuous
 62
     8
100
AcDbCircle
 10
11030.19126637789
 20
1093.703552040517
 30
0.0
 40
25.0
100
AcDbArc
 50
0.0000000470063188
 51
90.00000005875765
  0
LINE
  5
F1
330
1038
100
AcDbEntity
  8
主製品
  6
Continuous
 62
     8
100
AcDbLine
 10
11095.19026637806
 20
723.7043020405166
 30
0.0
 11
11095.19026637806
 21
1093.702552040543
 31
0.0
  0
LINE
  5
F2
330
1038
100
AcDbEntity
  8
主製品
  6
Continuous
 62
     8
100
AcDbLine
 10
11030.19126637789
 20
1118.703552040517
 30
0.0
 11
10545.1857663779
 21
1118.703552040517
 31
0.0
  0
LINE
  5
F3
330
1038
100
AcDbEntity
  8
主製品
  6
Continuous
 62
     8
100
AcDbLine
 10
11030.19026637819
 20
1158.702552040552
 30
0.0
 11
10545.1857663779
 21
1158.702552040552
 31
0.0
  0
LINE
  5
F4
330
1038
100
AcDbEntity
  8
主製品
  6
Continuous
 62
     8
100
AcDbLine
 10
10545.1857663779
 20
1158.702552040552
 30
0.0
 11
10545.1857663779
 21
1118.703552040517
 31
0.0
  0
ENDBLK
  5
F5
330
1038
100
AcDbEntity
  8
0
100
AcDbBlockEnd
  0
BLOCK
  5
103B
330
1039
100
AcDbEntity
  8
0
100
AcDbBlockBegin
  2
GRP_2360
 70
     0
 10
0.0
 20
0.0
 30
0.0
  3
GRP_2360
  1

  0
LINE
  5
F8
330
1039
100
AcDbEntity
  8
主製品
  6
Continuous
 62
     7
100
AcDbLine
 10
10865.92600957981
 20
1068.700302040645
 30
0.0
 11
10990.1985095799
 21
1068.700302040645
 31
0.0
  0
ARC
  5
F9
330
1039
100
AcDbEntity
  8
主製品
  6
Continuous
 62
     7
100
AcDbCircle
 10
10865.92600957981
 20
1053.702552040897
 30
0.0
 40
54.9999
100
AcDbArc
 50
89.99966505880218
 51
150.5057840667019
  0
ARC
  5
FA
330
1039
100
AcDbEntity
  8
主製品
  6
Continuous
 62
     7
100
AcDbCircle
 10
10865.92600957981
 20
1053.702552040897
 30
0.0
 40
14.999925
100
AcDbArc
 50
89.9987650587114
 51
150.506043066631
  0
LINE
  5
FB
330
1039
100
AcDbEntity
  8
主製品
  6
Continuous
 62
     7
100
AcDbLine
 10
10865.92600957981
 20
1108.700052040706
 30
0.0
 11
10990.19750957975
 21
1108.700052040615
 31
0.0
  0
ARC
  5
FC
330
1039
100
AcDbEntity
  8
主製品
  6
Continuous
 62
     7
100
AcDbCircle
 10
10780.19800958006
 20
1102.193052040695
 30
0.0
 40
43.49009999999999
100
AcDbArc
 50
209.4941200743645
 51
330.5058900901808
  0
LINE
  5
FD
330
1039
100
AcDbEntity
  8
主製品
  6
Continuous
 62
     7
100
AcDbLine
 10
10615.19875958008
 20
1068.700302040645
 30
0.0
 11
10694.47675957978
 21
1068.700302040645
 31
0.0
  0
ARC
  5
FE
330
1039
100
AcDbEntity
  8
主製品
  6
Continuous
 62
     7
100
AcDbCircle
 10
10694.47675957978
 20
1053.702552040897
 30
0.0
 40
15.0003
100
AcDbArc
 50
29.49453005082693
 51
89.99888705871326
  0
ARC
  5
FF
330
1039
100
AcDbEntity
  8
主製品
  6
Continuous
 62
     7
100
AcDbCircle
 10
10694.47675957978
 20
1053.702552040897
 30
0.0
 40
55.00019999999985
100
AcDbArc
 50
29.49428005092766
 51
89.99969505875295
  0
LINE
  5
100
330
1039
100
AcDbEntity
  8
主製品
  6
Continuous
 62
     7
100
AcDbLine
 10
10615.19875958008
 20
1108.700052040706
 30
0.0
 11
10694.47675957978
 21
1108.700052040706
 31
0.0
  0
LINE
  5
101
330
1039
100
AcDbEntity
  8
主製品
  6
Continuous
 62
     7
100
AcDbLine
 10
10615.19875958008
 20
1108.700052040706
 30
0.0
 11
10615.19875958008
 21
1068.700302040645
 31
0.0
  0
ARC
  5
102
330
1039
100
AcDbEntity
  8
主製品
  6
Continuous
 62
     7
100
AcDbCircle
 10
10780.19800958006
 20
1102.193052040695
 30
0.0
 40
83.49007499999997
100
AcDbArc
 50
209.4941600742907
 51
330.5058500901123
  0
ARC
  5
103
330
1039
100
AcDbEntity
  8
主製品
  6
Continuous
 62
     7
100
AcDbCircle
 10
10990.19750957975
 20
1043.700052040697
 30
0.0
 40
65.0
100
AcDbArc
 50
0.0000000470143924
 51
90.00000005875765
  0
ARC
  5
104
330
1039
100
AcDbEntity
  8
主製品
  6
Continuous
 62
     7
100
AcDbCircle
 10
10990.1985095799
 20
1043.700302040554
 30
0.0
 40
25.0
100
AcDbArc
 50
0.0000000470063188
 51
90.00000005875765
  0
LINE
  5
105
330
1039
100
AcDbEntity
  8
主製品
  6
Continuous
 62
     7
100
AcDbLine
 10
11055.19750957989
 20
1043.700052040697
 30
0.0
 11
11055.19750958007
 21
723.7053020407643
 31
0.0
  0
LINE
  5
106
330
1039
100
AcDbEntity
  8
主製品
  6
Continuous
 62
     7
100
AcDbLine
 10
11015.1985095799
 20
1043.700302040554
 30
0.0
 11
11015.1985095799
 21
723.7043020406985
 31
0.0
  0
LINE
  5
107
330
1039
100
AcDbEntity
  8
主製品
  6
Continuous
 62
     7
100
AcDbLine
 10
10990.19750957975
 20
658.7053020408916
 30
0.0
 11
5620.204509579683
 21
658.7053020408916
 31
0.0
  0
ARC
  5
108
330
1039
100
AcDbEntity
  8
主製品
  6
Continuous
 62
     7
100
AcDbCircle
 10
10990.19750957975
 20
723.7053020407643
 30
0.0
 40
65.0
100
AcDbArc
 50
270.0000000352547
 51
0.0000000470063188
  0
ARC
  5
109
330
1039
100
AcDbEntity
  8
主製品
  6
Continuous
 62
     7
100
AcDbCircle
 10
5620.204509579683
 20
723.7053020407643
 30
0.0
 40
65.0
100
AcDbArc
 50
180.0000000705093
 51
270.0000000822609
  0
LINE
  5
10A
330
1039
100
AcDbEntity
  8
主製品
  6
Continuous
 62
     7
100
AcDbLine
 10
10990.1985095799
 20
698.704302040744
 30
0.0
 11
5620.203509580072
 21
698.7043020407894
 31
0.0
  0
ARC
  5
10B
330
1039
100
AcDbEntity
  8
主製品
  6
Continuous
 62
     7
100
AcDbCircle
 10
10990.1985095799
 20
723.7043020406985
 30
0.0
 40
25.0
100
AcDbArc
 50
270.0000000352547
 51
0.0000000470063188
  0
ARC
  5
10C
330
1039
100
AcDbEntity
  8
主製品
  6
Continuous
 62
     7
100
AcDbCircle
 10
5620.203509580072
 20
723.704302040744
 30
0.0
 40
25.0
100
AcDbArc
 50
180.0000000705233
 51
270.0000000822609
  0
LINE
  5
10D
330
1039
100
AcDbEntity
  8
主製品
  6
Continuous
 62
     7
100
AcDbLine
 10
5538.201009580074
 20
1158.702552040552
 30
0.0
 11
5269.971759579833
 21
1158.702552040552
 31
0.0
  0
LINE
  5
10E
330
1039
100
AcDbEntity
  8
主製品
  6
Continuous
 62
     7
100
AcDbLine
 10
5595.203509580072
 20
723.704302040744
 30
0.0
 11
5595.2035095798
 21
1093.702552040634
 31
0.0
  0
ARC
  5
10F
330
1039
100
AcDbEntity
  8
主製品
  6
Continuous
 62
     7
100
AcDbCircle
 10
5530.203509579837
 20
1093.702552040634
 30
0.0
 40
65.0
100
AcDbArc
 50
0.0000000470063188
 51
90.00000005875765
  0
LINE
  5
110
330
1039
100
AcDbEntity
  8
主製品
  6
Continuous
 62
     7
100
AcDbLine
 10
5555.204509579811
 20
723.7053020407643
 30
0.0
 11
5555.204509579811
 21
1093.703552040608
 31
0.0
  0
ARC
  5
111
330
1039
100
AcDbEntity
  8
主製品
  6
Continuous
 62
     7
100
AcDbCircle
 10
5530.204509579991
 20
1093.703552040608
 30
0.0
 40
25.0
100
AcDbArc
 50
0.0000000470063188
 51
90.00000005875765
  0
LINE
  5
112
330
1039
100
AcDbEntity
  8
主製品
  6
Continuous
 62
     7
100
AcDbLine
 10
5530.204509579991
 20
1118.703552040654
 30
0.0
 11
5261.966509579973
 21
1118.703552040654
 31
0.0
  0
ARC
  5
113
330
1039
100
AcDbEntity
  8
主製品
  6
Continuous
 62
     7
100
AcDbCircle
 10
5155.1905095798
 20
1158.702552040552
 30
0.0
 40
60.00022499999995
100
AcDbArc
 50
211.332840074548
 51
328.6678500898775
  0
ARC
  5
114
330
1039
100
AcDbEntity
  8
主製品
  6
Continuous
 62
     7
100
AcDbCircle
 10
5261.966509579973
 20
1093.701552040794
 30
0.0
 40
25.00087500000002
100
AcDbArc
 50
90.00100805871353
 51
148.6665650664075
  0
ARC
  5
115
330
1039
100
AcDbEntity
  8
主製品
  6
Continuous
 62
     7
100
AcDbCircle
 10
5155.1905095798
 20
1158.702552040552
 30
0.0
 40
100.0000499999999
100
AcDbArc
 50
211.3322500746131
 51
328.6677400898665
  0
ARC
  5
116
330
1039
100
AcDbEntity
  8
主製品
  6
Continuous
 62
     7
100
AcDbCircle
 10
5261.966509579973
 20
1093.701552040794
 30
0.0
 40
64.99867499999999
100
AcDbArc
 50
89.99949705872266
 51
148.6684120663936
  0
LINE
  5
117
330
1039
100
AcDbEntity
  8
主製品
  6
Continuous
 62
     7
100
AcDbLine
 10
5530.203509579837
 20
1158.702552040552
 30
0.0
 11
5261.966509579973
 21
1158.702552040552
 31
0.0
  0
ARC
  5
118
330
1039
100
AcDbEntity
  8
主製品
  6
Continuous
 62
     7
100
AcDbCircle
 10
5048.428759579813
 20
1093.701552040794
 30
0.0
 40
64.99979999999995
100
AcDbArc
 50
31.33204005112257
 51
90.00019905878314
  0
ARC
  5
119
330
1039
100
AcDbEntity
  8
主製品
  6
Continuous
 62
     7
100
AcDbCircle
 10
5048.428759579813
 20
1093.701552040794
 30
0.0
 40
24.99967500000001
100
AcDbArc
 50
31.33187005111194
 51
90.00053505873356
  0
LINE
  5
11A
330
1039
100
AcDbEntity
  8
主製品
  6
Continuous
 62
     7
100
AcDbLine
 10
5056.427259579844
 20
1158.702552040552
 30
0.0
 11
4553.196759580053
 21
1158.702552040552
 31
0.0
  0
LINE
  5
11B
330
1039
100
AcDbEntity
  8
主製品
  6
Continuous
 62
     7
100
AcDbLine
 10
5048.428759579813
 20
1118.703552040654
 30
0.0
 11
4545.199009579822
 21
1118.703552040654
 31
0.0
  0
LINE
  5
11C
330
1039
100
AcDbEntity
  8
主製品
  6
Continuous
 62
     7
100
AcDbLine
 10
5048.428759579813
 20
1158.702552040552
 30
0.0
 11
4545.199009579822
 21
1158.702552040552
 31
0.0
  0
LINE
  5
11D
330
1039
100
AcDbEntity
  8
主製品
  6
Continuous
 62
     7
100
AcDbLine
 10
4545.199009579822
 20
1158.702552040552
 30
0.0
 11
4545.199009579822
 21
1118.703552040654
 31
0.0
  0
ENDBLK
  5
11E
330
1039
100
AcDbEntity
  8
0
100
AcDbBlockEnd
  0
BLOCK
  5
103D
330
103C
100
AcDbEntity
  8
0
100
AcDbBlockBegin
  2
A$C4A68546B
 70
     0
 10
0.0
 20
0.0
 30
0.0
  3
A$C4A68546B
  1

  0
INSERT
  5
123
330
103C
100
AcDbEntity
  8
主製品
  6
Continuous
100
AcDbBlockReference
  2
GRP_2231
 10
-4545.198874687485
 20
-658.7052916533721
 30
0.0
  0
ENDBLK
  5
125
330
103C
100
AcDbEntity
  8
0
100
AcDbBlockEnd
  0
BLOCK
  5
103F
330
103E
100
AcDbEntity
  8
0
100
AcDbBlockBegin
  2
_OPEN30
 70
     0
 10
0.0
 20
0.0
 30
0.0
  3
_OPEN30
  1

  0
LINE
  5
1CE
330
103E
100
AcDbEntity
  8
0
  6
ByBlock
 62
     0
100
AcDbLine
 10
-1.0
 20
0.26794919
 30
0.0
 11
0.0
 21
0.0
 31
0.0
  0
LINE
  5
1CF
330
103E
100
AcDbEntity
  8
0
  6
ByBlock
 62
     0
100
AcDbLine
 10
0.0
 20
0.0
 30
0.0
 11
-1.0
 21
-0.26794919
 31
0.0
  0
LINE
  5
1D0
330
103E
100
AcDbEntity
  8
0
  6
ByBlock
 62
     0
100
AcDbLine
 10
0.0
 20
0.0
 30
0.0
 11
-1.0
 21
0.0
 31
0.0
  0
ENDBLK
  5
1D2
330
103E
100
AcDbEntity
  8
0
100
AcDbBlockEnd
  0
BLOCK
  5
1041
330
1040
100
AcDbEntity
  8
0
100
AcDbBlockBegin
  2
_DOT
 70
     0
 10
0.0
 20
0.0
 30
0.0
  3
_DOT
  1

  0
LWPOLYLINE
  5
1DC
330
1040
100
AcDbEntity
  8
0
  6
ByBlock
 62
     0
100
AcDbPolyline
 90
        2
 70
     1
 43
0.5
 10
-0.25
 20
0.0
 42
1.0
 10
0.25
 20
0.0
 42
1.0
  0
LINE
  5
1DD
330
1040
100
AcDbEntity
  8
0
  6
ByBlock
 62
     0
100
AcDbLine
 10
-0.5
 20
0.0
 30
0.0
 11
-1.0
 21
0.0
 31
0.0
  0
ENDBLK
  5
1DF
330
1040
100
AcDbEntity
  8
0
100
AcDbBlockEnd
  0
BLOCK
  5
1098
330
1097
100
AcDbEntity
  8
0
100
AcDbBlockBegin
  2
*U8
 70
     1
 10
0.0
 20
0.0
 30
0.0
  3
*U8
  1

  0
TEXT
  5
EEF
330
1097
100
AcDbEntity
  8
0
100
AcDbText
 10
9782.983763865439
 20
13190.71558767876
 30
0.0
 40
10.0
  1
120ｍｍ
100
AcDbText
  0
ENDBLK
  5
EF1
330
1097
100
AcDbEntity
  8
0
100
AcDbBlockEnd
  0
BLOCK
  5
109A
330
1099
100
AcDbEntity
  8
0
100
AcDbBlockBegin
  2
*U9
 70
     1
 10
0.0
 20
0.0
 30
0.0
  3
*U9
  1

  0
TEXT
  5
EF8
330
1099
100
AcDbEntity
  8
0
100
AcDbText
 10
9761.061302984124
 20
13144.24332646366
 30
0.0
 40
10.0
  1
目地無
100
AcDbText
  0
ENDBLK
  5
EFA
330
1099
100
AcDbEntity
  8
0
100
AcDbBlockEnd
  0
BLOCK
  5
109C
330
109B
100
AcDbEntity
  8
0
100
AcDbBlockBegin
  2
*U10
 70
     1
 10
0.0
 20
0.0
 30
0.0
  3
*U10
  1

  0
TEXT
  5
F01
330
109B
100
AcDbEntity
  8
0
100
AcDbText
 10
9761.061302984124
 20
13037.38754312711
 30
0.0
 40
10.0
  1
目地有
100
AcDbText
  0
ENDBLK
  5
F03
330
109B
100
AcDbEntity
  8
0
100
AcDbBlockEnd
  0
BLOCK
  5
109E
330
109D
100
AcDbEntity
  8
0
100
AcDbBlockBegin
  2
*U11
 70
     1
 10
0.0
 20
0.0
 30
0.0
  3
*U11
  1

  0
TEXT
  5
F0A
330
109D
100
AcDbEntity
  8
0
100
AcDbText
 10
9728.773160116665
 20
12887.63875054045
 30
0.0
 40
10.0
  1
180ｍｍ
100
AcDbText
  0
ENDBLK
  5
F0C
330
109D
100
AcDbEntity
  8
0
100
AcDbBlockEnd
  0
BLOCK
  5
10A0
330
109F
100
AcDbEntity
  8
0
100
AcDbBlockBegin
  2
*U12
 70
     1
 10
0.0
 20
0.0
 30
0.0
  3
*U12
  1

  0
TEXT
  5
F13
330
109F
100
AcDbEntity
  8
0
100
AcDbText
 10
9706.850699235349
 20
12841.16648932534
 30
0.0
 40
10.0
  1
目地無
100
AcDbText
  0
ENDBLK
  5
F15
330
109F
100
AcDbEntity
  8
0
100
AcDbBlockEnd
  0
BLOCK
  5
10A2
330
10A1
100
AcDbEntity
  8
0
100
AcDbBlockBegin
  2
*U13
 70
     1
 10
0.0
 20
0.0
 30
0.0
  3
*U13
  1

  0
TEXT
  5
F1C
330
10A1
100
AcDbEntity
  8
0
100
AcDbText
 10
9706.850699235349
 20
12734.31070598879
 30
0.0
 40
10.0
  1
目地有
100
AcDbText
  0
ENDBLK
  5
F1E
330
10A1
100
AcDbEntity
  8
0
100
AcDbBlockEnd
  0
BLOCK
  5
10B7
330
10B6
100
AcDbEntity
  8
0
100
AcDbBlockBegin
  2
*U14
 70
     1
 10
0.0
 20
0.0
 30
0.0
  3
*U14
  1

  0
TEXT
  5
F71
330
10B6
100
AcDbEntity
  8
0
100
AcDbText
 10
9814.061401904268
 20
12887.63875054045
 30
0.0
 40
10.0
  1
働巾179.773ｍｍ
100
AcDbText
  0
ENDBLK
  5
F73
330
10B6
100
AcDbEntity
  8
0
100
AcDbBlockEnd
  0
BLOCK
  5
10B9
330
10B8
100
AcDbEntity
  8
0
100
AcDbBlockBegin
  2
*U15
 70
     1
 10
0.0
 20
0.0
 30
0.0
  3
*U15
  1

  0
TEXT
  5
F75
330
10B8
100
AcDbEntity
  8
0
100
AcDbText
 10
9856.753200705407
 20
13190.90451485831
 30
0.0
 40
10.0
  1
働巾119.848ｍｍ
100
AcDbText
  0
ENDBLK
  5
F77
330
10B8
100
AcDbEntity
  8
0
100
AcDbBlockEnd
  0
BLOCK
  5
1423
330
1422
100
AcDbEntity
  8
0
100
AcDbBlockBegin
  2
*D16
 70
     1
 10
0.0
 20
0.0
 30
0.0
  3
*D16
  1

  0
LINE
  5
16B0
330
1422
100
AcDbEntity
  8
0
 62
     0
370
    -2
100
AcDbLine
 10
10305.54887210854
 20
12852.77123365775
 30
0.0
 11
10305.54887210854
 21
12826.41565901736
 31
0.0
  0
LINE
  5
16B1
330
1422
100
AcDbEntity
  8
0
 62
     0
370
    -2
100
AcDbLine
 10
10125.77587210854
 20
12852.77123365669
 30
0.0
 11
10125.77587210854
 21
12826.41565901736
 31
0.0
  0
LINE
  5
16B2
330
1422
100
AcDbEntity
  8
0
 62
     0
370
    -2
100
AcDbLine
 10
10303.54887210854
 20
12827.66565901736
 30
0.0
 11
10127.77587210854
 21
12827.66565901736
 31
0.0
  0
SOLID
  5
16B3
330
1422
100
AcDbEntity
  8
0
 62
     0
100
AcDbTrace
 10
10303.54887210854
 20
12827.99899235069
 30
0.0
 11
10303.54887210854
 21
12827.33232568402
 31
0.0
 12
10305.54887210854
 22
12827.66565901736
 32
0.0
 13
10305.54887210854
 23
12827.66565901736
 33
0.0
  0
SOLID
  5
16B4
330
1422
100
AcDbEntity
  8
0
 62
     0
100
AcDbTrace
 10
10127.77587210854
 20
12827.99899235069
 30
0.0
 11
10127.77587210854
 21
12827.33232568402
 31
0.0
 12
10125.77587210854
 22
12827.66565901736
 32
0.0
 13
10125.77587210854
 23
12827.66565901736
 33
0.0
  0
MTEXT
  5
16B5
330
1422
100
AcDbEntity
  8
0
 62
     0
100
AcDbMText
 10
10215.66237210854
 20
12831.16565901736
 30
0.0
 40
5.0
 41
0.0
 71
     5
 72
     1
  1
\A1;180
 73
     1
 44
1.0
1001
ACAD
1000
MTEXTBEGIN
1070
    73
1070
     1
1070
    44
1040
1.0
1070
    74
1070
     0
1000
MTEXTEND
  0
POINT
  5
16B6
330
1422
100
AcDbEntity
  8
DEFPOINTS
 62
     0
100
AcDbPoint
 10
10305.54887210854
 20
12857.77123365775
 30
0.0
  0
POINT
  5
16B7
330
1422
100
AcDbEntity
  8
DEFPOINTS
 62
     0
100
AcDbPoint
 10
10125.77587210854
 20
12857.77123365668
 30
0.0
  0
POINT
  5
16B8
330
1422
100
AcDbEntity
  8
DEFPOINTS
 62
     0
100
AcDbPoint
 10
10125.77587210854
 20
12827.66565901736
 30
0.0
  0
ENDBLK
  5
1424
330
1422
100
AcDbEntity
  8
0
100
AcDbBlockEnd
  0
BLOCK
  5
142F
330
142E
100
AcDbEntity
  8
0
100
AcDbBlockBegin
  2
*D17
 70
     1
 10
0.0
 20
0.0
 30
0.0
  3
*D17
  1

  0
LINE
  5
16B9
330
142E
100
AcDbEntity
  8
0
 62
     0
370
    -2
100
AcDbLine
 10
9946.002872108536
 20
12852.77123365775
 30
0.0
 11
9946.002872108536
 21
12826.41565901736
 31
0.0
  0
LINE
  5
16BA
330
142E
100
AcDbEntity
  8
0
 62
     0
370
    -2
100
AcDbLine
 10
9766.229872108539
 20
12852.77123365669
 30
0.0
 11
9766.229872108539
 21
12826.41565901736
 31
0.0
  0
LINE
  5
16BB
330
142E
100
AcDbEntity
  8
0
 62
     0
370
    -2
100
AcDbLine
 10
9944.002872108537
 20
12827.66565901736
 30
0.0
 11
9768.229872108538
 21
12827.66565901736
 31
0.0
  0
SOLID
  5
16BC
330
142E
100
AcDbEntity
  8
0
 62
     0
100
AcDbTrace
 10
9944.002872108537
 20
12827.99899235069
 30
0.0
 11
9944.002872108537
 21
12827.33232568402
 31
0.0
 12
9946.002872108536
 22
12827.66565901736
 32
0.0
 13
9946.002872108536
 23
12827.66565901736
 33
0.0
  0
SOLID
  5
16BD
330
142E
100
AcDbEntity
  8
0
 62
     0
100
AcDbTrace
 10
9768.229872108538
 20
12827.99899235069
 30
0.0
 11
9768.229872108538
 21
12827.33232568402
 31
0.0
 12
9766.229872108539
 22
12827.66565901736
 32
0.0
 13
9766.229872108539
 23
12827.66565901736
 33
0.0
  0
MTEXT
  5
16BE
330
142E
100
AcDbEntity
  8
0
 62
     0
100
AcDbMText
 10
9856.116372108537
 20
12831.16565901736
 30
0.0
 40
5.0
 41
0.0
 71
     5
 72
     1
  1
\A1;180
 73
     1
 44
1.0
1001
ACAD
1000
MTEXTBEGIN
1070
    73
1070
     1
1070
    44
1040
1.0
1070
    74
1070
     0
1000
MTEXTEND
  0
POINT
  5
16BF
330
142E
100
AcDbEntity
  8
DEFPOINTS
 62
     0
100
AcDbPoint
 10
9946.002872108536
 20
12857.77123365775
 30
0.0
  0
POINT
  5
16C0
330
142E
100
AcDbEntity
  8
DEFPOINTS
 62
     0
100
AcDbPoint
 10
9766.229872108539
 20
12857.77123365668
 30
0.0
  0
POINT
  5
16C1
330
142E
100
AcDbEntity
  8
DEFPOINTS
 62
     0
100
AcDbPoint
 10
9766.229872108539
 20
12827.66565901736
 30
0.0
  0
ENDBLK
  5
1430
330
142E
100
AcDbEntity
  8
0
100
AcDbBlockEnd
  0
BLOCK
  5
143B
330
143A
100
AcDbEntity
  8
0
100
AcDbBlockBegin
  2
*D18
 70
     1
 10
0.0
 20
0.0
 30
0.0
  3
*D18
  1

  0
LINE
  5
1820
330
143A
100
AcDbEntity
  8
0
 62
     0
370
    -2
100
AcDbLine
 10
9962.601391526396
 20
12748.59700665275
 30
0.0
 11
9962.601391526396
 21
12761.54443511106
 31
0.0
  0
LINE
  5
1821
330
143A
100
AcDbEntity
  8
0
 62
     0
370
    -2
100
AcDbLine
 10
9941.601301526397
 20
12749.89700665168
 30
0.0
 11
9941.601301526397
 21
12761.54443511106
 31
0.0
  0
LINE
  5
1822
330
143A
100
AcDbEntity
  8
0
 62
     0
370
    -2
100
AcDbLine
 10
9960.601391526395
 20
12760.29443511107
 30
0.0
 11
9943.601301526397
 21
12760.29443511107
 31
0.0
  0
SOLID
  5
1823
330
143A
100
AcDbEntity
  8
0
 62
     0
100
AcDbTrace
 10
9960.601391526395
 20
12760.6277684444
 30
0.0
 11
9960.601391526395
 21
12759.96110177773
 31
0.0
 12
9962.601391526396
 22
12760.29443511107
 32
0.0
 13
9962.601391526396
 23
12760.29443511107
 33
0.0
  0
SOLID
  5
1824
330
143A
100
AcDbEntity
  8
0
 62
     0
100
AcDbTrace
 10
9943.601301526397
 20
12760.6277684444
 30
0.0
 11
9943.601301526397
 21
12759.96110177773
 31
0.0
 12
9941.601301526397
 22
12760.29443511107
 32
0.0
 13
9941.601301526397
 23
12760.29443511107
 33
0.0
  0
MTEXT
  5
1825
330
143A
100
AcDbEntity
  8
0
 62
     0
100
AcDbMText
 10
9952.101346526397
 20
12763.79443511107
 30
0.0
 40
5.0
 41
0.0
 71
     5
 72
     1
  1
\A1;21
 73
     1
 44
1.0
1001
ACAD
1000
MTEXTBEGIN
1070
    73
1070
     1
1070
    44
1040
1.0
1070
    74
1070
     0
1000
MTEXTEND
  0
POINT
  5
1826
330
143A
100
AcDbEntity
  8
DEFPOINTS
 62
     0
100
AcDbPoint
 10
9962.601391526396
 20
12743.59700665275
 30
0.0
  0
POINT
  5
1827
330
143A
100
AcDbEntity
  8
DEFPOINTS
 62
     0
100
AcDbPoint
 10
9941.601301526397
 20
12744.89700665168
 30
0.0
  0
POINT
  5
1828
330
143A
100
AcDbEntity
  8
DEFPOINTS
 62
     0
100
AcDbPoint
 10
9941.601301526397
 20
12760.29443511107
 30
0.0
  0
ENDBLK
  5
143C
330
143A
100
AcDbEntity
  8
0
100
AcDbBlockEnd
  0
BLOCK
  5
1447
330
1446
100
AcDbEntity
  8
0
100
AcDbBlockBegin
  2
*D19
 70
     1
 10
0.0
 20
0.0
 30
0.0
  3
*D19
  1

  0
LINE
  5
16C2
330
1446
100
AcDbEntity
  8
0
 62
     0
370
    -2
100
AcDbLine
 10
10125.7841118472
 20
12852.77123365775
 30
0.0
 11
10125.7841118472
 21
12826.41565901736
 31
0.0
  0
LINE
  5
16C3
330
1446
100
AcDbEntity
  8
0
 62
     0
370
    -2
100
AcDbLine
 10
9946.011111847205
 20
12852.77123365669
 30
0.0
 11
9946.011111847205
 21
12826.41565901736
 31
0.0
  0
LINE
  5
16C4
330
1446
100
AcDbEntity
  8
0
 62
     0
370
    -2
100
AcDbLine
 10
10123.7841118472
 20
12827.66565901736
 30
0.0
 11
9948.011111847206
 21
12827.66565901736
 31
0.0
  0
SOLID
  5
16C5
330
1446
100
AcDbEntity
  8
0
 62
     0
100
AcDbTrace
 10
10123.7841118472
 20
12827.99899235069
 30
0.0
 11
10123.7841118472
 21
12827.33232568402
 31
0.0
 12
10125.7841118472
 22
12827.66565901736
 32
0.0
 13
10125.7841118472
 23
12827.66565901736
 33
0.0
  0
SOLID
  5
16C6
330
1446
100
AcDbEntity
  8
0
 62
     0
100
AcDbTrace
 10
9948.011111847206
 20
12827.99899235069
 30
0.0
 11
9948.011111847206
 21
12827.33232568402
 31
0.0
 12
9946.011111847205
 22
12827.66565901736
 32
0.0
 13
9946.011111847205
 23
12827.66565901736
 33
0.0
  0
MTEXT
  5
16C7
330
1446
100
AcDbEntity
  8
0
 62
     0
100
AcDbMText
 10
10035.8976118472
 20
12831.16565901736
 30
0.0
 40
5.0
 41
0.0
 71
     5
 72
     1
  1
\A1;180
 73
     1
 44
1.0
1001
ACAD
1000
MTEXTBEGIN
1070
    73
1070
     1
1070
    44
1040
1.0
1070
    74
1070
     0
1000
MTEXTEND
  0
POINT
  5
16C8
330
1446
100
AcDbEntity
  8
DEFPOINTS
 62
     0
100
AcDbPoint
 10
10125.7841118472
 20
12857.77123365775
 30
0.0
  0
POINT
  5
16C9
330
1446
100
AcDbEntity
  8
DEFPOINTS
 62
     0
100
AcDbPoint
 10
9946.011111847205
 20
12857.77123365668
 30
0.0
  0
POINT
  5
16CA
330
1446
100
AcDbEntity
  8
DEFPOINTS
 62
     0
100
AcDbPoint
 10
9946.011111847205
 20
12827.66565901736
 30
0.0
  0
ENDBLK
  5
1448
330
1446
100
AcDbEntity
  8
0
100
AcDbBlockEnd
  0
BLOCK
  5
1453
330
1452
100
AcDbEntity
  8
0
100
AcDbBlockBegin
  2
*D20
 70
     1
 10
0.0
 20
0.0
 30
0.0
  3
*D20
  1

  0
LINE
  5
1869
330
1452
100
AcDbEntity
  8
0
 62
     0
370
    -2
100
AcDbLine
 10
10131.8012715264
 20
12731.19706165168
 30
0.0
 11
10131.8012715264
 21
12683.7972194048
 31
0.0
  0
LINE
  5
186A
330
1452
100
AcDbEntity
  8
0
 62
     0
370
    -2
100
AcDbLine
 10
9952.028271526522
 20
12726.39713165275
 30
0.0
 11
9952.028271526522
 21
12683.7972194048
 31
0.0
  0
LINE
  5
186B
330
1452
100
AcDbEntity
  8
0
 62
     0
370
    -2
100
AcDbLine
 10
10129.8012715264
 20
12685.0472194048
 30
0.0
 11
9954.028271526523
 21
12685.0472194048
 31
0.0
  0
SOLID
  5
186C
330
1452
100
AcDbEntity
  8
0
 62
     0
100
AcDbTrace
 10
10129.8012715264
 20
12685.38055273813
 30
0.0
 11
10129.8012715264
 21
12684.71388607146
 31
0.0
 12
10131.8012715264
 22
12685.0472194048
 32
0.0
 13
10131.8012715264
 23
12685.0472194048
 33
0.0
  0
SOLID
  5
186D
330
1452
100
AcDbEntity
  8
0
 62
     0
100
AcDbTrace
 10
9954.028271526523
 20
12685.38055273813
 30
0.0
 11
9954.028271526523
 21
12684.71388607146
 31
0.0
 12
9952.028271526522
 22
12685.0472194048
 32
0.0
 13
9952.028271526522
 23
12685.0472194048
 33
0.0
  0
MTEXT
  5
186E
330
1452
100
AcDbEntity
  8
0
 62
     0
100
AcDbMText
 10
10041.91477152646
 20
12688.5472194048
 30
0.0
 40
5.0
 41
0.0
 71
     5
 72
     1
  1
\A1;179.773
 73
     1
 44
1.0
1001
ACAD
1000
MTEXTBEGIN
1070
    73
1070
     1
1070
    44
1040
1.0
1070
    74
1070
     0
1000
MTEXTEND
  0
POINT
  5
186F
330
1452
100
AcDbEntity
  8
DEFPOINTS
 62
     0
100
AcDbPoint
 10
10131.8012715264
 20
12736.19706165168
 30
0.0
  0
POINT
  5
1870
330
1452
100
AcDbEntity
  8
DEFPOINTS
 62
     0
100
AcDbPoint
 10
9952.028271526522
 20
12731.39713165275
 30
0.0
  0
POINT
  5
1871
330
1452
100
AcDbEntity
  8
DEFPOINTS
 62
     0
100
AcDbPoint
 10
9952.028271526522
 20
12685.0472194048
 30
0.0
  0
ENDBLK
  5
1454
330
1452
100
AcDbEntity
  8
0
100
AcDbBlockEnd
  0
BLOCK
  5
145F
330
145E
100
AcDbEntity
  8
0
100
AcDbBlockBegin
  2
*D21
 70
     1
 10
0.0
 20
0.0
 30
0.0
  3
*D21
  1

  0
LINE
  5
1683
330
145E
100
AcDbEntity
  8
0
 62
     0
370
    -2
100
AcDbLine
 10
9952.028271526522
 20
12731.39713165275
 30
0.0
 11
9952.028271526522
 21
12706.69516147712
 31
0.0
  0
LINE
  5
1684
330
145E
100
AcDbEntity
  8
0
 62
     0
370
    -2
100
AcDbLine
 10
9782.028411526521
 20
12731.39713165169
 30
0.0
 11
9782.028411526521
 21
12706.69516147712
 31
0.0
  0
LINE
  5
1685
330
145E
100
AcDbEntity
  8
0
 62
     0
370
    -2
100
AcDbLine
 10
9950.028271526523
 20
12707.94516147712
 30
0.0
 11
9784.02841152652
 21
12707.94516147712
 31
0.0
  0
SOLID
  5
1686
330
145E
100
AcDbEntity
  8
0
 62
     0
100
AcDbTrace
 10
9950.028271526523
 20
12708.27849481045
 30
0.0
 11
9950.028271526523
 21
12707.61182814378
 31
0.0
 12
9952.028271526522
 22
12707.94516147712
 32
0.0
 13
9952.028271526522
 23
12707.94516147712
 33
0.0
  0
SOLID
  5
1687
330
145E
100
AcDbEntity
  8
0
 62
     0
100
AcDbTrace
 10
9784.02841152652
 20
12708.27849481045
 30
0.0
 11
9784.02841152652
 21
12707.61182814378
 31
0.0
 12
9782.028411526521
 22
12707.94516147712
 32
0.0
 13
9782.028411526521
 23
12707.94516147712
 33
0.0
  0
MTEXT
  5
1688
330
145E
100
AcDbEntity
  8
0
 62
     0
100
AcDbMText
 10
9867.028341526522
 20
12711.44516147712
 30
0.0
 40
5.0
 41
0.0
 71
     5
 72
     1
  1
\A1;170
 73
     1
 44
1.0
1001
ACAD
1000
MTEXTBEGIN
1070
    73
1070
     1
1070
    44
1040
1.0
1070
    74
1070
     0
1000
MTEXTEND
  0
POINT
  5
1689
330
145E
100
AcDbEntity
  8
DEFPOINTS
 62
     0
100
AcDbPoint
 10
9952.028271526522
 20
12736.39713165275
 30
0.0
  0
POINT
  5
168A
330
145E
100
AcDbEntity
  8
DEFPOINTS
 62
     0
100
AcDbPoint
 10
9782.028411526521
 20
12736.39713165169
 30
0.0
  0
POINT
  5
168B
330
145E
100
AcDbEntity
  8
DEFPOINTS
 62
     0
100
AcDbPoint
 10
9782.028411526521
 20
12707.94516147712
 30
0.0
  0
ENDBLK
  5
1460
330
145E
100
AcDbEntity
  8
0
100
AcDbBlockEnd
  0
BLOCK
  5
146B
330
146A
100
AcDbEntity
  8
0
100
AcDbBlockBegin
  2
*D22
 70
     1
 10
0.0
 20
0.0
 30
0.0
  3
*D22
  1

  0
LINE
  5
183B
330
146A
100
AcDbEntity
  8
0
 62
     0
370
    -2
100
AcDbLine
 10
9961.801411526398
 20
12731.19706164998
 30
0.0
 11
9961.801411526398
 21
12706.69516147712
 31
0.0
  0
LINE
  5
183C
330
146A
100
AcDbEntity
  8
0
 62
     0
370
    -2
100
AcDbLine
 10
9952.028271526522
 20
12731.39713165114
 30
0.0
 11
9952.028271526522
 21
12706.69516147712
 31
0.0
  0
LINE
  5
183D
330
146A
100
AcDbEntity
  8
0
 62
     0
370
    -2
100
AcDbLine
 10
9959.801411526399
 20
12707.94516147712
 30
0.0
 11
9954.028271526523
 21
12707.94516147712
 31
0.0
  0
MTEXT
  5
183E
330
146A
100
AcDbEntity
  8
0
 62
     0
100
AcDbMText
 10
9963.228787965466
 20
12697.41056033431
 30
0.0
 40
5.0
 41
0.0
 71
     5
 72
     1
  1
\A1;9.773
 73
     1
 44
1.0
1001
ACAD
1000
MTEXTBEGIN
1070
    73
1070
     1
1070
    44
1040
1.0
1070
    74
1070
     0
1000
MTEXTEND
  0
SOLID
  5
183F
330
146A
100
AcDbEntity
  8
0
 62
     0
100
AcDbTrace
 10
9959.801411526399
 20
12708.27849481045
 30
0.0
 11
9959.801411526399
 21
12707.61182814378
 31
0.0
 12
9961.801411526398
 22
12707.94516147712
 32
0.0
 13
9961.801411526398
 23
12707.94516147712
 33
0.0
  0
SOLID
  5
1840
330
146A
100
AcDbEntity
  8
0
 62
     0
100
AcDbTrace
 10
9954.028271526523
 20
12708.27849481045
 30
0.0
 11
9954.028271526523
 21
12707.61182814378
 31
0.0
 12
9952.028271526522
 22
12707.94516147712
 32
0.0
 13
9952.028271526522
 23
12707.94516147712
 33
0.0
  0
POINT
  5
1841
330
146A
100
AcDbEntity
  8
DEFPOINTS
 62
     0
100
AcDbPoint
 10
9961.801411526398
 20
12736.19706164998
 30
0.0
  0
POINT
  5
1842
330
146A
100
AcDbEntity
  8
DEFPOINTS
 62
     0
100
AcDbPoint
 10
9952.028271526522
 20
12736.39713165114
 30
0.0
  0
POINT
  5
1843
330
146A
100
AcDbEntity
  8
DEFPOINTS
 62
     0
100
AcDbPoint
 10
9952.028271526522
 20
12707.94516147712
 30
0.0
  0
ENDBLK
  5
146C
330
146A
100
AcDbEntity
  8
0
100
AcDbBlockEnd
  0
BLOCK
  5
1477
330
1476
100
AcDbEntity
  8
0
100
AcDbBlockBegin
  2
*D23
 70
     1
 10
0.0
 20
0.0
 30
0.0
  3
*D23
  1

  0
LINE
  5
187B
330
1476
100
AcDbEntity
  8
0
 62
     0
370
    -2
100
AcDbLine
 10
10131.8012715264
 20
12731.19706165168
 30
0.0
 11
10131.8012715264
 21
12706.49509147605
 31
0.0
  0
LINE
  5
187C
330
1476
100
AcDbEntity
  8
0
 62
     0
370
    -2
100
AcDbLine
 10
9961.801411526398
 20
12731.19706164998
 30
0.0
 11
9961.801411526398
 21
12706.49509147605
 31
0.0
  0
LINE
  5
187D
330
1476
100
AcDbEntity
  8
0
 62
     0
370
    -2
100
AcDbLine
 10
10129.8012715264
 20
12707.74509147605
 30
0.0
 11
9963.801411526398
 21
12707.74509147605
 31
0.0
  0
SOLID
  5
187E
330
1476
100
AcDbEntity
  8
0
 62
     0
100
AcDbTrace
 10
10129.8012715264
 20
12708.07842480938
 30
0.0
 11
10129.8012715264
 21
12707.41175814271
 31
0.0
 12
10131.8012715264
 22
12707.74509147605
 32
0.0
 13
10131.8012715264
 23
12707.74509147605
 33
0.0
  0
SOLID
  5
187F
330
1476
100
AcDbEntity
  8
0
 62
     0
100
AcDbTrace
 10
9963.801411526398
 20
12708.07842480938
 30
0.0
 11
9963.801411526398
 21
12707.41175814271
 31
0.0
 12
9961.801411526398
 22
12707.74509147605
 32
0.0
 13
9961.801411526398
 23
12707.74509147605
 33
0.0
  0
MTEXT
  5
1880
330
1476
100
AcDbEntity
  8
0
 62
     0
100
AcDbMText
 10
10046.8013415264
 20
12711.24509147605
 30
0.0
 40
5.0
 41
0.0
 71
     5
 72
     1
  1
\A1;170
 73
     1
 44
1.0
1001
ACAD
1000
MTEXTBEGIN
1070
    73
1070
     1
1070
    44
1040
1.0
1070
    74
1070
     0
1000
MTEXTEND
  0
POINT
  5
1881
330
1476
100
AcDbEntity
  8
DEFPOINTS
 62
     0
100
AcDbPoint
 10
10131.8012715264
 20
12736.19706165168
 30
0.0
  0
POINT
  5
1882
330
1476
100
AcDbEntity
  8
DEFPOINTS
 62
     0
100
AcDbPoint
 10
9961.801411526398
 20
12736.19706164998
 30
0.0
  0
POINT
  5
1883
330
1476
100
AcDbEntity
  8
DEFPOINTS
 62
     0
100
AcDbPoint
 10
9961.801411526398
 20
12707.74509147605
 30
0.0
  0
ENDBLK
  5
1478
330
1476
100
AcDbEntity
  8
0
100
AcDbBlockEnd
  0
BLOCK
  5
148F
330
148E
100
AcDbEntity
  8
0
100
AcDbBlockBegin
  2
*D24
 70
     1
 10
0.0
 20
0.0
 30
0.0
  3
*D24
  1

  0
LINE
  5
18B5
330
148E
100
AcDbEntity
  8
0
 62
     0
370
    -2
100
AcDbLine
 10
10311.57427152629
 20
12731.39713165275
 30
0.0
 11
10311.57427152629
 21
12706.69516147712
 31
0.0
  0
LINE
  5
18B6
330
148E
100
AcDbEntity
  8
0
 62
     0
370
    -2
100
AcDbLine
 10
10141.57441152627
 20
12731.39713165275
 30
0.0
 11
10141.57441152627
 21
12706.69516147712
 31
0.0
  0
LINE
  5
18B7
330
148E
100
AcDbEntity
  8
0
 62
     0
370
    -2
100
AcDbLine
 10
10309.57427152628
 20
12707.94516147712
 30
0.0
 11
10143.57441152627
 21
12707.94516147712
 31
0.0
  0
SOLID
  5
18B8
330
148E
100
AcDbEntity
  8
0
 62
     0
100
AcDbTrace
 10
10309.57427152628
 20
12708.27849481045
 30
0.0
 11
10309.57427152628
 21
12707.61182814378
 31
0.0
 12
10311.57427152629
 22
12707.94516147712
 32
0.0
 13
10311.57427152629
 23
12707.94516147712
 33
0.0
  0
SOLID
  5
18B9
330
148E
100
AcDbEntity
  8
0
 62
     0
100
AcDbTrace
 10
10143.57441152627
 20
12708.27849481045
 30
0.0
 11
10143.57441152627
 21
12707.61182814378
 31
0.0
 12
10141.57441152627
 22
12707.94516147712
 32
0.0
 13
10141.57441152627
 23
12707.94516147712
 33
0.0
  0
MTEXT
  5
18BA
330
148E
100
AcDbEntity
  8
0
 62
     0
100
AcDbMText
 10
10226.57434152628
 20
12711.44516147712
 30
0.0
 40
5.0
 41
0.0
 71
     5
 72
     1
  1
\A1;170
 73
     1
 44
1.0
1001
ACAD
1000
MTEXTBEGIN
1070
    73
1070
     1
1070
    44
1040
1.0
1070
    74
1070
     0
1000
MTEXTEND
  0
POINT
  5
18BB
330
148E
100
AcDbEntity
  8
DEFPOINTS
 62
     0
100
AcDbPoint
 10
10311.57427152629
 20
12736.39713165275
 30
0.0
  0
POINT
  5
18BC
330
148E
100
AcDbEntity
  8
DEFPOINTS
 62
     0
100
AcDbPoint
 10
10141.57441152627
 20
12736.39713165275
 30
0.0
  0
POINT
  5
18BD
330
148E
100
AcDbEntity
  8
DEFPOINTS
 62
     0
100
AcDbPoint
 10
10141.57441152627
 20
12707.94516147712
 30
0.0
  0
ENDBLK
  5
1490
330
148E
100
AcDbEntity
  8
0
100
AcDbBlockEnd
  0
BLOCK
  5
149B
330
149A
100
AcDbEntity
  8
0
100
AcDbBlockBegin
  2
*D25
 70
     1
 10
0.0
 20
0.0
 30
0.0
  3
*D25
  1

  0
LINE
  5
15DA
330
149A
100
AcDbEntity
  8
0
 62
     0
370
    -2
100
AcDbLine
 10
10129.48411184587
 20
12865.47112865669
 30
0.0
 11
10140.20670837669
 21
12865.47112865669
 31
0.0
  0
LINE
  5
15DB
330
149A
100
AcDbEntity
  8
0
 62
     0
370
    -2
100
AcDbLine
 10
10129.484111848
 20
12856.47123365669
 30
0.0
 11
10140.20670837669
 21
12856.47123365669
 31
0.0
  0
LINE
  5
15DC
330
149A
100
AcDbEntity
  8
0
 62
     0
370
    -2
100
AcDbLine
 10
10138.95670837669
 20
12863.47112865669
 30
0.0
 11
10138.95670837669
 21
12858.47123365669
 31
0.0
  0
SOLID
  5
15DD
330
149A
100
AcDbEntity
  8
0
 62
     0
100
AcDbTrace
 10
10138.62337504336
 20
12863.47112865669
 30
0.0
 11
10139.29004171002
 21
12863.47112865669
 31
0.0
 12
10138.95670837669
 22
12865.47112865669
 32
0.0
 13
10138.95670837669
 23
12865.47112865669
 33
0.0
  0
SOLID
  5
15DE
330
149A
100
AcDbEntity
  8
0
 62
     0
100
AcDbTrace
 10
10138.62337504336
 20
12858.47123365669
 30
0.0
 11
10139.29004171002
 21
12858.47123365669
 31
0.0
 12
10138.95670837669
 22
12856.47123365669
 32
0.0
 13
10138.95670837669
 23
12856.47123365669
 33
0.0
  0
MTEXT
  5
15DF
330
149A
100
AcDbEntity
  8
0
 62
     0
100
AcDbMText
 10
10135.45670837669
 20
12860.97118115669
 30
0.0
 40
5.0
 41
0.0
 71
     5
 72
     1
  1
\A1;9
 11
0.0000000000000001
 21
1.0
 31
0.0
 73
     1
 44
1.0
1001
ACAD
1000
MTEXTBEGIN
1070
    73
1070
     1
1070
    44
1040
1.0
1070
    74
1070
     0
1000
MTEXTEND
  0
POINT
  5
15E0
330
149A
100
AcDbEntity
  8
DEFPOINTS
 62
     0
100
AcDbPoint
 10
10124.48411184587
 20
12865.47112865669
 30
0.0
  0
POINT
  5
15E1
330
149A
100
AcDbEntity
  8
DEFPOINTS
 62
     0
100
AcDbPoint
 10
10124.484111848
 20
12856.47123365669
 30
0.0
  0
POINT
  5
15E2
330
149A
100
AcDbEntity
  8
DEFPOINTS
 62
     0
100
AcDbPoint
 10
10138.95670837669
 20
12856.47123365669
 30
0.0
  0
ENDBLK
  5
149C
330
149A
100
AcDbEntity
  8
0
100
AcDbBlockEnd
  0
BLOCK
  5
14A7
330
14A6
100
AcDbEntity
  8
0
100
AcDbBlockBegin
  2
*D26
 70
     1
 10
0.0
 20
0.0
 30
0.0
  3
*D26
  1

  0
LINE
  5
15C8
330
14A6
100
AcDbEntity
  8
0
 62
     0
370
    -2
100
AcDbLine
 10
9935.811001847206
 20
12871.47117865669
 30
0.0
 11
9935.811001847206
 21
12877.7274290567
 31
0.0
  0
LINE
  5
15C9
330
14A6
100
AcDbEntity
  8
0
 62
     0
370
    -2
100
AcDbLine
 10
9946.811091847209
 20
12870.17117865775
 30
0.0
 11
9946.811091847209
 21
12877.7274290567
 31
0.0
  0
LINE
  5
15CA
330
14A6
100
AcDbEntity
  8
0
 62
     0
370
    -2
100
AcDbLine
 10
9937.811001847206
 20
12876.4774290567
 30
0.0
 11
9944.811091847208
 21
12876.4774290567
 31
0.0
  0
SOLID
  5
15CB
330
14A6
100
AcDbEntity
  8
0
 62
     0
100
AcDbTrace
 10
9937.811001847206
 20
12876.81076239003
 30
0.0
 11
9937.811001847206
 21
12876.14409572336
 31
0.0
 12
9935.811001847206
 22
12876.4774290567
 32
0.0
 13
9935.811001847206
 23
12876.4774290567
 33
0.0
  0
SOLID
  5
15CC
330
14A6
100
AcDbEntity
  8
0
 62
     0
100
AcDbTrace
 10
9944.811091847208
 20
12876.81076239003
 30
0.0
 11
9944.811091847208
 21
12876.14409572336
 31
0.0
 12
9946.811091847209
 22
12876.4774290567
 32
0.0
 13
9946.811091847209
 23
12876.4774290567
 33
0.0
  0
MTEXT
  5
15CD
330
14A6
100
AcDbEntity
  8
0
 62
     0
100
AcDbMText
 10
9941.311046847209
 20
12879.9774290567
 30
0.0
 40
5.0
 41
0.0
 71
     5
 72
     1
  1
\A1;11
 73
     1
 44
1.0
1001
ACAD
1000
MTEXTBEGIN
1070
    73
1070
     1
1070
    44
1040
1.0
1070
    74
1070
     0
1000
MTEXTEND
  0
POINT
  5
15CE
330
14A6
100
AcDbEntity
  8
DEFPOINTS
 62
     0
100
AcDbPoint
 10
9935.811001847206
 20
12866.47117865669
 30
0.0
  0
POINT
  5
15CF
330
14A6
100
AcDbEntity
  8
DEFPOINTS
 62
     0
100
AcDbPoint
 10
9946.811091847209
 20
12865.17117865775
 30
0.0
  0
POINT
  5
15D0
330
14A6
100
AcDbEntity
  8
DEFPOINTS
 62
     0
100
AcDbPoint
 10
9946.811091847209
 20
12876.4774290567
 30
0.0
  0
ENDBLK
  5
14A8
330
14A6
100
AcDbEntity
  8
0
100
AcDbBlockEnd
  0
BLOCK
  5
14B3
330
14B2
100
AcDbEntity
  8
0
100
AcDbBlockBegin
  2
*D27
 70
     1
 10
0.0
 20
0.0
 30
0.0
  3
*D27
  1

  0
LINE
  5
15D1
330
14B2
100
AcDbEntity
  8
0
 62
     0
370
    -2
100
AcDbLine
 10
9950.511091847207
 20
12866.47117865669
 30
0.0
 11
9962.387881156706
 21
12866.47117865669
 31
0.0
  0
LINE
  5
15D2
330
14B2
100
AcDbEntity
  8
0
 62
     0
370
    -2
100
AcDbLine
 10
9952.31111184907
 20
12856.47123365669
 30
0.0
 11
9962.387881156706
 21
12856.47123365669
 31
0.0
  0
LINE
  5
15D3
330
14B2
100
AcDbEntity
  8
0
 62
     0
370
    -2
100
AcDbLine
 10
9961.137881156705
 20
12864.47117865669
 30
0.0
 11
9961.137881156705
 21
12858.47123365669
 31
0.0
  0
SOLID
  5
15D4
330
14B2
100
AcDbEntity
  8
0
 62
     0
100
AcDbTrace
 10
9960.804547823371
 20
12864.47117865669
 30
0.0
 11
9961.471214490039
 21
12864.47117865669
 31
0.0
 12
9961.137881156705
 22
12866.47117865669
 32
0.0
 13
9961.137881156705
 23
12866.47117865669
 33
0.0
  0
SOLID
  5
15D5
330
14B2
100
AcDbEntity
  8
0
 62
     0
100
AcDbTrace
 10
9960.804547823371
 20
12858.47123365669
 30
0.0
 11
9961.471214490039
 21
12858.47123365669
 31
0.0
 12
9961.137881156705
 22
12856.47123365669
 32
0.0
 13
9961.137881156705
 23
12856.47123365669
 33
0.0
  0
MTEXT
  5
15D6
330
14B2
100
AcDbEntity
  8
0
 62
     0
100
AcDbMText
 10
9957.637881156701
 20
12861.47120615669
 30
0.0
 40
5.0
 41
0.0
 71
     5
 72
     1
  1
\A1;10
 11
0.0000000000000001
 21
1.0
 31
0.0
 73
     1
 44
1.0
1001
ACAD
1000
MTEXTBEGIN
1070
    73
1070
     1
1070
    44
1040
1.0
1070
    74
1070
     0
1000
MTEXTEND
  0
POINT
  5
15D7
330
14B2
100
AcDbEntity
  8
DEFPOINTS
 62
     0
100
AcDbPoint
 10
9945.511091847208
 20
12866.47117865669
 30
0.0
  0
POINT
  5
15D8
330
14B2
100
AcDbEntity
  8
DEFPOINTS
 62
     0
100
AcDbPoint
 10
9947.311111849071
 20
12856.47123365669
 30
0.0
  0
POINT
  5
15D9
330
14B2
100
AcDbEntity
  8
DEFPOINTS
 62
     0
100
AcDbPoint
 10
9961.137881156705
 20
12856.47123365669
 30
0.0
  0
ENDBLK
  5
14B4
330
14B2
100
AcDbEntity
  8
0
100
AcDbBlockEnd
  0
BLOCK
  5
14BF
330
14BE
100
AcDbEntity
  8
0
100
AcDbBlockBegin
  2
*D28
 70
     1
 10
0.0
 20
0.0
 30
0.0
  3
*D28
  1

  0
LINE
  5
15E3
330
14BE
100
AcDbEntity
  8
0
 62
     0
370
    -2
100
AcDbLine
 10
9951.659086915189
 20
13062.84697624017
 30
0.0
 11
9951.659086915189
 21
13075.7944046985
 31
0.0
  0
LINE
  5
15E4
330
14BE
100
AcDbEntity
  8
0
 62
     0
370
    -2
100
AcDbLine
 10
9930.658996915189
 20
13064.14697623911
 30
0.0
 11
9930.658996915189
 21
13075.7944046985
 31
0.0
  0
LINE
  5
15E5
330
14BE
100
AcDbEntity
  8
0
 62
     0
370
    -2
100
AcDbLine
 10
9949.659086915188
 20
13074.5444046985
 30
0.0
 11
9932.658996915188
 21
13074.5444046985
 31
0.0
  0
SOLID
  5
15E6
330
14BE
100
AcDbEntity
  8
0
 62
     0
100
AcDbTrace
 10
9949.659086915188
 20
13074.87773803183
 30
0.0
 11
9949.659086915188
 21
13074.21107136516
 31
0.0
 12
9951.659086915189
 22
13074.5444046985
 32
0.0
 13
9951.659086915189
 23
13074.5444046985
 33
0.0
  0
SOLID
  5
15E7
330
14BE
100
AcDbEntity
  8
0
 62
     0
100
AcDbTrace
 10
9932.658996915188
 20
13074.87773803183
 30
0.0
 11
9932.658996915188
 21
13074.21107136516
 31
0.0
 12
9930.658996915189
 22
13074.5444046985
 32
0.0
 13
9930.658996915189
 23
13074.5444046985
 33
0.0
  0
MTEXT
  5
15E8
330
14BE
100
AcDbEntity
  8
0
 62
     0
100
AcDbMText
 10
9941.159041915188
 20
13078.0444046985
 30
0.0
 40
5.0
 41
0.0
 71
     5
 72
     1
  1
\A1;21
 73
     1
 44
1.0
1001
ACAD
1000
MTEXTBEGIN
1070
    73
1070
     1
1070
    44
1040
1.0
1070
    74
1070
     0
1000
MTEXTEND
  0
POINT
  5
15E9
330
14BE
100
AcDbEntity
  8
DEFPOINTS
 62
     0
100
AcDbPoint
 10
9951.659086915189
 20
13057.84697624017
 30
0.0
  0
POINT
  5
15EA
330
14BE
100
AcDbEntity
  8
DEFPOINTS
 62
     0
100
AcDbPoint
 10
9930.658996915189
 20
13059.14697623911
 30
0.0
  0
POINT
  5
15EB
330
14BE
100
AcDbEntity
  8
DEFPOINTS
 62
     0
100
AcDbPoint
 10
9930.658996915189
 20
13074.5444046985
 30
0.0
  0
ENDBLK
  5
14C0
330
14BE
100
AcDbEntity
  8
0
100
AcDbBlockEnd
  0
BLOCK
  5
14CB
330
14CA
100
AcDbEntity
  8
0
100
AcDbBlockBegin
  2
*D29
 70
     1
 10
0.0
 20
0.0
 30
0.0
  3
*D29
  1

  0
LINE
  5
1701
330
14CA
100
AcDbEntity
  8
0
 62
     0
370
    -2
100
AcDbLine
 10
10185.7071118472
 20
13147.91899152813
 30
0.0
 11
10185.7071118472
 21
13131.18446599689
 31
0.0
  0
LINE
  5
1702
330
14CA
100
AcDbEntity
  8
0
 62
     0
370
    -2
100
AcDbLine
 10
10065.85911184721
 20
13147.91899152813
 30
0.0
 11
10065.85911184721
 21
13131.18446599689
 31
0.0
  0
LINE
  5
1703
330
14CA
100
AcDbEntity
  8
0
 62
     0
370
    -2
100
AcDbLine
 10
10183.7071118472
 20
13132.43446599689
 30
0.0
 11
10067.85911184721
 21
13132.43446599689
 31
0.0
  0
SOLID
  5
1704
330
14CA
100
AcDbEntity
  8
0
 62
     0
100
AcDbTrace
 10
10183.7071118472
 20
13132.76779933022
 30
0.0
 11
10183.7071118472
 21
13132.10113266355
 31
0.0
 12
10185.7071118472
 22
13132.43446599689
 32
0.0
 13
10185.7071118472
 23
13132.43446599689
 33
0.0
  0
SOLID
  5
1705
330
14CA
100
AcDbEntity
  8
0
 62
     0
100
AcDbTrace
 10
10067.85911184721
 20
13132.76779933022
 30
0.0
 11
10067.85911184721
 21
13132.10113266355
 31
0.0
 12
10065.85911184721
 22
13132.43446599689
 32
0.0
 13
10065.85911184721
 23
13132.43446599689
 33
0.0
  0
MTEXT
  5
1706
330
14CA
100
AcDbEntity
  8
0
 62
     0
100
AcDbMText
 10
10125.7831118472
 20
13135.93446599689
 30
0.0
 40
5.0
 41
0.0
 71
     5
 72
     1
  1
\A1;120
 73
     1
 44
1.0
1001
ACAD
1000
MTEXTBEGIN
1070
    73
1070
     1
1070
    44
1040
1.0
1070
    74
1070
     0
1000
MTEXTEND
  0
POINT
  5
1707
330
14CA
100
AcDbEntity
  8
DEFPOINTS
 62
     0
100
AcDbPoint
 10
10185.7071118472
 20
13152.91899152813
 30
0.0
  0
POINT
  5
1708
330
14CA
100
AcDbEntity
  8
DEFPOINTS
 62
     0
100
AcDbPoint
 10
10065.85911184721
 20
13152.91899152813
 30
0.0
  0
POINT
  5
1709
330
14CA
100
AcDbEntity
  8
DEFPOINTS
 62
     0
100
AcDbPoint
 10
10065.85911184721
 20
13132.43446599689
 30
0.0
  0
ENDBLK
  5
14CC
330
14CA
100
AcDbEntity
  8
0
100
AcDbBlockEnd
  0
BLOCK
  5
14D7
330
14D6
100
AcDbEntity
  8
0
100
AcDbBlockBegin
  2
*D30
 70
     1
 10
0.0
 20
0.0
 30
0.0
  3
*D30
  1

  0
LINE
  5
170A
330
14D6
100
AcDbEntity
  8
0
 62
     0
370
    -2
100
AcDbLine
 10
9946.011111847205
 20
13147.91899152813
 30
0.0
 11
9946.011111847205
 21
13131.18446599689
 31
0.0
  0
LINE
  5
170B
330
14D6
100
AcDbEntity
  8
0
 62
     0
370
    -2
100
AcDbLine
 10
9826.163111847201
 20
13147.91899152813
 30
0.0
 11
9826.163111847201
 21
13131.18446599689
 31
0.0
  0
LINE
  5
170C
330
14D6
100
AcDbEntity
  8
0
 62
     0
370
    -2
100
AcDbLine
 10
9944.011111847204
 20
13132.43446599689
 30
0.0
 11
9828.163111847199
 21
13132.43446599689
 31
0.0
  0
SOLID
  5
170D
330
14D6
100
AcDbEntity
  8
0
 62
     0
100
AcDbTrace
 10
9944.011111847204
 20
13132.76779933022
 30
0.0
 11
9944.011111847204
 21
13132.10113266355
 31
0.0
 12
9946.011111847205
 22
13132.43446599689
 32
0.0
 13
9946.011111847205
 23
13132.43446599689
 33
0.0
  0
SOLID
  5
170E
330
14D6
100
AcDbEntity
  8
0
 62
     0
100
AcDbTrace
 10
9828.163111847199
 20
13132.76779933022
 30
0.0
 11
9828.163111847199
 21
13132.10113266355
 31
0.0
 12
9826.163111847201
 22
13132.43446599689
 32
0.0
 13
9826.163111847201
 23
13132.43446599689
 33
0.0
  0
MTEXT
  5
170F
330
14D6
100
AcDbEntity
  8
0
 62
     0
100
AcDbMText
 10
9886.087111847203
 20
13135.93446599689
 30
0.0
 40
5.0
 41
0.0
 71
     5
 72
     1
  1
\A1;120
 73
     1
 44
1.0
1001
ACAD
1000
MTEXTBEGIN
1070
    73
1070
     1
1070
    44
1040
1.0
1070
    74
1070
     0
1000
MTEXTEND
  0
POINT
  5
1710
330
14D6
100
AcDbEntity
  8
DEFPOINTS
 62
     0
100
AcDbPoint
 10
9946.011111847205
 20
13152.91899152813
 30
0.0
  0
POINT
  5
1711
330
14D6
100
AcDbEntity
  8
DEFPOINTS
 62
     0
100
AcDbPoint
 10
9826.163111847201
 20
13152.91899152813
 30
0.0
  0
POINT
  5
1712
330
14D6
100
AcDbEntity
  8
DEFPOINTS
 62
     0
100
AcDbPoint
 10
9826.163111847201
 20
13132.43446599689
 30
0.0
  0
ENDBLK
  5
14D8
330
14D6
100
AcDbEntity
  8
0
100
AcDbBlockEnd
  0
BLOCK
  5
14E3
330
14E2
100
AcDbEntity
  8
0
100
AcDbBlockBegin
  2
*D31
 70
     1
 10
0.0
 20
0.0
 30
0.0
  3
*D31
  1

  0
LINE
  5
1713
330
14E2
100
AcDbEntity
  8
0
 62
     0
370
    -2
100
AcDbLine
 10
10065.8591118472
 20
13147.91899152813
 30
0.0
 11
10065.8591118472
 21
13131.18446599689
 31
0.0
  0
LINE
  5
1714
330
14E2
100
AcDbEntity
  8
0
 62
     0
370
    -2
100
AcDbLine
 10
9946.011111847205
 20
13147.91899152813
 30
0.0
 11
9946.011111847205
 21
13131.18446599689
 31
0.0
  0
LINE
  5
1715
330
14E2
100
AcDbEntity
  8
0
 62
     0
370
    -2
100
AcDbLine
 10
10063.8591118472
 20
13132.43446599689
 30
0.0
 11
9948.011111847206
 21
13132.43446599689
 31
0.0
  0
SOLID
  5
1716
330
14E2
100
AcDbEntity
  8
0
 62
     0
100
AcDbTrace
 10
10063.8591118472
 20
13132.76779933022
 30
0.0
 11
10063.8591118472
 21
13132.10113266355
 31
0.0
 12
10065.8591118472
 22
13132.43446599689
 32
0.0
 13
10065.8591118472
 23
13132.43446599689
 33
0.0
  0
SOLID
  5
1717
330
14E2
100
AcDbEntity
  8
0
 62
     0
100
AcDbTrace
 10
9948.011111847206
 20
13132.76779933022
 30
0.0
 11
9948.011111847206
 21
13132.10113266355
 31
0.0
 12
9946.011111847205
 22
13132.43446599689
 32
0.0
 13
9946.011111847205
 23
13132.43446599689
 33
0.0
  0
MTEXT
  5
1718
330
14E2
100
AcDbEntity
  8
0
 62
     0
100
AcDbMText
 10
10005.9351118472
 20
13135.93446599689
 30
0.0
 40
5.0
 41
0.0
 71
     5
 72
     1
  1
\A1;120
 73
     1
 44
1.0
1001
ACAD
1000
MTEXTBEGIN
1070
    73
1070
     1
1070
    44
1040
1.0
1070
    74
1070
     0
1000
MTEXTEND
  0
POINT
  5
1719
330
14E2
100
AcDbEntity
  8
DEFPOINTS
 62
     0
100
AcDbPoint
 10
10065.8591118472
 20
13152.91899152813
 30
0.0
  0
POINT
  5
171A
330
14E2
100
AcDbEntity
  8
DEFPOINTS
 62
     0
100
AcDbPoint
 10
9946.011111847205
 20
13152.91899152813
 30
0.0
  0
POINT
  5
171B
330
14E2
100
AcDbEntity
  8
DEFPOINTS
 62
     0
100
AcDbPoint
 10
9946.011111847205
 20
13132.43446599689
 30
0.0
  0
ENDBLK
  5
14E4
330
14E2
100
AcDbEntity
  8
0
100
AcDbBlockEnd
  0
BLOCK
  5
14EF
330
14EE
100
AcDbEntity
  8
0
100
AcDbBlockBegin
  2
*D32
 70
     1
 10
0.0
 20
0.0
 30
0.0
  3
*D32
  1

  0
LINE
  5
18F0
330
14EE
100
AcDbEntity
  8
0
 62
     0
370
    -2
100
AcDbLine
 10
10060.85896691518
 20
13045.44703124018
 30
0.0
 11
10060.85896691518
 21
12997.84711899116
 31
0.0
  0
LINE
  5
18F1
330
14EE
100
AcDbEntity
  8
0
 62
     0
370
    -2
100
AcDbLine
 10
9941.010966915193
 20
13040.44703123911
 30
0.0
 11
9941.010966915193
 21
12997.84711899116
 31
0.0
  0
LINE
  5
18F2
330
14EE
100
AcDbEntity
  8
0
 62
     0
370
    -2
100
AcDbLine
 10
10058.85896691518
 20
12999.09711899116
 30
0.0
 11
9943.010966915192
 21
12999.09711899116
 31
0.0
  0
SOLID
  5
18F3
330
14EE
100
AcDbEntity
  8
0
 62
     0
100
AcDbTrace
 10
10058.85896691518
 20
12999.43045232449
 30
0.0
 11
10058.85896691518
 21
12998.76378565782
 31
0.0
 12
10060.85896691518
 22
12999.09711899116
 32
0.0
 13
10060.85896691518
 23
12999.09711899116
 33
0.0
  0
SOLID
  5
18F4
330
14EE
100
AcDbEntity
  8
0
 62
     0
100
AcDbTrace
 10
9943.010966915192
 20
12999.43045232449
 30
0.0
 11
9943.010966915192
 21
12998.76378565782
 31
0.0
 12
9941.010966915193
 22
12999.09711899116
 32
0.0
 13
9941.010966915193
 23
12999.09711899116
 33
0.0
  0
MTEXT
  5
18F5
330
14EE
100
AcDbEntity
  8
0
 62
     0
100
AcDbMText
 10
10000.93496691518
 20
13002.59711899116
 30
0.0
 40
5.0
 41
0.0
 71
     5
 72
     1
  1
\A1;119.848
 73
     1
 44
1.0
1001
ACAD
1000
MTEXTBEGIN
1070
    73
1070
     1
1070
    44
1040
1.0
1070
    74
1070
     0
1000
MTEXTEND
  0
POINT
  5
18F6
330
14EE
100
AcDbEntity
  8
DEFPOINTS
 62
     0
100
AcDbPoint
 10
10060.85896691518
 20
13050.44703124018
 30
0.0
  0
POINT
  5
18F7
330
14EE
100
AcDbEntity
  8
DEFPOINTS
 62
     0
100
AcDbPoint
 10
9941.010966915193
 20
13045.44703123911
 30
0.0
  0
POINT
  5
18F8
330
14EE
100
AcDbEntity
  8
DEFPOINTS
 62
     0
100
AcDbPoint
 10
9941.010966915193
 20
12999.09711899116
 30
0.0
  0
ENDBLK
  5
14F0
330
14EE
100
AcDbEntity
  8
0
100
AcDbBlockEnd
  0
BLOCK
  5
14FB
330
14FA
100
AcDbEntity
  8
0
100
AcDbBlockBegin
  2
*D33
 70
     1
 10
0.0
 20
0.0
 30
0.0
  3
*D33
  1

  0
LINE
  5
16D4
330
14FA
100
AcDbEntity
  8
0
 62
     0
370
    -2
100
AcDbLine
 10
9941.010966915193
 20
13045.44703123911
 30
0.0
 11
9941.010966915193
 21
13020.74506106348
 31
0.0
  0
LINE
  5
16D5
330
14FA
100
AcDbEntity
  8
0
 62
     0
370
    -2
100
AcDbLine
 10
9831.011106915186
 20
13045.44703123751
 30
0.0
 11
9831.011106915186
 21
13020.74506106348
 31
0.0
  0
LINE
  5
16D6
330
14FA
100
AcDbEntity
  8
0
 62
     0
370
    -2
100
AcDbLine
 10
9939.010966915191
 20
13021.99506106348
 30
0.0
 11
9833.011106915186
 21
13021.99506106348
 31
0.0
  0
SOLID
  5
16D7
330
14FA
100
AcDbEntity
  8
0
 62
     0
100
AcDbTrace
 10
9939.010966915191
 20
13022.32839439681
 30
0.0
 11
9939.010966915191
 21
13021.66172773014
 31
0.0
 12
9941.010966915193
 22
13021.99506106348
 32
0.0
 13
9941.010966915193
 23
13021.99506106348
 33
0.0
  0
SOLID
  5
16D8
330
14FA
100
AcDbEntity
  8
0
 62
     0
100
AcDbTrace
 10
9833.011106915186
 20
13022.32839439681
 30
0.0
 11
9833.011106915186
 21
13021.66172773014
 31
0.0
 12
9831.011106915186
 22
13021.99506106348
 32
0.0
 13
9831.011106915186
 23
13021.99506106348
 33
0.0
  0
MTEXT
  5
16D9
330
14FA
100
AcDbEntity
  8
0
 62
     0
100
AcDbMText
 10
9886.011036915189
 20
13025.49506106348
 30
0.0
 40
5.0
 41
0.0
 71
     5
 72
     1
  1
\A1;110
 73
     1
 44
1.0
1001
ACAD
1000
MTEXTBEGIN
1070
    73
1070
     1
1070
    44
1040
1.0
1070
    74
1070
     0
1000
MTEXTEND
  0
POINT
  5
16DA
330
14FA
100
AcDbEntity
  8
DEFPOINTS
 62
     0
100
AcDbPoint
 10
9941.010966915193
 20
13050.44703123911
 30
0.0
  0
POINT
  5
16DB
330
14FA
100
AcDbEntity
  8
DEFPOINTS
 62
     0
100
AcDbPoint
 10
9831.011106915186
 20
13050.44703123751
 30
0.0
  0
POINT
  5
16DC
330
14FA
100
AcDbEntity
  8
DEFPOINTS
 62
     0
100
AcDbPoint
 10
9831.011106915186
 20
13021.99506106348
 30
0.0
  0
ENDBLK
  5
14FC
330
14FA
100
AcDbEntity
  8
0
100
AcDbBlockEnd
  0
BLOCK
  5
1507
330
1506
100
AcDbEntity
  8
0
100
AcDbBlockBegin
  2
*D34
 70
     1
 10
0.0
 20
0.0
 30
0.0
  3
*D34
  1

  0
LINE
  5
17FB
330
1506
100
AcDbEntity
  8
0
 62
     0
370
    -2
100
AcDbLine
 10
9950.859106915187
 20
13045.44703123751
 30
0.0
 11
9950.859106915187
 21
13020.74506106348
 31
0.0
  0
LINE
  5
17FC
330
1506
100
AcDbEntity
  8
0
 62
     0
370
    -2
100
AcDbLine
 10
9941.010966915193
 20
13045.44703123751
 30
0.0
 11
9941.010966915193
 21
13020.74506106348
 31
0.0
  0
LINE
  5
17FD
330
1506
100
AcDbEntity
  8
0
 62
     0
370
    -2
100
AcDbLine
 10
9948.859106915186
 20
13021.99506106348
 30
0.0
 11
9943.010966915192
 21
13021.99506106348
 31
0.0
  0
MTEXT
  5
17FE
330
1506
100
AcDbEntity
  8
0
 62
     0
100
AcDbMText
 10
9952.236137039102
 20
13011.74506106348
 30
0.0
 40
5.0
 41
0.0
 71
     5
 72
     1
  1
\A1;9.848
 73
     1
 44
1.0
1001
ACAD
1000
MTEXTBEGIN
1070
    73
1070
     1
1070
    44
1040
1.0
1070
    74
1070
     0
1000
MTEXTEND
  0
SOLID
  5
17FF
330
1506
100
AcDbEntity
  8
0
 62
     0
100
AcDbTrace
 10
9948.859106915186
 20
13022.32839439681
 30
0.0
 11
9948.859106915186
 21
13021.66172773014
 31
0.0
 12
9950.859106915187
 22
13021.99506106348
 32
0.0
 13
9950.859106915187
 23
13021.99506106348
 33
0.0
  0
SOLID
  5
1800
330
1506
100
AcDbEntity
  8
0
 62
     0
100
AcDbTrace
 10
9943.010966915192
 20
13022.32839439681
 30
0.0
 11
9943.010966915192
 21
13021.66172773014
 31
0.0
 12
9941.010966915193
 22
13021.99506106348
 32
0.0
 13
9941.010966915193
 23
13021.99506106348
 33
0.0
  0
POINT
  5
1801
330
1506
100
AcDbEntity
  8
DEFPOINTS
 62
     0
100
AcDbPoint
 10
9950.859106915187
 20
13050.44703123751
 30
0.0
  0
POINT
  5
1802
330
1506
100
AcDbEntity
  8
DEFPOINTS
 62
     0
100
AcDbPoint
 10
9941.010966915193
 20
13050.44703123751
 30
0.0
  0
POINT
  5
1803
330
1506
100
AcDbEntity
  8
DEFPOINTS
 62
     0
100
AcDbPoint
 10
9941.010966915193
 20
13021.99506106348
 30
0.0
  0
ENDBLK
  5
1508
330
1506
100
AcDbEntity
  8
0
100
AcDbBlockEnd
  0
BLOCK
  5
1513
330
1512
100
AcDbEntity
  8
0
100
AcDbBlockBegin
  2
*D35
 70
     1
 10
0.0
 20
0.0
 30
0.0
  3
*D35
  1

  0
LINE
  5
16E6
330
1512
100
AcDbEntity
  8
0
 62
     0
370
    -2
100
AcDbLine
 10
10060.85896691519
 20
13045.44703123911
 30
0.0
 11
10060.85896691519
 21
13020.74506106348
 31
0.0
  0
LINE
  5
16E7
330
1512
100
AcDbEntity
  8
0
 62
     0
370
    -2
100
AcDbLine
 10
9950.859106915187
 20
13045.44703123751
 30
0.0
 11
9950.859106915187
 21
13020.74506106348
 31
0.0
  0
LINE
  5
16E8
330
1512
100
AcDbEntity
  8
0
 62
     0
370
    -2
100
AcDbLine
 10
10058.85896691519
 20
13021.99506106348
 30
0.0
 11
9952.859106915186
 21
13021.99506106348
 31
0.0
  0
SOLID
  5
16E9
330
1512
100
AcDbEntity
  8
0
 62
     0
100
AcDbTrace
 10
10058.85896691519
 20
13022.32839439681
 30
0.0
 11
10058.85896691519
 21
13021.66172773014
 31
0.0
 12
10060.85896691519
 22
13021.99506106348
 32
0.0
 13
10060.85896691519
 23
13021.99506106348
 33
0.0
  0
SOLID
  5
16EA
330
1512
100
AcDbEntity
  8
0
 62
     0
100
AcDbTrace
 10
9952.859106915186
 20
13022.32839439681
 30
0.0
 11
9952.859106915186
 21
13021.66172773014
 31
0.0
 12
9950.859106915187
 22
13021.99506106348
 32
0.0
 13
9950.859106915187
 23
13021.99506106348
 33
0.0
  0
MTEXT
  5
16EB
330
1512
100
AcDbEntity
  8
0
 62
     0
100
AcDbMText
 10
10005.85903691519
 20
13025.49506106348
 30
0.0
 40
5.0
 41
0.0
 71
     5
 72
     1
  1
\A1;110
 73
     1
 44
1.0
1001
ACAD
1000
MTEXTBEGIN
1070
    73
1070
     1
1070
    44
1040
1.0
1070
    74
1070
     0
1000
MTEXTEND
  0
POINT
  5
16EC
330
1512
100
AcDbEntity
  8
DEFPOINTS
 62
     0
100
AcDbPoint
 10
10060.85896691519
 20
13050.44703123911
 30
0.0
  0
POINT
  5
16ED
330
1512
100
AcDbEntity
  8
DEFPOINTS
 62
     0
100
AcDbPoint
 10
9950.859106915187
 20
13050.44703123751
 30
0.0
  0
POINT
  5
16EE
330
1512
100
AcDbEntity
  8
DEFPOINTS
 62
     0
100
AcDbPoint
 10
9950.859106915187
 20
13021.99506106348
 30
0.0
  0
ENDBLK
  5
1514
330
1512
100
AcDbEntity
  8
0
100
AcDbBlockEnd
  0
BLOCK
  5
151F
330
151E
100
AcDbEntity
  8
0
100
AcDbBlockBegin
  2
*D36
 70
     1
 10
0.0
 20
0.0
 30
0.0
  3
*D36
  1

  0
LINE
  5
1804
330
151E
100
AcDbEntity
  8
0
 62
     0
370
    -2
100
AcDbLine
 10
10070.70710691519
 20
13045.44703123911
 30
0.0
 11
10070.70710691519
 21
13020.74506106348
 31
0.0
  0
LINE
  5
1805
330
151E
100
AcDbEntity
  8
0
 62
     0
370
    -2
100
AcDbLine
 10
10060.85896691519
 20
13045.4470312391
 30
0.0
 11
10060.85896691519
 21
13020.74506106348
 31
0.0
  0
LINE
  5
1806
330
151E
100
AcDbEntity
  8
0
 62
     0
370
    -2
100
AcDbLine
 10
10068.70710691519
 20
13021.99506106348
 30
0.0
 11
10062.85896691519
 21
13021.99506106348
 31
0.0
  0
MTEXT
  5
1807
330
151E
100
AcDbEntity
  8
0
 62
     0
100
AcDbMText
 10
10071.50818504705
 20
13011.74506106348
 30
0.0
 40
5.0
 41
0.0
 71
     5
 72
     1
  1
\A1;9.848
 73
     1
 44
1.0
1001
ACAD
1000
MTEXTBEGIN
1070
    73
1070
     1
1070
    44
1040
1.0
1070
    74
1070
     0
1000
MTEXTEND
  0
SOLID
  5
1808
330
151E
100
AcDbEntity
  8
0
 62
     0
100
AcDbTrace
 10
10068.70710691519
 20
13022.32839439681
 30
0.0
 11
10068.70710691519
 21
13021.66172773014
 31
0.0
 12
10070.70710691519
 22
13021.99506106348
 32
0.0
 13
10070.70710691519
 23
13021.99506106348
 33
0.0
  0
SOLID
  5
1809
330
151E
100
AcDbEntity
  8
0
 62
     0
100
AcDbTrace
 10
10062.85896691519
 20
13022.32839439681
 30
0.0
 11
10062.85896691519
 21
13021.66172773014
 31
0.0
 12
10060.85896691519
 22
13021.99506106348
 32
0.0
 13
10060.85896691519
 23
13021.99506106348
 33
0.0
  0
POINT
  5
180A
330
151E
100
AcDbEntity
  8
DEFPOINTS
 62
     0
100
AcDbPoint
 10
10070.70710691519
 20
13050.44703123911
 30
0.0
  0
POINT
  5
180B
330
151E
100
AcDbEntity
  8
DEFPOINTS
 62
     0
100
AcDbPoint
 10
10060.85896691519
 20
13050.4470312391
 30
0.0
  0
POINT
  5
180C
330
151E
100
AcDbEntity
  8
DEFPOINTS
 62
     0
100
AcDbPoint
 10
10060.85896691519
 20
13021.99506106348
 30
0.0
  0
ENDBLK
  5
1520
330
151E
100
AcDbEntity
  8
0
100
AcDbBlockEnd
  0
BLOCK
  5
152B
330
152A
100
AcDbEntity
  8
0
100
AcDbBlockBegin
  2
*D37
 70
     1
 10
0.0
 20
0.0
 30
0.0
  3
*D37
  1

  0
LINE
  5
16F8
330
152A
100
AcDbEntity
  8
0
 62
     0
370
    -2
100
AcDbLine
 10
10180.70696691518
 20
13045.44703124018
 30
0.0
 11
10180.70696691518
 21
13020.74506106348
 31
0.0
  0
LINE
  5
16F9
330
152A
100
AcDbEntity
  8
0
 62
     0
370
    -2
100
AcDbLine
 10
10070.70710691518
 20
13045.44703123751
 30
0.0
 11
10070.70710691518
 21
13020.74506106348
 31
0.0
  0
LINE
  5
16FA
330
152A
100
AcDbEntity
  8
0
 62
     0
370
    -2
100
AcDbLine
 10
10178.70696691518
 20
13021.99506106348
 30
0.0
 11
10072.70710691518
 21
13021.99506106348
 31
0.0
  0
SOLID
  5
16FB
330
152A
100
AcDbEntity
  8
0
 62
     0
100
AcDbTrace
 10
10178.70696691518
 20
13022.32839439681
 30
0.0
 11
10178.70696691518
 21
13021.66172773014
 31
0.0
 12
10180.70696691518
 22
13021.99506106348
 32
0.0
 13
10180.70696691518
 23
13021.99506106348
 33
0.0
  0
SOLID
  5
16FC
330
152A
100
AcDbEntity
  8
0
 62
     0
100
AcDbTrace
 10
10072.70710691518
 20
13022.32839439681
 30
0.0
 11
10072.70710691518
 21
13021.66172773014
 31
0.0
 12
10070.70710691518
 22
13021.99506106348
 32
0.0
 13
10070.70710691518
 23
13021.99506106348
 33
0.0
  0
MTEXT
  5
16FD
330
152A
100
AcDbEntity
  8
0
 62
     0
100
AcDbMText
 10
10125.70703691518
 20
13025.49506106348
 30
0.0
 40
5.0
 41
0.0
 71
     5
 72
     1
  1
\A1;110
 73
     1
 44
1.0
1001
ACAD
1000
MTEXTBEGIN
1070
    73
1070
     1
1070
    44
1040
1.0
1070
    74
1070
     0
1000
MTEXTEND
  0
POINT
  5
16FE
330
152A
100
AcDbEntity
  8
DEFPOINTS
 62
     0
100
AcDbPoint
 10
10180.70696691518
 20
13050.44703124018
 30
0.0
  0
POINT
  5
16FF
330
152A
100
AcDbEntity
  8
DEFPOINTS
 62
     0
100
AcDbPoint
 10
10070.70710691518
 20
13050.44703123751
 30
0.0
  0
POINT
  5
1700
330
152A
100
AcDbEntity
  8
DEFPOINTS
 62
     0
100
AcDbPoint
 10
10070.70710691518
 20
13021.99506106348
 30
0.0
  0
ENDBLK
  5
152C
330
152A
100
AcDbEntity
  8
0
100
AcDbBlockEnd
  0
BLOCK
  5
1537
330
1536
100
AcDbEntity
  8
0
100
AcDbBlockBegin
  2
*D38
 70
     1
 10
0.0
 20
0.0
 30
0.0
  3
*D38
  1

  0
LINE
  5
15AD
330
1536
100
AcDbEntity
  8
0
 62
     0
370
    -2
100
AcDbLine
 10
10069.55911184588
 20
13160.61888652706
 30
0.0
 11
10080.28170837669
 21
13160.61888652706
 31
0.0
  0
LINE
  5
15AE
330
1536
100
AcDbEntity
  8
0
 62
     0
370
    -2
100
AcDbLine
 10
10069.559111848
 20
13151.61899152706
 30
0.0
 11
10080.28170837669
 21
13151.61899152706
 31
0.0
  0
LINE
  5
15AF
330
1536
100
AcDbEntity
  8
0
 62
     0
370
    -2
100
AcDbLine
 10
10079.03170837669
 20
13158.61888652706
 30
0.0
 11
10079.03170837669
 21
13153.61899152706
 31
0.0
  0
SOLID
  5
15B0
330
1536
100
AcDbEntity
  8
0
 62
     0
100
AcDbTrace
 10
10078.69837504335
 20
13158.61888652706
 30
0.0
 11
10079.36504171002
 21
13158.61888652706
 31
0.0
 12
10079.03170837669
 22
13160.61888652706
 32
0.0
 13
10079.03170837669
 23
13160.61888652706
 33
0.0
  0
SOLID
  5
15B1
330
1536
100
AcDbEntity
  8
0
 62
     0
100
AcDbTrace
 10
10078.69837504335
 20
13153.61899152706
 30
0.0
 11
10079.36504171002
 21
13153.61899152706
 31
0.0
 12
10079.03170837669
 22
13151.61899152706
 32
0.0
 13
10079.03170837669
 23
13151.61899152706
 33
0.0
  0
MTEXT
  5
15B2
330
1536
100
AcDbEntity
  8
0
 62
     0
100
AcDbMText
 10
10075.53170837668
 20
13156.11893902706
 30
0.0
 40
5.0
 41
0.0
 71
     5
 72
     1
  1
\A1;9
 11
0.0000000000000001
 21
1.0
 31
0.0
 73
     1
 44
1.0
1001
ACAD
1000
MTEXTBEGIN
1070
    73
1070
     1
1070
    44
1040
1.0
1070
    74
1070
     0
1000
MTEXTEND
  0
POINT
  5
15B3
330
1536
100
AcDbEntity
  8
DEFPOINTS
 62
     0
100
AcDbPoint
 10
10064.55911184588
 20
13160.61888652706
 30
0.0
  0
POINT
  5
15B4
330
1536
100
AcDbEntity
  8
DEFPOINTS
 62
     0
100
AcDbPoint
 10
10064.559111848
 20
13151.61899152706
 30
0.0
  0
POINT
  5
15B5
330
1536
100
AcDbEntity
  8
DEFPOINTS
 62
     0
100
AcDbPoint
 10
10079.03170837669
 20
13151.61899152706
 30
0.0
  0
ENDBLK
  5
1538
330
1536
100
AcDbEntity
  8
0
100
AcDbBlockEnd
  0
BLOCK
  5
1543
330
1542
100
AcDbEntity
  8
0
100
AcDbBlockBegin
  2
*D39
 70
     1
 10
0.0
 20
0.0
 30
0.0
  3
*D39
  1

  0
LINE
  5
15B6
330
1542
100
AcDbEntity
  8
0
 62
     0
370
    -2
100
AcDbLine
 10
9935.811001847206
 20
13166.61893652706
 30
0.0
 11
9935.811001847206
 21
13172.87518692708
 31
0.0
  0
LINE
  5
15B7
330
1542
100
AcDbEntity
  8
0
 62
     0
370
    -2
100
AcDbLine
 10
9946.811091847209
 20
13165.31893652813
 30
0.0
 11
9946.811091847209
 21
13172.87518692708
 31
0.0
  0
LINE
  5
15B8
330
1542
100
AcDbEntity
  8
0
 62
     0
370
    -2
100
AcDbLine
 10
9937.811001847206
 20
13171.62518692708
 30
0.0
 11
9944.811091847208
 21
13171.62518692708
 31
0.0
  0
SOLID
  5
15B9
330
1542
100
AcDbEntity
  8
0
 62
     0
100
AcDbTrace
 10
9937.811001847206
 20
13171.95852026041
 30
0.0
 11
9937.811001847206
 21
13171.29185359374
 31
0.0
 12
9935.811001847206
 22
13171.62518692708
 32
0.0
 13
9935.811001847206
 23
13171.62518692708
 33
0.0
  0
SOLID
  5
15BA
330
1542
100
AcDbEntity
  8
0
 62
     0
100
AcDbTrace
 10
9944.811091847208
 20
13171.95852026041
 30
0.0
 11
9944.811091847208
 21
13171.29185359374
 31
0.0
 12
9946.811091847209
 22
13171.62518692708
 32
0.0
 13
9946.811091847209
 23
13171.62518692708
 33
0.0
  0
MTEXT
  5
15BB
330
1542
100
AcDbEntity
  8
0
 62
     0
100
AcDbMText
 10
9941.311046847209
 20
13175.12518692708
 30
0.0
 40
5.0
 41
0.0
 71
     5
 72
     1
  1
\A1;11
 73
     1
 44
1.0
1001
ACAD
1000
MTEXTBEGIN
1070
    73
1070
     1
1070
    44
1040
1.0
1070
    74
1070
     0
1000
MTEXTEND
  0
POINT
  5
15BC
330
1542
100
AcDbEntity
  8
DEFPOINTS
 62
     0
100
AcDbPoint
 10
9935.811001847206
 20
13161.61893652706
 30
0.0
  0
POINT
  5
15BD
330
1542
100
AcDbEntity
  8
DEFPOINTS
 62
     0
100
AcDbPoint
 10
9946.811091847209
 20
13160.31893652813
 30
0.0
  0
POINT
  5
15BE
330
1542
100
AcDbEntity
  8
DEFPOINTS
 62
     0
100
AcDbPoint
 10
9946.811091847209
 20
13171.62518692708
 30
0.0
  0
ENDBLK
  5
1544
330
1542
100
AcDbEntity
  8
0
100
AcDbBlockEnd
  0
BLOCK
  5
154F
330
154E
100
AcDbEntity
  8
0
100
AcDbBlockBegin
  2
*D40
 70
     1
 10
0.0
 20
0.0
 30
0.0
  3
*D40
  1

  0
LINE
  5
15A4
330
154E
100
AcDbEntity
  8
0
 62
     0
370
    -2
100
AcDbLine
 10
9950.511091847207
 20
13161.61893652706
 30
0.0
 11
9962.387881156706
 21
13161.61893652706
 31
0.0
  0
LINE
  5
15A5
330
154E
100
AcDbEntity
  8
0
 62
     0
370
    -2
100
AcDbLine
 10
9952.31111184907
 20
13151.61899152706
 30
0.0
 11
9962.387881156706
 21
13151.61899152706
 31
0.0
  0
LINE
  5
15A6
330
154E
100
AcDbEntity
  8
0
 62
     0
370
    -2
100
AcDbLine
 10
9961.137881156705
 20
13159.61893652706
 30
0.0
 11
9961.137881156705
 21
13153.61899152706
 31
0.0
  0
SOLID
  5
15A7
330
154E
100
AcDbEntity
  8
0
 62
     0
100
AcDbTrace
 10
9960.804547823371
 20
13159.61893652706
 30
0.0
 11
9961.471214490039
 21
13159.61893652706
 31
0.0
 12
9961.137881156705
 22
13161.61893652706
 32
0.0
 13
9961.137881156705
 23
13161.61893652706
 33
0.0
  0
SOLID
  5
15A8
330
154E
100
AcDbEntity
  8
0
 62
     0
100
AcDbTrace
 10
9960.804547823371
 20
13153.61899152706
 30
0.0
 11
9961.471214490039
 21
13153.61899152706
 31
0.0
 12
9961.137881156705
 22
13151.61899152706
 32
0.0
 13
9961.137881156705
 23
13151.61899152706
 33
0.0
  0
MTEXT
  5
15A9
330
154E
100
AcDbEntity
  8
0
 62
     0
100
AcDbMText
 10
9957.637881156701
 20
13156.61896402706
 30
0.0
 40
5.0
 41
0.0
 71
     5
 72
     1
  1
\A1;10
 11
0.0000000000000001
 21
1.0
 31
0.0
 73
     1
 44
1.0
1001
ACAD
1000
MTEXTBEGIN
1070
    73
1070
     1
1070
    44
1040
1.0
1070
    74
1070
     0
1000
MTEXTEND
  0
POINT
  5
15AA
330
154E
100
AcDbEntity
  8
DEFPOINTS
 62
     0
100
AcDbPoint
 10
9945.511091847208
 20
13161.61893652706
 30
0.0
  0
POINT
  5
15AB
330
154E
100
AcDbEntity
  8
DEFPOINTS
 62
     0
100
AcDbPoint
 10
9947.311111849071
 20
13151.61899152706
 30
0.0
  0
POINT
  5
15AC
330
154E
100
AcDbEntity
  8
DEFPOINTS
 62
     0
100
AcDbPoint
 10
9961.137881156705
 20
13151.61899152706
 30
0.0
  0
ENDBLK
  5
1550
330
154E
100
AcDbEntity
  8
0
100
AcDbBlockEnd
  0
BLOCK
  5
1886
330
1885
100
AcDbEntity
  8
0
100
AcDbBlockBegin
  2
*D41
 70
     1
 10
0.0
 20
0.0
 30
0.0
  3
*D41
  1

  0
LINE
  5
18A3
330
1885
100
AcDbEntity
  8
0
 62
     0
370
    -2
100
AcDbLine
 10
10141.57441152627
 20
12731.39713165275
 30
0.0
 11
10141.57441152627
 21
12706.69516147712
 31
0.0
  0
LINE
  5
18A4
330
1885
100
AcDbEntity
  8
0
 62
     0
370
    -2
100
AcDbLine
 10
10131.8012715264
 20
12731.39713165114
 30
0.0
 11
10131.8012715264
 21
12706.69516147712
 31
0.0
  0
LINE
  5
18A5
330
1885
100
AcDbEntity
  8
0
 62
     0
370
    -2
100
AcDbLine
 10
10139.57441152627
 20
12707.94516147712
 30
0.0
 11
10133.8012715264
 21
12707.94516147712
 31
0.0
  0
MTEXT
  5
18A6
330
1885
100
AcDbEntity
  8
0
 62
     0
100
AcDbMText
 10
10143.00178796534
 20
12697.41056033431
 30
0.0
 40
5.0
 41
0.0
 71
     5
 72
     1
  1
\A1;9.773
 73
     1
 44
1.0
1001
ACAD
1000
MTEXTBEGIN
1070
    73
1070
     1
1070
    44
1040
1.0
1070
    74
1070
     0
1000
MTEXTEND
  0
SOLID
  5
18A7
330
1885
100
AcDbEntity
  8
0
 62
     0
100
AcDbTrace
 10
10139.57441152627
 20
12708.27849481045
 30
0.0
 11
10139.57441152627
 21
12707.61182814378
 31
0.0
 12
10141.57441152627
 22
12707.94516147712
 32
0.0
 13
10141.57441152627
 23
12707.94516147712
 33
0.0
  0
SOLID
  5
18A8
330
1885
100
AcDbEntity
  8
0
 62
     0
100
AcDbTrace
 10
10133.8012715264
 20
12708.27849481045
 30
0.0
 11
10133.8012715264
 21
12707.61182814378
 31
0.0
 12
10131.8012715264
 22
12707.94516147712
 32
0.0
 13
10131.8012715264
 23
12707.94516147712
 33
0.0
  0
POINT
  5
18A9
330
1885
100
AcDbEntity
  8
DEFPOINTS
 62
     0
100
AcDbPoint
 10
10141.57441152627
 20
12736.39713165275
 30
0.0
  0
POINT
  5
18AA
330
1885
100
AcDbEntity
  8
DEFPOINTS
 62
     0
100
AcDbPoint
 10
10131.8012715264
 20
12736.39713165114
 30
0.0
  0
POINT
  5
18AB
330
1885
100
AcDbEntity
  8
DEFPOINTS
 62
     0
100
AcDbPoint
 10
10131.8012715264
 20
12707.94516147712
 30
0.0
  0
ENDBLK
  5
1887
330
1885
100
AcDbEntity
  8
0
100
AcDbBlockEnd
  0
ENDSEC
  0
SECTION
  2
ENTITIES
  0
LINE
  5
14C
330
1020
100
AcDbEntity
  8
主製品
  6
Continuous
 62
     7
100
AcDbLine
 10
10057.07353691519
 20
13057.34693123911
 30
0.0
 11
10059.55898691519
 21
13057.34693123911
 31
0.0
  0
ARC
  5
14D
330
1020
100
AcDbEntity
  8
主製品
  6
Continuous
 62
     7
100
AcDbCircle
 10
10057.07353691519
 20
13057.04697623911
 30
0.0
 40
1.099998
100
AcDbArc
 50
89.99966505880522
 51
150.5057840667249
  0
ARC
  5
14E
330
1020
100
AcDbEntity
  8
主製品
  6
Continuous
 62
     7
100
AcDbCircle
 10
10057.07353691519
 20
13057.04697623911
 30
0.0
 40
0.2999985
100
AcDbArc
 50
89.99876505871453
 51
150.5060430666507
  0
LINE
  5
14F
330
1020
100
AcDbEntity
  8
主製品
  6
Continuous
 62
     7
100
AcDbLine
 10
10057.07353691519
 20
13058.14692623911
 30
0.0
 11
10059.55896691518
 21
13058.14692623911
 31
0.0
  0
ARC
  5
150
330
1020
100
AcDbEntity
  8
主製品
  6
Continuous
 62
     7
100
AcDbCircle
 10
10055.35897691518
 20
13058.01678623911
 30
0.0
 40
0.8698020000000001
100
AcDbArc
 50
209.4941200743574
 51
330.505890090176
  0
LINE
  5
151
330
1020
100
AcDbEntity
  8
主製品
  6
Continuous
 62
     7
100
AcDbLine
 10
10052.05899191519
 20
13057.34693123911
 30
0.0
 11
10053.64455191519
 21
13057.34693123911
 31
0.0
  0
ARC
  5
152
330
1020
100
AcDbEntity
  8
主製品
  6
Continuous
 62
     7
100
AcDbCircle
 10
10053.64455191519
 20
13057.04697623911
 30
0.0
 40
0.300006
100
AcDbArc
 50
29.49453005081475
 51
89.99888705871644
  0
ARC
  5
153
330
1020
100
AcDbEntity
  8
主製品
  6
Continuous
 62
     7
100
AcDbCircle
 10
10053.64455191519
 20
13057.04697623911
 30
0.0
 40
1.100003999999997
100
AcDbArc
 50
29.4942800509513
 51
89.99969505875611
  0
LINE
  5
154
330
1020
100
AcDbEntity
  8
主製品
  6
Continuous
 62
     7
100
AcDbLine
 10
10052.05899191519
 20
13058.14692623911
 30
0.0
 11
10053.64455191519
 21
13058.14692623911
 31
0.0
  0
LINE
  5
155
330
1020
100
AcDbEntity
  8
主製品
  6
Continuous
 62
     7
100
AcDbLine
 10
10052.05899191519
 20
13058.14692623911
 30
0.0
 11
10052.05899191519
 21
13057.34693123911
 31
0.0
  0
ARC
  5
156
330
1020
100
AcDbEntity
  8
主製品
  6
Continuous
 62
     7
100
AcDbCircle
 10
10055.35897691518
 20
13058.01678623911
 30
0.0
 40
1.669801499999999
100
AcDbArc
 50
209.4941600742901
 51
330.5058500901238
  0
ARC
  5
157
330
1020
100
AcDbEntity
  8
主製品
  6
Continuous
 62
     7
100
AcDbCircle
 10
10059.55896691518
 20
13056.84692623911
 30
0.0
 40
1.3
100
AcDbArc
 50
0.0000000470034075
 51
90.00000005876076
  0
ARC
  5
158
330
1020
100
AcDbEntity
  8
主製品
  6
Continuous
 62
     7
100
AcDbCircle
 10
10059.55898691519
 20
13056.8469312391
 30
0.0
 40
0.5
100
AcDbArc
 50
0.0000000470034075
 51
90.00000005876076
  0
LINE
  5
159
330
1020
100
AcDbEntity
  8
主製品
  6
Continuous
 62
     7
100
AcDbLine
 10
10060.85896691519
 20
13056.84692623911
 30
0.0
 11
10060.85896691519
 21
13050.44703123911
 31
0.0
  0
LINE
  5
15A
330
1020
100
AcDbEntity
  8
主製品
  6
Continuous
 62
     7
100
AcDbLine
 10
10060.05898691519
 20
13056.8469312391
 30
0.0
 11
10060.05898691519
 21
13050.44701123911
 31
0.0
  0
LINE
  5
15B
330
1020
100
AcDbEntity
  8
主製品
  6
Continuous
 62
     7
100
AcDbLine
 10
10059.55896691518
 20
13049.14703123911
 30
0.0
 11
9952.159106915184
 21
13049.14703123911
 31
0.0
  0
ARC
  5
15C
330
1020
100
AcDbEntity
  8
主製品
  6
Continuous
 62
     7
100
AcDbCircle
 10
10059.55896691518
 20
13050.44703123911
 30
0.0
 40
1.3
100
AcDbArc
 50
270.0000000352525
 51
0.0000000470034075
  0
ARC
  5
15D
330
1020
100
AcDbEntity
  8
主製品
  6
Continuous
 62
     7
100
AcDbCircle
 10
9952.159106915184
 20
13050.44703123911
 30
0.0
 40
1.3
100
AcDbArc
 50
180.0000000705051
 51
270.0000000822624
  0
LINE
  5
15E
330
1020
100
AcDbEntity
  8
主製品
  6
Continuous
 62
     7
100
AcDbLine
 10
10059.55898691519
 20
13049.94701123911
 30
0.0
 11
9952.159086915196
 21
13049.94701123911
 31
0.0
  0
ARC
  5
15F
330
1020
100
AcDbEntity
  8
主製品
  6
Continuous
 62
     7
100
AcDbCircle
 10
10059.55898691519
 20
13050.44701123911
 30
0.0
 40
0.5
100
AcDbArc
 50
270.0000000352525
 51
0.0000000470034075
  0
ARC
  5
160
330
1020
100
AcDbEntity
  8
主製品
  6
Continuous
 62
     7
100
AcDbCircle
 10
9952.159086915196
 20
13050.44701123911
 30
0.0
 40
0.5
100
AcDbArc
 50
180.0000000705051
 51
270.0000000822624
  0
LINE
  5
161
330
1020
100
AcDbEntity
  8
主製品
  6
Continuous
 62
     7
100
AcDbLine
 10
9950.519036915192
 20
13059.14697623911
 30
0.0
 11
9945.154451915188
 21
13059.14697623911
 31
0.0
  0
LINE
  5
162
330
1020
100
AcDbEntity
  8
主製品
  6
Continuous
 62
     7
100
AcDbLine
 10
9951.659086915192
 20
13050.44701123911
 30
0.0
 11
9951.659086915189
 21
13057.84697623911
 31
0.0
  0
ARC
  5
163
330
1020
100
AcDbEntity
  8
主製品
  6
Continuous
 62
     7
100
AcDbCircle
 10
9950.359086915192
 20
13057.84697623911
 30
0.0
 40
1.3
100
AcDbArc
 50
0.0000000470034075
 51
90.00000005876076
  0
LINE
  5
164
330
1020
100
AcDbEntity
  8
主製品
  6
Continuous
 62
     7
100
AcDbLine
 10
9950.859106915189
 20
13050.44703123911
 30
0.0
 11
9950.859106915189
 21
13057.84699623911
 31
0.0
  0
ARC
  5
165
330
1020
100
AcDbEntity
  8
主製品
  6
Continuous
 62
     7
100
AcDbCircle
 10
9950.359106915193
 20
13057.84699623911
 30
0.0
 40
0.5
100
AcDbArc
 50
0.0000000470034075
 51
90.00000005876076
  0
LINE
  5
166
330
1020
100
AcDbEntity
  8
主製品
  6
Continuous
 62
     7
100
AcDbLine
 10
9950.359106915193
 20
13058.34699623911
 30
0.0
 11
9944.994346915192
 21
13058.34699623911
 31
0.0
  0
ARC
  5
167
330
1020
100
AcDbEntity
  8
主製品
  6
Continuous
 62
     7
100
AcDbCircle
 10
9942.858826915188
 20
13059.14697623911
 30
0.0
 40
1.200004499999999
100
AcDbArc
 50
211.3328400745615
 51
328.6678500898815
  0
ARC
  5
168
330
1020
100
AcDbEntity
  8
主製品
  6
Continuous
 62
     7
100
AcDbCircle
 10
9944.994346915192
 20
13057.84695623911
 30
0.0
 40
0.5000175000000004
100
AcDbArc
 50
90.00100805871634
 51
148.6665650664204
  0
ARC
  5
169
330
1020
100
AcDbEntity
  8
主製品
  6
Continuous
 62
     7
100
AcDbCircle
 10
9942.858826915188
 20
13059.14697623911
 30
0.0
 40
2.000000999999997
100
AcDbArc
 50
211.3322500746264
 51
328.6677400898637
  0
ARC
  5
16A
330
1020
100
AcDbEntity
  8
主製品
  6
Continuous
 62
     7
100
AcDbCircle
 10
9944.994346915192
 20
13057.84695623911
 30
0.0
 40
1.299973499999999
100
AcDbArc
 50
89.99949705872579
 51
148.6684120664063
  0
LINE
  5
16B
330
1020
100
AcDbEntity
  8
主製品
  6
Continuous
 62
     7
100
AcDbLine
 10
9950.359086915192
 20
13059.14697623911
 30
0.0
 11
9944.994346915192
 21
13059.14697623911
 31
0.0
  0
ARC
  5
16C
330
1020
100
AcDbEntity
  8
主製品
  6
Continuous
 62
     7
100
AcDbCircle
 10
9940.723591915189
 20
13057.84695623911
 30
0.0
 40
1.299995999999999
100
AcDbArc
 50
31.3320400511448
 51
90.000199058786
  0
ARC
  5
16D
330
1020
100
AcDbEntity
  8
主製品
  6
Continuous
 62
     7
100
AcDbCircle
 10
9940.723591915189
 20
13057.84695623911
 30
0.0
 40
0.4999935000000003
100
AcDbArc
 50
31.331870051124
 51
90.00053505873644
  0
LINE
  5
16E
330
1020
100
AcDbEntity
  8
主製品
  6
Continuous
 62
     7
100
AcDbLine
 10
9940.883561915189
 20
13059.14697623911
 30
0.0
 11
9930.818951915195
 21
13059.14697623911
 31
0.0
  0
LINE
  5
16F
330
1020
100
AcDbEntity
  8
主製品
  6
Continuous
 62
     7
100
AcDbLine
 10
9940.723591915189
 20
13058.34699623911
 30
0.0
 11
9930.658996915189
 21
13058.34699623911
 31
0.0
  0
LINE
  5
170
330
1020
100
AcDbEntity
  8
主製品
  6
Continuous
 62
     7
100
AcDbLine
 10
9940.723591915189
 20
13059.14697623911
 30
0.0
 11
9930.658996915189
 21
13059.14697623911
 31
0.0
  0
LINE
  5
171
330
1020
100
AcDbEntity
  8
主製品
  6
Continuous
 62
     7
100
AcDbLine
 10
9930.658996915189
 20
13059.14697623911
 30
0.0
 11
9930.658996915189
 21
13058.34699623911
 31
0.0
  0
ARC
  5
4CF
330
1020
100
AcDbEntity
  8
主製品
  6
Continuous
 62
     0
100
AcDbCircle
 10
10060.35912184721
 20
13160.48874652706
 30
0.0
 40
1.669801499999999
100
AcDbArc
 50
209.4941600742997
 51
330.5058500901174
  0
ARC
  5
4D0
330
1020
100
AcDbEntity
  8
主製品
  6
Continuous
 62
     0
100
AcDbCircle
 10
10060.35912184721
 20
13160.48874652706
 30
0.0
 40
0.8698020000000001
100
AcDbArc
 50
209.4941200743478
 51
330.5058900901857
  0
LINE
  5
4D1
330
1020
100
AcDbEntity
  8
主製品
  6
Continuous
 62
     0
100
AcDbLine
 10
10057.05913684721
 20
13160.61888652706
 30
0.0
 11
10057.05913684721
 21
13159.81889152706
 31
0.0
  0
ARC
  5
4D2
330
1020
100
AcDbEntity
  8
主製品
  6
Continuous
 62
     0
100
AcDbCircle
 10
10058.6446968472
 20
13159.51893652707
 30
0.0
 40
1.100003999999997
100
AcDbArc
 50
29.49428005093847
 51
89.99969505877565
  0
ARC
  5
4D3
330
1020
100
AcDbEntity
  8
主製品
  6
Continuous
 62
     0
100
AcDbCircle
 10
10058.6446968472
 20
13159.51893652707
 30
0.0
 40
0.300006
100
AcDbArc
 50
29.49453005086332
 51
89.99888705873596
  0
LINE
  5
4D4
330
1020
100
AcDbEntity
  8
主製品
  6
Continuous
 62
     0
100
AcDbLine
 10
10057.05913684721
 20
13160.61888652706
 30
0.0
 11
10058.6446968472
 21
13160.61888652706
 31
0.0
  0
LINE
  5
4D5
330
1020
100
AcDbEntity
  8
主製品
  6
Continuous
 62
     0
100
AcDbLine
 10
10057.05913684721
 20
13159.81889152706
 30
0.0
 11
10058.6446968472
 21
13159.81889152706
 31
0.0
  0
LINE
  5
4D6
330
1020
100
AcDbEntity
  8
主製品
  6
Continuous
 62
     0
100
AcDbLine
 10
10062.0736818472
 20
13159.81889152706
 30
0.0
 11
10064.5591318472
 21
13159.81889152706
 31
0.0
  0
LINE
  5
4D7
330
1020
100
AcDbEntity
  8
主製品
  6
Continuous
 62
     0
100
AcDbLine
 10
10062.0736818472
 20
13160.61888652706
 30
0.0
 11
10064.55911184721
 21
13160.61888652706
 31
0.0
  0
ARC
  5
4D8
330
1020
100
AcDbEntity
  8
主製品
  6
Continuous
 62
     0
100
AcDbCircle
 10
10062.0736818472
 20
13159.51893652707
 30
0.0
 40
0.2999985
100
AcDbArc
 50
89.99876505873409
 51
150.5060430666379
  0
ARC
  5
4D9
330
1020
100
AcDbEntity
  8
主製品
  6
Continuous
 62
     0
100
AcDbCircle
 10
10062.0736818472
 20
13159.51893652707
 30
0.0
 40
1.099998
100
AcDbArc
 50
89.99966505882477
 51
150.5057840667346
  0
ARC
  5
4DA
330
1020
100
AcDbEntity
  8
主製品
  6
Continuous
 62
     0
100
AcDbCircle
 10
10064.5591318472
 20
13159.31889152706
 30
0.0
 40
0.5
100
AcDbArc
 50
0.0000000470034075
 51
90.00000005878026
  0
ARC
  5
4DB
330
1020
100
AcDbEntity
  8
主製品
  6
Continuous
 62
     0
100
AcDbCircle
 10
10064.55911184721
 20
13159.31888652707
 30
0.0
 40
1.3
100
AcDbArc
 50
0.0000000470034075
 51
90.00000005878026
  0
LINE
  5
4DC
330
1020
100
AcDbEntity
  8
主製品
  6
Continuous
 62
     0
100
AcDbLine
 10
10065.0591318472
 20
13159.31889152706
 30
0.0
 11
10065.0591318472
 21
13152.91897152706
 31
0.0
  0
LINE
  5
4DD
330
1020
100
AcDbEntity
  8
主製品
  6
Continuous
 62
     0
100
AcDbLine
 10
10065.85911184721
 20
13159.31888652707
 30
0.0
 11
10065.85911184721
 21
13152.91899152706
 31
0.0
  0
LINE
  5
4DE
330
1020
100
AcDbEntity
  8
主製品
  6
Continuous
 62
     0
100
AcDbLine
 10
10064.5591118472
 20
13151.61899152706
 30
0.0
 11
9947.311111847206
 21
13151.61899152706
 31
0.0
  0
ARC
  5
4DF
330
1020
100
AcDbEntity
  8
主製品
  6
Continuous
 62
     0
100
AcDbCircle
 10
9947.311111847206
 20
13152.91899152706
 30
0.0
 40
1.3
100
AcDbArc
 50
180.0000000705572
 51
270.0000000822821
  0
ARC
  5
4E0
330
1020
100
AcDbEntity
  8
主製品
  6
Continuous
 62
     0
100
AcDbCircle
 10
10064.5591118472
 20
13152.91899152706
 30
0.0
 40
1.3
100
AcDbArc
 50
270.0000000352786
 51
0.0000000470034075
  0
LINE
  5
4E1
330
1020
100
AcDbEntity
  8
主製品
  6
Continuous
 62
     0
100
AcDbLine
 10
10064.5591318472
 20
13152.41897152706
 30
0.0
 11
9947.311091847209
 21
13152.41897152706
 31
0.0
  0
ARC
  5
4E2
330
1020
100
AcDbEntity
  8
主製品
  6
Continuous
 62
     0
100
AcDbCircle
 10
9947.311091847209
 20
13152.91897152706
 30
0.0
 40
0.5
100
AcDbArc
 50
180.0000000705572
 51
270.0000000822821
  0
ARC
  5
4E3
330
1020
100
AcDbEntity
  8
主製品
  6
Continuous
 62
     0
100
AcDbCircle
 10
10064.5591318472
 20
13152.91897152706
 30
0.0
 40
0.5
100
AcDbArc
 50
270.0000000352786
 51
0.0000000470034075
  0
ARC
  5
4E4
330
1020
100
AcDbEntity
  8
主製品
  6
Continuous
 62
     0
100
AcDbCircle
 10
9945.511091847208
 20
13160.31893652706
 30
0.0
 40
1.3
100
AcDbArc
 50
0.0000000470034075
 51
90.00000005878026
  0
LINE
  5
4E5
330
1020
100
AcDbEntity
  8
主製品
  6
Continuous
 62
     0
100
AcDbLine
 10
9946.011111847205
 20
13152.91899152706
 30
0.0
 11
9946.011111847205
 21
13160.31895652706
 31
0.0
  0
ARC
  5
4E6
330
1020
100
AcDbEntity
  8
主製品
  6
Continuous
 62
     0
100
AcDbCircle
 10
9945.511111847205
 20
13160.31895652706
 30
0.0
 40
0.5
100
AcDbArc
 50
0.0000000470034075
 51
90.00000005878026
  0
LINE
  5
4E7
330
1020
100
AcDbEntity
  8
主製品
  6
Continuous
 62
     0
100
AcDbLine
 10
9946.811091847207
 20
13152.91897152706
 30
0.0
 11
9946.811091847207
 21
13160.31893652706
 31
0.0
  0
LINE
  5
4E8
330
1020
100
AcDbEntity
  8
主製品
  6
Continuous
 62
     0
100
AcDbLine
 10
9945.511111847205
 20
13160.81895652706
 30
0.0
 11
9935.811001847206
 21
13160.81895652706
 31
0.0
  0
LINE
  5
4E9
330
1020
100
AcDbEntity
  8
主製品
  6
Continuous
 62
     0
100
AcDbLine
 10
9945.511091847208
 20
13161.61893652706
 30
0.0
 11
9935.811001847206
 21
13161.61893652706
 31
0.0
  0
LINE
  5
4EA
330
1020
100
AcDbEntity
  8
主製品
  6
Continuous
 62
     0
100
AcDbLine
 10
9935.811001847206
 20
13161.61893652706
 30
0.0
 11
9935.811001847206
 21
13160.81895652706
 31
0.0
  0
DIMENSION
  5
5B5
330
1020
100
AcDbEntity
  8
0
100
AcDbDimension
  2
*D40
 10
9961.137881156705
 20
13151.61899152706
 30
0.0
 11
9957.637881156701
 21
13156.61896402706
 31
0.0
 70
    32
 71
     5
 42
9.99994499999957
  3
ISO-25
100
AcDbAlignedDimension
 13
9945.511091847208
 23
13161.61893652706
 33
0.0
 14
9947.311111849071
 24
13151.61899152706
 34
0.0
 50
90.0
100
AcDbRotatedDimension
1001
ACAD
1000
DSTYLE
1002
{
1070
   271
1070
     2
1002
}
  0
DIMENSION
  5
5CD
330
1020
100
AcDbEntity
  8
0
100
AcDbDimension
  2
*D39
 10
9946.811091847209
 20
13171.62518692708
 30
0.0
 11
9941.311046847209
 21
13175.12518692708
 31
0.0
 70
    32
 71
     5
 42
11.00009000000318
  3
ISO-25
100
AcDbAlignedDimension
 13
9935.811001847206
 23
13161.61893652706
 33
0.0
 14
9946.811091847209
 24
13160.31893652813
 34
0.0
100
AcDbRotatedDimension
1001
ACAD
1000
DSTYLE
1002
{
1070
   271
1070
     2
1002
}
  0
DIMENSION
  5
5E5
330
1020
100
AcDbEntity
  8
0
100
AcDbDimension
  2
*D38
 10
10079.03170837669
 20
13151.61899152706
 30
0.0
 11
10075.53170837668
 21
13156.11893902706
 31
0.0
 70
    32
 71
     5
 42
8.999894999999014
  3
ISO-25
100
AcDbAlignedDimension
 13
10064.55911184588
 23
13160.61888652706
 33
0.0
 14
10064.559111848
 24
13151.61899152706
 34
0.0
 50
90.0
100
AcDbRotatedDimension
1001
ACAD
1000
DSTYLE
1002
{
1070
   271
1070
     2
1002
}
  0
LINE
  5
5FE
330
1020
100
AcDbEntity
  8
主製品
  6
DASHED
 62
     7
100
AcDbLine
 10
10176.92153691519
 20
13057.34693123911
 30
0.0
 11
10179.40698691519
 21
13057.34693123911
 31
0.0
  0
ARC
  5
5FF
330
1020
100
AcDbEntity
  8
主製品
  6
DASHED
 62
     7
100
AcDbCircle
 10
10176.92153691519
 20
13057.04697623911
 30
0.0
 40
1.099998
100
AcDbArc
 50
89.99966505880522
 51
150.5057840667249
  0
ARC
  5
600
330
1020
100
AcDbEntity
  8
主製品
  6
DASHED
 62
     7
100
AcDbCircle
 10
10176.92153691519
 20
13057.04697623911
 30
0.0
 40
0.2999985
100
AcDbArc
 50
89.99876505871453
 51
150.5060430666507
  0
LINE
  5
601
330
1020
100
AcDbEntity
  8
主製品
  6
DASHED
 62
     7
100
AcDbLine
 10
10176.92153691519
 20
13058.14692623911
 30
0.0
 11
10179.40696691518
 21
13058.14692623911
 31
0.0
  0
ARC
  5
602
330
1020
100
AcDbEntity
  8
主製品
  6
DASHED
 62
     7
100
AcDbCircle
 10
10175.20697691518
 20
13058.01678623911
 30
0.0
 40
0.8698020000000001
100
AcDbArc
 50
209.4941200743574
 51
330.505890090176
  0
LINE
  5
603
330
1020
100
AcDbEntity
  8
主製品
  6
DASHED
 62
     7
100
AcDbLine
 10
10171.90699191519
 20
13057.34693123911
 30
0.0
 11
10173.49255191519
 21
13057.34693123911
 31
0.0
  0
ARC
  5
604
330
1020
100
AcDbEntity
  8
主製品
  6
DASHED
 62
     7
100
AcDbCircle
 10
10173.49255191519
 20
13057.04697623911
 30
0.0
 40
0.300006
100
AcDbArc
 50
29.49453005081475
 51
89.99888705871644
  0
ARC
  5
605
330
1020
100
AcDbEntity
  8
主製品
  6
DASHED
 62
     7
100
AcDbCircle
 10
10173.49255191519
 20
13057.04697623911
 30
0.0
 40
1.100003999999997
100
AcDbArc
 50
29.4942800509513
 51
89.99969505875611
  0
LINE
  5
606
330
1020
100
AcDbEntity
  8
主製品
  6
DASHED
 62
     7
100
AcDbLine
 10
10171.90699191519
 20
13058.14692623911
 30
0.0
 11
10173.49255191519
 21
13058.14692623911
 31
0.0
  0
LINE
  5
607
330
1020
100
AcDbEntity
  8
主製品
  6
DASHED
 62
     7
100
AcDbLine
 10
10171.90699191519
 20
13058.14692623911
 30
0.0
 11
10171.90699191519
 21
13057.34693123911
 31
0.0
  0
ARC
  5
608
330
1020
100
AcDbEntity
  8
主製品
  6
DASHED
 62
     7
100
AcDbCircle
 10
10175.20697691518
 20
13058.01678623911
 30
0.0
 40
1.669801499999999
100
AcDbArc
 50
209.4941600742901
 51
330.5058500901238
  0
ARC
  5
609
330
1020
100
AcDbEntity
  8
主製品
  6
DASHED
 62
     7
100
AcDbCircle
 10
10179.40696691518
 20
13056.84692623911
 30
0.0
 40
1.3
100
AcDbArc
 50
0.0000000470034075
 51
90.00000005876076
  0
ARC
  5
60A
330
1020
100
AcDbEntity
  8
主製品
  6
DASHED
 62
     7
100
AcDbCircle
 10
10179.40698691519
 20
13056.8469312391
 30
0.0
 40
0.5
100
AcDbArc
 50
0.0000000470034075
 51
90.00000005876076
  0
LINE
  5
60B
330
1020
100
AcDbEntity
  8
主製品
  6
DASHED
 62
     7
100
AcDbLine
 10
10180.70696691519
 20
13056.84692623911
 30
0.0
 11
10180.70696691519
 21
13050.44703123911
 31
0.0
  0
LINE
  5
60C
330
1020
100
AcDbEntity
  8
主製品
  6
DASHED
 62
     7
100
AcDbLine
 10
10179.90698691519
 20
13056.8469312391
 30
0.0
 11
10179.90698691519
 21
13050.44701123911
 31
0.0
  0
LINE
  5
60D
330
1020
100
AcDbEntity
  8
主製品
  6
DASHED
 62
     7
100
AcDbLine
 10
10179.40696691518
 20
13049.14703123911
 30
0.0
 11
10072.00710691518
 21
13049.14703123911
 31
0.0
  0
ARC
  5
60E
330
1020
100
AcDbEntity
  8
主製品
  6
DASHED
 62
     7
100
AcDbCircle
 10
10179.40696691518
 20
13050.44703123911
 30
0.0
 40
1.3
100
AcDbArc
 50
270.0000000352525
 51
0.0000000470034075
  0
ARC
  5
60F
330
1020
100
AcDbEntity
  8
主製品
  6
DASHED
 62
     7
100
AcDbCircle
 10
10072.00710691518
 20
13050.44703123911
 30
0.0
 40
1.3
100
AcDbArc
 50
180.0000000705051
 51
270.0000000822624
  0
LINE
  5
610
330
1020
100
AcDbEntity
  8
主製品
  6
DASHED
 62
     7
100
AcDbLine
 10
10179.40698691519
 20
13049.94701123911
 30
0.0
 11
10072.00708691519
 21
13049.94701123911
 31
0.0
  0
ARC
  5
611
330
1020
100
AcDbEntity
  8
主製品
  6
DASHED
 62
     7
100
AcDbCircle
 10
10179.40698691519
 20
13050.44701123911
 30
0.0
 40
0.5
100
AcDbArc
 50
270.0000000352525
 51
0.0000000470034075
  0
ARC
  5
612
330
1020
100
AcDbEntity
  8
主製品
  6
DASHED
 62
     7
100
AcDbCircle
 10
10072.00708691519
 20
13050.44701123911
 30
0.0
 40
0.5
100
AcDbArc
 50
180.0000000705051
 51
270.0000000822624
  0
LINE
  5
613
330
1020
100
AcDbEntity
  8
主製品
  6
DASHED
 62
     7
100
AcDbLine
 10
10070.36703691519
 20
13059.14697623911
 30
0.0
 11
10065.00245191519
 21
13059.14697623911
 31
0.0
  0
LINE
  5
614
330
1020
100
AcDbEntity
  8
主製品
  6
DASHED
 62
     7
100
AcDbLine
 10
10071.50708691519
 20
13050.44701123911
 30
0.0
 11
10071.50708691519
 21
13057.84697623911
 31
0.0
  0
ARC
  5
615
330
1020
100
AcDbEntity
  8
主製品
  6
DASHED
 62
     7
100
AcDbCircle
 10
10070.20708691519
 20
13057.84697623911
 30
0.0
 40
1.3
100
AcDbArc
 50
0.0000000470034075
 51
90.00000005876076
  0
LINE
  5
616
330
1020
100
AcDbEntity
  8
主製品
  6
DASHED
 62
     7
100
AcDbLine
 10
10070.70710691519
 20
13050.44703123911
 30
0.0
 11
10070.70710691519
 21
13057.84699623911
 31
0.0
  0
ARC
  5
617
330
1020
100
AcDbEntity
  8
主製品
  6
DASHED
 62
     7
100
AcDbCircle
 10
10070.20710691519
 20
13057.84699623911
 30
0.0
 40
0.5
100
AcDbArc
 50
0.0000000470034075
 51
90.00000005876076
  0
LINE
  5
618
330
1020
100
AcDbEntity
  8
主製品
  6
DASHED
 62
     7
100
AcDbLine
 10
10070.20710691519
 20
13058.34699623911
 30
0.0
 11
10064.84234691519
 21
13058.34699623911
 31
0.0
  0
ARC
  5
619
330
1020
100
AcDbEntity
  8
主製品
  6
DASHED
 62
     7
100
AcDbCircle
 10
10062.70682691519
 20
13059.14697623911
 30
0.0
 40
1.200004499999999
100
AcDbArc
 50
211.3328400745615
 51
328.6678500898815
  0
ARC
  5
61A
330
1020
100
AcDbEntity
  8
主製品
  6
DASHED
 62
     7
100
AcDbCircle
 10
10064.84234691519
 20
13057.84695623911
 30
0.0
 40
0.5000175000000004
100
AcDbArc
 50
90.00100805871634
 51
148.6665650664204
  0
ARC
  5
61B
330
1020
100
AcDbEntity
  8
主製品
  6
DASHED
 62
     7
100
AcDbCircle
 10
10062.70682691519
 20
13059.14697623911
 30
0.0
 40
2.000000999999997
100
AcDbArc
 50
211.3322500746264
 51
328.6677400898637
  0
ARC
  5
61C
330
1020
100
AcDbEntity
  8
主製品
  6
DASHED
 62
     7
100
AcDbCircle
 10
10064.84234691519
 20
13057.84695623911
 30
0.0
 40
1.299973499999999
100
AcDbArc
 50
89.99949705872579
 51
148.6684120664063
  0
LINE
  5
61D
330
1020
100
AcDbEntity
  8
主製品
  6
DASHED
 62
     7
100
AcDbLine
 10
10070.20708691519
 20
13059.14697623911
 30
0.0
 11
10064.84234691519
 21
13059.14697623911
 31
0.0
  0
ARC
  5
61E
330
1020
100
AcDbEntity
  8
主製品
  6
DASHED
 62
     7
100
AcDbCircle
 10
10060.57159191519
 20
13057.84695623911
 30
0.0
 40
1.299995999999999
100
AcDbArc
 50
31.3320400511448
 51
90.000199058786
  0
ARC
  5
61F
330
1020
100
AcDbEntity
  8
主製品
  6
DASHED
 62
     7
100
AcDbCircle
 10
10060.57159191519
 20
13057.84695623911
 30
0.0
 40
0.4999935000000003
100
AcDbArc
 50
31.331870051124
 51
90.00053505873644
  0
LINE
  5
620
330
1020
100
AcDbEntity
  8
主製品
  6
DASHED
 62
     7
100
AcDbLine
 10
10060.73156191519
 20
13059.14697623911
 30
0.0
 11
10050.66695191519
 21
13059.14697623911
 31
0.0
  0
LINE
  5
621
330
1020
100
AcDbEntity
  8
主製品
  6
DASHED
 62
     7
100
AcDbLine
 10
10060.57159191519
 20
13058.34699623911
 30
0.0
 11
10050.50699691519
 21
13058.34699623911
 31
0.0
  0
LINE
  5
622
330
1020
100
AcDbEntity
  8
主製品
  6
DASHED
 62
     7
100
AcDbLine
 10
10060.57159191519
 20
13059.14697623911
 30
0.0
 11
10050.50699691519
 21
13059.14697623911
 31
0.0
  0
LINE
  5
623
330
1020
100
AcDbEntity
  8
主製品
  6
DASHED
 62
     7
100
AcDbLine
 10
10050.50699691519
 20
13059.14697623911
 30
0.0
 11
10050.50699691519
 21
13058.34699623911
 31
0.0
  0
LINE
  5
625
330
1020
100
AcDbEntity
  8
主製品
  6
DASHED
 62
     7
100
AcDbLine
 10
9937.225536915198
 20
13057.34693123804
 30
0.0
 11
9939.710986915198
 21
13057.34693123804
 31
0.0
  0
ARC
  5
626
330
1020
100
AcDbEntity
  8
主製品
  6
DASHED
 62
     7
100
AcDbCircle
 10
9937.225536915198
 20
13057.04697623805
 30
0.0
 40
1.099998
100
AcDbArc
 50
89.99966505880522
 51
150.5057840667249
  0
ARC
  5
627
330
1020
100
AcDbEntity
  8
主製品
  6
DASHED
 62
     7
100
AcDbCircle
 10
9937.225536915198
 20
13057.04697623805
 30
0.0
 40
0.2999985
100
AcDbArc
 50
89.99876505871453
 51
150.5060430666507
  0
LINE
  5
628
330
1020
100
AcDbEntity
  8
主製品
  6
DASHED
 62
     7
100
AcDbLine
 10
9937.225536915198
 20
13058.14692623804
 30
0.0
 11
9939.710966915194
 21
13058.14692623804
 31
0.0
  0
ARC
  5
629
330
1020
100
AcDbEntity
  8
主製品
  6
DASHED
 62
     7
100
AcDbCircle
 10
9935.510976915201
 20
13058.01678623804
 30
0.0
 40
0.8698020000000001
100
AcDbArc
 50
209.4941200743574
 51
330.505890090176
  0
LINE
  5
62A
330
1020
100
AcDbEntity
  8
主製品
  6
DASHED
 62
     7
100
AcDbLine
 10
9932.210991915201
 20
13057.34693123804
 30
0.0
 11
9933.796551915197
 21
13057.34693123804
 31
0.0
  0
ARC
  5
62B
330
1020
100
AcDbEntity
  8
主製品
  6
DASHED
 62
     7
100
AcDbCircle
 10
9933.796551915197
 20
13057.04697623805
 30
0.0
 40
0.300006
100
AcDbArc
 50
29.49453005081475
 51
89.99888705871644
  0
ARC
  5
62C
330
1020
100
AcDbEntity
  8
主製品
  6
DASHED
 62
     7
100
AcDbCircle
 10
9933.796551915197
 20
13057.04697623805
 30
0.0
 40
1.100003999999997
100
AcDbArc
 50
29.4942800509513
 51
89.99969505875611
  0
LINE
  5
62D
330
1020
100
AcDbEntity
  8
主製品
  6
DASHED
 62
     7
100
AcDbLine
 10
9932.210991915201
 20
13058.14692623804
 30
0.0
 11
9933.796551915197
 21
13058.14692623804
 31
0.0
  0
LINE
  5
62E
330
1020
100
AcDbEntity
  8
主製品
  6
DASHED
 62
     7
100
AcDbLine
 10
9932.210991915201
 20
13058.14692623804
 30
0.0
 11
9932.210991915201
 21
13057.34693123804
 31
0.0
  0
ARC
  5
62F
330
1020
100
AcDbEntity
  8
主製品
  6
DASHED
 62
     7
100
AcDbCircle
 10
9935.510976915201
 20
13058.01678623804
 30
0.0
 40
1.669801499999999
100
AcDbArc
 50
209.4941600742901
 51
330.5058500901238
  0
ARC
  5
630
330
1020
100
AcDbEntity
  8
主製品
  6
DASHED
 62
     7
100
AcDbCircle
 10
9939.710966915194
 20
13056.84692623804
 30
0.0
 40
1.3
100
AcDbArc
 50
0.0000000470034075
 51
90.00000005876076
  0
ARC
  5
631
330
1020
100
AcDbEntity
  8
主製品
  6
DASHED
 62
     7
100
AcDbCircle
 10
9939.710986915198
 20
13056.84693123804
 30
0.0
 40
0.5
100
AcDbArc
 50
0.0000000470034075
 51
90.00000005876076
  0
LINE
  5
632
330
1020
100
AcDbEntity
  8
主製品
  6
DASHED
 62
     7
100
AcDbLine
 10
9941.0109669152
 20
13056.84692623804
 30
0.0
 11
9941.0109669152
 21
13050.44703123805
 31
0.0
  0
LINE
  5
633
330
1020
100
AcDbEntity
  8
主製品
  6
DASHED
 62
     7
100
AcDbLine
 10
9940.210986915197
 20
13056.84693123804
 30
0.0
 11
9940.210986915197
 21
13050.44701123804
 31
0.0
  0
LINE
  5
634
330
1020
100
AcDbEntity
  8
主製品
  6
DASHED
 62
     7
100
AcDbLine
 10
9939.710966915194
 20
13049.14703123805
 30
0.0
 11
9832.311106915195
 21
13049.14703123805
 31
0.0
  0
ARC
  5
635
330
1020
100
AcDbEntity
  8
主製品
  6
DASHED
 62
     7
100
AcDbCircle
 10
9939.710966915194
 20
13050.44703123805
 30
0.0
 40
1.3
100
AcDbArc
 50
270.0000000352525
 51
0.0000000470034075
  0
ARC
  5
636
330
1020
100
AcDbEntity
  8
主製品
  6
DASHED
 62
     7
100
AcDbCircle
 10
9832.311106915195
 20
13050.44703123805
 30
0.0
 40
1.3
100
AcDbArc
 50
180.0000000705051
 51
270.0000000822624
  0
LINE
  5
637
330
1020
100
AcDbEntity
  8
主製品
  6
DASHED
 62
     7
100
AcDbLine
 10
9939.710986915198
 20
13049.94701123804
 30
0.0
 11
9832.311086915201
 21
13049.94701123805
 31
0.0
  0
ARC
  5
638
330
1020
100
AcDbEntity
  8
主製品
  6
DASHED
 62
     7
100
AcDbCircle
 10
9939.710986915198
 20
13050.44701123804
 30
0.0
 40
0.5
100
AcDbArc
 50
270.0000000352525
 51
0.0000000470034075
  0
ARC
  5
639
330
1020
100
AcDbEntity
  8
主製品
  6
DASHED
 62
     7
100
AcDbCircle
 10
9832.311086915201
 20
13050.44701123804
 30
0.0
 40
0.5
100
AcDbArc
 50
180.0000000705051
 51
270.0000000822624
  0
LINE
  5
63A
330
1020
100
AcDbEntity
  8
主製品
  6
DASHED
 62
     7
100
AcDbLine
 10
9830.671036915202
 20
13059.14697623804
 30
0.0
 11
9825.306451915196
 21
13059.14697623804
 31
0.0
  0
LINE
  5
63B
330
1020
100
AcDbEntity
  8
主製品
  6
DASHED
 62
     7
100
AcDbLine
 10
9831.811086915202
 20
13050.44701123804
 30
0.0
 11
9831.811086915196
 21
13057.84697623804
 31
0.0
  0
ARC
  5
63C
330
1020
100
AcDbEntity
  8
主製品
  6
DASHED
 62
     7
100
AcDbCircle
 10
9830.511086915196
 20
13057.84697623804
 30
0.0
 40
1.3
100
AcDbArc
 50
0.0000000470034075
 51
90.00000005876076
  0
LINE
  5
63D
330
1020
100
AcDbEntity
  8
主製品
  6
DASHED
 62
     7
100
AcDbLine
 10
9831.011106915198
 20
13050.44703123805
 30
0.0
 11
9831.011106915198
 21
13057.84699623804
 31
0.0
  0
ARC
  5
63E
330
1020
100
AcDbEntity
  8
主製品
  6
DASHED
 62
     7
100
AcDbCircle
 10
9830.511106915201
 20
13057.84699623804
 30
0.0
 40
0.5
100
AcDbArc
 50
0.0000000470034075
 51
90.00000005876076
  0
LINE
  5
63F
330
1020
100
AcDbEntity
  8
主製品
  6
DASHED
 62
     7
100
AcDbLine
 10
9830.511106915201
 20
13058.34699623804
 30
0.0
 11
9825.146346915198
 21
13058.34699623804
 31
0.0
  0
ARC
  5
640
330
1020
100
AcDbEntity
  8
主製品
  6
DASHED
 62
     7
100
AcDbCircle
 10
9823.010826915197
 20
13059.14697623804
 30
0.0
 40
1.200004499999999
100
AcDbArc
 50
211.3328400745615
 51
328.6678500898815
  0
ARC
  5
641
330
1020
100
AcDbEntity
  8
主製品
  6
DASHED
 62
     7
100
AcDbCircle
 10
9825.146346915198
 20
13057.84695623805
 30
0.0
 40
0.5000175000000004
100
AcDbArc
 50
90.00100805871634
 51
148.6665650664204
  0
ARC
  5
642
330
1020
100
AcDbEntity
  8
主製品
  6
DASHED
 62
     7
100
AcDbCircle
 10
9823.010826915197
 20
13059.14697623804
 30
0.0
 40
2.000000999999997
100
AcDbArc
 50
211.3322500746264
 51
328.6677400898637
  0
ARC
  5
643
330
1020
100
AcDbEntity
  8
主製品
  6
DASHED
 62
     7
100
AcDbCircle
 10
9825.146346915198
 20
13057.84695623805
 30
0.0
 40
1.299973499999999
100
AcDbArc
 50
89.99949705872579
 51
148.6684120664063
  0
LINE
  5
644
330
1020
100
AcDbEntity
  8
主製品
  6
DASHED
 62
     7
100
AcDbLine
 10
9830.511086915196
 20
13059.14697623804
 30
0.0
 11
9825.146346915198
 21
13059.14697623804
 31
0.0
  0
ARC
  5
645
330
1020
100
AcDbEntity
  8
主製品
  6
DASHED
 62
     7
100
AcDbCircle
 10
9820.875591915196
 20
13057.84695623805
 30
0.0
 40
1.299995999999999
100
AcDbArc
 50
31.3320400511448
 51
90.000199058786
  0
ARC
  5
646
330
1020
100
AcDbEntity
  8
主製品
  6
DASHED
 62
     7
100
AcDbCircle
 10
9820.875591915196
 20
13057.84695623805
 30
0.0
 40
0.4999935000000003
100
AcDbArc
 50
31.331870051124
 51
90.00053505873644
  0
LINE
  5
647
330
1020
100
AcDbEntity
  8
主製品
  6
DASHED
 62
     7
100
AcDbLine
 10
9821.035561915197
 20
13059.14697623804
 30
0.0
 11
9810.970951915201
 21
13059.14697623804
 31
0.0
  0
LINE
  5
648
330
1020
100
AcDbEntity
  8
主製品
  6
DASHED
 62
     7
100
AcDbLine
 10
9820.875591915196
 20
13058.34699623804
 30
0.0
 11
9810.810996915199
 21
13058.34699623804
 31
0.0
  0
LINE
  5
649
330
1020
100
AcDbEntity
  8
主製品
  6
DASHED
 62
     7
100
AcDbLine
 10
9820.875591915196
 20
13059.14697623804
 30
0.0
 11
9810.810996915199
 21
13059.14697623804
 31
0.0
  0
LINE
  5
64A
330
1020
100
AcDbEntity
  8
主製品
  6
DASHED
 62
     7
100
AcDbLine
 10
9810.810996915199
 20
13059.14697623804
 30
0.0
 11
9810.810996915199
 21
13058.34699623804
 31
0.0
  0
DIMENSION
  5
64D
330
1020
100
AcDbEntity
  8
0
100
AcDbDimension
  2
*D37
 10
10070.70710691518
 20
13021.99506106348
 30
0.0
 11
10125.70703691518
 21
13025.49506106348
 31
0.0
 70
    32
 71
     5
 42
109.9998599999999
  3
ISO-25
100
AcDbAlignedDimension
 13
10180.70696691518
 23
13050.44703124018
 33
0.0
 14
10070.70710691518
 24
13050.44703123751
 34
0.0
100
AcDbRotatedDimension
1001
ACAD
1000
DSTYLE
1002
{
1070
   271
1070
     0
1002
}
  0
DIMENSION
  5
665
330
1020
100
AcDbEntity
  8
0
100
AcDbDimension
  2
*D36
 10
10060.85896691519
 20
13021.99506106348
 30
0.0
 11
10071.50818504705
 21
13011.74506106348
 31
0.0
 70
   160
 71
     5
 42
9.848140000000057
  3
ISO-25
100
AcDbAlignedDimension
 13
10070.70710691519
 23
13050.44703123911
 33
0.0
 14
10060.85896691519
 24
13050.4470312391
 34
0.0
100
AcDbRotatedDimension
1001
ACAD
1000
DSTYLE
1002
{
1070
   271
1070
     3
1002
}
  0
DIMENSION
  5
693
330
1020
100
AcDbEntity
  8
0
100
AcDbDimension
  2
*D35
 10
9950.859106915187
 20
13021.99506106348
 30
0.0
 11
10005.85903691519
 21
13025.49506106348
 31
0.0
 70
    32
 71
     5
 42
109.9998600000035
  3
ISO-25
100
AcDbAlignedDimension
 13
10060.85896691519
 23
13050.44703123911
 33
0.0
 14
9950.859106915187
 24
13050.44703123751
 34
0.0
100
AcDbRotatedDimension
1001
ACAD
1000
DSTYLE
1002
{
1070
   271
1070
     0
1002
}
  0
DIMENSION
  5
6AB
330
1020
100
AcDbEntity
  8
0
100
AcDbDimension
  2
*D34
 10
9941.010966915193
 20
13021.99506106348
 30
0.0
 11
9952.236137039102
 21
13011.74506106348
 31
0.0
 70
   160
 71
     5
 42
9.8481399999946
  3
ISO-25
100
AcDbAlignedDimension
 13
9950.859106915187
 23
13050.44703123751
 33
0.0
 14
9941.010966915193
 24
13050.44703123751
 34
0.0
100
AcDbRotatedDimension
1001
ACAD
1000
DSTYLE
1002
{
1070
   271
1070
     3
1002
}
  0
DIMENSION
  5
6BB
330
1020
100
AcDbEntity
  8
0
100
AcDbDimension
  2
*D33
 10
9831.011106915186
 20
13021.99506106348
 30
0.0
 11
9886.011036915189
 21
13025.49506106348
 31
0.0
 70
    32
 71
     5
 42
109.9998600000053
  3
ISO-25
100
AcDbAlignedDimension
 13
9941.010966915193
 23
13050.44703123911
 33
0.0
 14
9831.011106915186
 24
13050.44703123751
 34
0.0
100
AcDbRotatedDimension
1001
ACAD
1000
DSTYLE
1002
{
1070
   271
1070
     0
1002
}
  0
DIMENSION
  5
6CB
330
1020
100
AcDbEntity
  8
0
100
AcDbDimension
  2
*D32
 10
9941.010966915193
 20
12999.09711899116
 30
0.0
 11
10000.93496691518
 21
13002.59711899116
 31
0.0
 70
    32
 71
     5
 42
119.8479999999872
  3
ISO-25
100
AcDbAlignedDimension
 13
10060.85896691518
 23
13050.44703124018
 33
0.0
 14
9941.010966915193
 24
13045.44703123911
 34
0.0
100
AcDbRotatedDimension
1001
ACAD
1000
DSTYLE
1002
{
1070
   271
1070
     3
1002
}
  0
DIMENSION
  5
821
330
1020
100
AcDbEntity
  8
0
100
AcDbDimension
  2
*D31
 10
9946.011111847205
 20
13132.43446599689
 30
0.0
 11
10005.9351118472
 21
13135.93446599689
 31
0.0
 70
    32
 71
     5
 42
119.8479999999945
  3
ISO-25
100
AcDbAlignedDimension
 13
10065.8591118472
 23
13152.91899152813
 33
0.0
 14
9946.011111847205
 24
13152.91899152813
 34
0.0
100
AcDbRotatedDimension
1001
ACAD
1000
DSTYLE
1002
{
1070
   271
1070
     0
1002
}
  0
ARC
  5
88A
330
1020
100
AcDbEntity
  8
主製品
  6
DASHED
 62
     0
100
AcDbCircle
 10
9940.51112184721
 20
13160.48874652706
 30
0.0
 40
1.669801499999999
100
AcDbArc
 50
209.4941600742997
 51
330.5058500901174
  0
ARC
  5
88B
330
1020
100
AcDbEntity
  8
主製品
  6
DASHED
 62
     0
100
AcDbCircle
 10
9940.51112184721
 20
13160.48874652706
 30
0.0
 40
0.8698020000000001
100
AcDbArc
 50
209.4941200743478
 51
330.5058900901857
  0
LINE
  5
88C
330
1020
100
AcDbEntity
  8
主製品
  6
DASHED
 62
     0
100
AcDbLine
 10
9937.21113684721
 20
13160.61888652706
 30
0.0
 11
9937.21113684721
 21
13159.81889152706
 31
0.0
  0
ARC
  5
88D
330
1020
100
AcDbEntity
  8
主製品
  6
DASHED
 62
     0
100
AcDbCircle
 10
9938.796696847209
 20
13159.51893652707
 30
0.0
 40
1.100003999999997
100
AcDbArc
 50
29.49428005093847
 51
89.99969505877565
  0
ARC
  5
88E
330
1020
100
AcDbEntity
  8
主製品
  6
DASHED
 62
     0
100
AcDbCircle
 10
9938.796696847209
 20
13159.51893652707
 30
0.0
 40
0.300006
100
AcDbArc
 50
29.49453005086332
 51
89.99888705873596
  0
LINE
  5
88F
330
1020
100
AcDbEntity
  8
主製品
  6
DASHED
 62
     0
100
AcDbLine
 10
9937.21113684721
 20
13160.61888652706
 30
0.0
 11
9938.796696847209
 21
13160.61888652706
 31
0.0
  0
LINE
  5
890
330
1020
100
AcDbEntity
  8
主製品
  6
DASHED
 62
     0
100
AcDbLine
 10
9937.21113684721
 20
13159.81889152706
 30
0.0
 11
9938.796696847209
 21
13159.81889152706
 31
0.0
  0
LINE
  5
891
330
1020
100
AcDbEntity
  8
主製品
  6
DASHED
 62
     0
100
AcDbLine
 10
9942.225681847205
 20
13159.81889152706
 30
0.0
 11
9944.711131847206
 21
13159.81889152706
 31
0.0
  0
LINE
  5
892
330
1020
100
AcDbEntity
  8
主製品
  6
DASHED
 62
     0
100
AcDbLine
 10
9942.225681847205
 20
13160.61888652706
 30
0.0
 11
9944.711111847212
 21
13160.61888652706
 31
0.0
  0
ARC
  5
893
330
1020
100
AcDbEntity
  8
主製品
  6
DASHED
 62
     0
100
AcDbCircle
 10
9942.225681847205
 20
13159.51893652707
 30
0.0
 40
0.2999985
100
AcDbArc
 50
89.99876505873409
 51
150.5060430666379
  0
ARC
  5
894
330
1020
100
AcDbEntity
  8
主製品
  6
DASHED
 62
     0
100
AcDbCircle
 10
9942.225681847205
 20
13159.51893652707
 30
0.0
 40
1.099998
100
AcDbArc
 50
89.99966505882477
 51
150.5057840667346
  0
ARC
  5
895
330
1020
100
AcDbEntity
  8
主製品
  6
DASHED
 62
     0
100
AcDbCircle
 10
9944.711131847206
 20
13159.31889152706
 30
0.0
 40
0.5
100
AcDbArc
 50
0.0000000470034075
 51
90.00000005878026
  0
ARC
  5
896
330
1020
100
AcDbEntity
  8
主製品
  6
DASHED
 62
     0
100
AcDbCircle
 10
9944.711111847212
 20
13159.31888652707
 30
0.0
 40
1.3
100
AcDbArc
 50
0.0000000470034075
 51
90.00000005878026
  0
LINE
  5
897
330
1020
100
AcDbEntity
  8
主製品
  6
DASHED
 62
     0
100
AcDbLine
 10
9945.211131847205
 20
13159.31889152706
 30
0.0
 11
9945.211131847205
 21
13152.91897152706
 31
0.0
  0
LINE
  5
898
330
1020
100
AcDbEntity
  8
主製品
  6
DASHED
 62
     0
100
AcDbLine
 10
9946.011111847212
 20
13159.31888652707
 30
0.0
 11
9946.011111847212
 21
13152.91899152706
 31
0.0
  0
LINE
  5
899
330
1020
100
AcDbEntity
  8
主製品
  6
DASHED
 62
     0
100
AcDbLine
 10
9944.711111847205
 20
13151.61899152706
 30
0.0
 11
9827.463111847205
 21
13151.61899152706
 31
0.0
  0
ARC
  5
89A
330
1020
100
AcDbEntity
  8
主製品
  6
DASHED
 62
     0
100
AcDbCircle
 10
9827.463111847205
 20
13152.91899152706
 30
0.0
 40
1.3
100
AcDbArc
 50
180.0000000705572
 51
270.0000000822821
  0
ARC
  5
89B
330
1020
100
AcDbEntity
  8
主製品
  6
DASHED
 62
     0
100
AcDbCircle
 10
9944.711111847205
 20
13152.91899152706
 30
0.0
 40
1.3
100
AcDbArc
 50
270.0000000352786
 51
0.0000000470034075
  0
LINE
  5
89C
330
1020
100
AcDbEntity
  8
主製品
  6
DASHED
 62
     0
100
AcDbLine
 10
9944.711131847206
 20
13152.41897152706
 30
0.0
 11
9827.463091847207
 21
13152.41897152706
 31
0.0
  0
ARC
  5
89D
330
1020
100
AcDbEntity
  8
主製品
  6
DASHED
 62
     0
100
AcDbCircle
 10
9827.463091847207
 20
13152.91897152706
 30
0.0
 40
0.5
100
AcDbArc
 50
180.0000000705572
 51
270.0000000822821
  0
ARC
  5
89E
330
1020
100
AcDbEntity
  8
主製品
  6
DASHED
 62
     0
100
AcDbCircle
 10
9944.711131847206
 20
13152.91897152706
 30
0.0
 40
0.5
100
AcDbArc
 50
270.0000000352786
 51
0.0000000470034075
  0
ARC
  5
89F
330
1020
100
AcDbEntity
  8
主製品
  6
DASHED
 62
     0
100
AcDbCircle
 10
9825.663091847211
 20
13160.31893652706
 30
0.0
 40
1.3
100
AcDbArc
 50
0.0000000470034075
 51
90.00000005878026
  0
LINE
  5
8A0
330
1020
100
AcDbEntity
  8
主製品
  6
DASHED
 62
     0
100
AcDbLine
 10
9826.163111847206
 20
13152.91899152706
 30
0.0
 11
9826.163111847206
 21
13160.31895652706
 31
0.0
  0
ARC
  5
8A1
330
1020
100
AcDbEntity
  8
主製品
  6
DASHED
 62
     0
100
AcDbCircle
 10
9825.663111847205
 20
13160.31895652706
 30
0.0
 40
0.5
100
AcDbArc
 50
0.0000000470034075
 51
90.00000005878026
  0
LINE
  5
8A2
330
1020
100
AcDbEntity
  8
主製品
  6
DASHED
 62
     0
100
AcDbLine
 10
9826.963091847209
 20
13152.91897152706
 30
0.0
 11
9826.963091847209
 21
13160.31893652706
 31
0.0
  0
LINE
  5
8A3
330
1020
100
AcDbEntity
  8
主製品
  6
DASHED
 62
     0
100
AcDbLine
 10
9825.663111847205
 20
13160.81895652706
 30
0.0
 11
9815.963001847206
 21
13160.81895652706
 31
0.0
  0
LINE
  5
8A4
330
1020
100
AcDbEntity
  8
主製品
  6
DASHED
 62
     0
100
AcDbLine
 10
9825.663091847211
 20
13161.61893652706
 30
0.0
 11
9815.963001847206
 21
13161.61893652706
 31
0.0
  0
LINE
  5
8A5
330
1020
100
AcDbEntity
  8
主製品
  6
DASHED
 62
     0
100
AcDbLine
 10
9815.963001847206
 20
13161.61893652706
 30
0.0
 11
9815.963001847206
 21
13160.81895652706
 31
0.0
  0
ARC
  5
8A7
330
1020
100
AcDbEntity
  8
主製品
  6
DASHED
 62
     0
100
AcDbCircle
 10
10180.20712184721
 20
13160.48874652706
 30
0.0
 40
1.669801499999999
100
AcDbArc
 50
209.4941600742997
 51
330.5058500901174
  0
ARC
  5
8A8
330
1020
100
AcDbEntity
  8
主製品
  6
DASHED
 62
     0
100
AcDbCircle
 10
10180.20712184721
 20
13160.48874652706
 30
0.0
 40
0.8698020000000001
100
AcDbArc
 50
209.4941200743478
 51
330.5058900901857
  0
LINE
  5
8A9
330
1020
100
AcDbEntity
  8
主製品
  6
DASHED
 62
     0
100
AcDbLine
 10
10176.90713684721
 20
13160.61888652706
 30
0.0
 11
10176.90713684721
 21
13159.81889152706
 31
0.0
  0
ARC
  5
8AA
330
1020
100
AcDbEntity
  8
主製品
  6
DASHED
 62
     0
100
AcDbCircle
 10
10178.49269684721
 20
13159.51893652707
 30
0.0
 40
1.100003999999997
100
AcDbArc
 50
29.49428005093847
 51
89.99969505877565
  0
ARC
  5
8AB
330
1020
100
AcDbEntity
  8
主製品
  6
DASHED
 62
     0
100
AcDbCircle
 10
10178.49269684721
 20
13159.51893652707
 30
0.0
 40
0.300006
100
AcDbArc
 50
29.49453005086332
 51
89.99888705873596
  0
LINE
  5
8AC
330
1020
100
AcDbEntity
  8
主製品
  6
DASHED
 62
     0
100
AcDbLine
 10
10176.90713684721
 20
13160.61888652706
 30
0.0
 11
10178.49269684721
 21
13160.61888652706
 31
0.0
  0
LINE
  5
8AD
330
1020
100
AcDbEntity
  8
主製品
  6
DASHED
 62
     0
100
AcDbLine
 10
10176.90713684721
 20
13159.81889152706
 30
0.0
 11
10178.49269684721
 21
13159.81889152706
 31
0.0
  0
LINE
  5
8AE
330
1020
100
AcDbEntity
  8
主製品
  6
DASHED
 62
     0
100
AcDbLine
 10
10181.9216818472
 20
13159.81889152706
 30
0.0
 11
10184.4071318472
 21
13159.81889152706
 31
0.0
  0
LINE
  5
8AF
330
1020
100
AcDbEntity
  8
主製品
  6
DASHED
 62
     0
100
AcDbLine
 10
10181.9216818472
 20
13160.61888652706
 30
0.0
 11
10184.40711184721
 21
13160.61888652706
 31
0.0
  0
ARC
  5
8B0
330
1020
100
AcDbEntity
  8
主製品
  6
DASHED
 62
     0
100
AcDbCircle
 10
10181.9216818472
 20
13159.51893652707
 30
0.0
 40
0.2999985
100
AcDbArc
 50
89.99876505873409
 51
150.5060430666379
  0
ARC
  5
8B1
330
1020
100
AcDbEntity
  8
主製品
  6
DASHED
 62
     0
100
AcDbCircle
 10
10181.9216818472
 20
13159.51893652707
 30
0.0
 40
1.099998
100
AcDbArc
 50
89.99966505882477
 51
150.5057840667346
  0
ARC
  5
8B2
330
1020
100
AcDbEntity
  8
主製品
  6
DASHED
 62
     0
100
AcDbCircle
 10
10184.4071318472
 20
13159.31889152706
 30
0.0
 40
0.5
100
AcDbArc
 50
0.0000000470034075
 51
90.00000005878026
  0
ARC
  5
8B3
330
1020
100
AcDbEntity
  8
主製品
  6
DASHED
 62
     0
100
AcDbCircle
 10
10184.40711184721
 20
13159.31888652707
 30
0.0
 40
1.3
100
AcDbArc
 50
0.0000000470034075
 51
90.00000005878026
  0
LINE
  5
8B4
330
1020
100
AcDbEntity
  8
主製品
  6
DASHED
 62
     0
100
AcDbLine
 10
10184.9071318472
 20
13159.31889152706
 30
0.0
 11
10184.9071318472
 21
13152.91897152706
 31
0.0
  0
LINE
  5
8B5
330
1020
100
AcDbEntity
  8
主製品
  6
DASHED
 62
     0
100
AcDbLine
 10
10185.70711184721
 20
13159.31888652707
 30
0.0
 11
10185.70711184721
 21
13152.91899152706
 31
0.0
  0
LINE
  5
8B6
330
1020
100
AcDbEntity
  8
主製品
  6
DASHED
 62
     0
100
AcDbLine
 10
10184.4071118472
 20
13151.61899152706
 30
0.0
 11
10067.1591118472
 21
13151.61899152706
 31
0.0
  0
ARC
  5
8B7
330
1020
100
AcDbEntity
  8
主製品
  6
DASHED
 62
     0
100
AcDbCircle
 10
10067.1591118472
 20
13152.91899152706
 30
0.0
 40
1.3
100
AcDbArc
 50
180.0000000705572
 51
270.0000000822821
  0
ARC
  5
8B8
330
1020
100
AcDbEntity
  8
主製品
  6
DASHED
 62
     0
100
AcDbCircle
 10
10184.4071118472
 20
13152.91899152706
 30
0.0
 40
1.3
100
AcDbArc
 50
270.0000000352786
 51
0.0000000470034075
  0
LINE
  5
8B9
330
1020
100
AcDbEntity
  8
主製品
  6
DASHED
 62
     0
100
AcDbLine
 10
10184.4071318472
 20
13152.41897152706
 30
0.0
 11
10067.1590918472
 21
13152.41897152706
 31
0.0
  0
ARC
  5
8BA
330
1020
100
AcDbEntity
  8
主製品
  6
DASHED
 62
     0
100
AcDbCircle
 10
10067.1590918472
 20
13152.91897152706
 30
0.0
 40
0.5
100
AcDbArc
 50
180.0000000705572
 51
270.0000000822821
  0
ARC
  5
8BB
330
1020
100
AcDbEntity
  8
主製品
  6
DASHED
 62
     0
100
AcDbCircle
 10
10184.4071318472
 20
13152.91897152706
 30
0.0
 40
0.5
100
AcDbArc
 50
270.0000000352786
 51
0.0000000470034075
  0
ARC
  5
8BC
330
1020
100
AcDbEntity
  8
主製品
  6
DASHED
 62
     0
100
AcDbCircle
 10
10065.35909184721
 20
13160.31893652706
 30
0.0
 40
1.3
100
AcDbArc
 50
0.0000000470034075
 51
90.00000005878026
  0
LINE
  5
8BD
330
1020
100
AcDbEntity
  8
主製品
  6
DASHED
 62
     0
100
AcDbLine
 10
10065.8591118472
 20
13152.91899152706
 30
0.0
 11
10065.8591118472
 21
13160.31895652706
 31
0.0
  0
ARC
  5
8BE
330
1020
100
AcDbEntity
  8
主製品
  6
DASHED
 62
     0
100
AcDbCircle
 10
10065.3591118472
 20
13160.31895652706
 30
0.0
 40
0.5
100
AcDbArc
 50
0.0000000470034075
 51
90.00000005878026
  0
LINE
  5
8BF
330
1020
100
AcDbEntity
  8
主製品
  6
DASHED
 62
     0
100
AcDbLine
 10
10066.6590918472
 20
13152.91897152706
 30
0.0
 11
10066.6590918472
 21
13160.31893652706
 31
0.0
  0
LINE
  5
8C0
330
1020
100
AcDbEntity
  8
主製品
  6
DASHED
 62
     0
100
AcDbLine
 10
10065.3591118472
 20
13160.81895652706
 30
0.0
 11
10055.6590018472
 21
13160.81895652706
 31
0.0
  0
LINE
  5
8C1
330
1020
100
AcDbEntity
  8
主製品
  6
DASHED
 62
     0
100
AcDbLine
 10
10065.35909184721
 20
13161.61893652706
 30
0.0
 11
10055.6590018472
 21
13161.61893652706
 31
0.0
  0
LINE
  5
8C2
330
1020
100
AcDbEntity
  8
主製品
  6
DASHED
 62
     0
100
AcDbLine
 10
10055.6590018472
 20
13161.61893652706
 30
0.0
 11
10055.6590018472
 21
13160.81895652706
 31
0.0
  0
DIMENSION
  5
8C4
330
1020
100
AcDbEntity
  8
0
100
AcDbDimension
  2
*D30
 10
9826.163111847201
 20
13132.43446599689
 30
0.0
 11
9886.087111847203
 21
13135.93446599689
 31
0.0
 70
    32
 71
     5
 42
119.8480000000054
  3
ISO-25
100
AcDbAlignedDimension
 13
9946.011111847205
 23
13152.91899152813
 33
0.0
 14
9826.163111847201
 24
13152.91899152813
 34
0.0
100
AcDbRotatedDimension
1001
ACAD
1000
DSTYLE
1002
{
1070
   271
1070
     0
1002
}
  0
DIMENSION
  5
8E5
330
1020
100
AcDbEntity
  8
0
100
AcDbDimension
  2
*D29
 10
10065.85911184721
 20
13132.43446599689
 30
0.0
 11
10125.7831118472
 21
13135.93446599689
 31
0.0
 70
    32
 71
     5
 42
119.8479999999908
  3
ISO-25
100
AcDbAlignedDimension
 13
10185.7071118472
 23
13152.91899152813
 33
0.0
 14
10065.85911184721
 24
13152.91899152813
 34
0.0
100
AcDbRotatedDimension
1001
ACAD
1000
DSTYLE
1002
{
1070
   271
1070
     0
1002
}
  0
DIMENSION
  5
918
330
1020
100
AcDbEntity
  8
0
100
AcDbDimension
  2
*D28
 10
9930.658996915189
 20
13074.5444046985
 30
0.0
 11
9941.159041915188
 21
13078.0444046985
 31
0.0
 70
    32
 71
     5
 42
21.00008999999955
  3
ISO-25
100
AcDbAlignedDimension
 13
9951.659086915189
 23
13057.84697624017
 33
0.0
 14
9930.658996915189
 24
13059.14697623911
 34
0.0
100
AcDbRotatedDimension
1001
ACAD
1000
DSTYLE
1002
{
1070
   271
1070
     2
1002
}
  0
LINE
  5
976
102
{ACAD_REACTORS
330
181F
102
}
330
1020
100
AcDbEntity
  8
主製品
  6
Continuous
 62
     7
100
AcDbLine
 10
10128.0158415264
 20
12743.09696165168
 30
0.0
 11
10130.5012915264
 21
12743.09696165168
 31
0.0
  0
ARC
  5
977
102
{ACAD_REACTORS
330
181F
102
}
330
1020
100
AcDbEntity
  8
主製品
  6
Continuous
 62
     7
100
AcDbCircle
 10
10128.0158415264
 20
12742.79700665169
 30
0.0
 40
1.099998
100
AcDbArc
 50
89.99966505880522
 51
150.5057840667249
  0
ARC
  5
978
102
{ACAD_REACTORS
330
181F
102
}
330
1020
100
AcDbEntity
  8
主製品
  6
Continuous
 62
     7
100
AcDbCircle
 10
10128.0158415264
 20
12742.79700665169
 30
0.0
 40
0.2999985
100
AcDbArc
 50
89.99876505871453
 51
150.5060430666507
  0
LINE
  5
979
102
{ACAD_REACTORS
330
181F
102
}
330
1020
100
AcDbEntity
  8
主製品
  6
Continuous
 62
     7
100
AcDbLine
 10
10128.0158415264
 20
12743.89695665168
 30
0.0
 11
10130.50127152639
 21
12743.89695665168
 31
0.0
  0
ARC
  5
97A
102
{ACAD_REACTORS
330
181F
102
}
330
1020
100
AcDbEntity
  8
主製品
  6
Continuous
 62
     7
100
AcDbCircle
 10
10126.3012815264
 20
12743.76681665168
 30
0.0
 40
0.8698020000000001
100
AcDbArc
 50
209.4941200743574
 51
330.505890090176
  0
LINE
  5
97B
102
{ACAD_REACTORS
330
181F
102
}
330
1020
100
AcDbEntity
  8
主製品
  6
Continuous
 62
     7
100
AcDbLine
 10
10123.0012965264
 20
12743.09696165168
 30
0.0
 11
10124.58685652639
 21
12743.09696165168
 31
0.0
  0
ARC
  5
97C
102
{ACAD_REACTORS
330
181F
102
}
330
1020
100
AcDbEntity
  8
主製品
  6
Continuous
 62
     7
100
AcDbCircle
 10
10124.58685652639
 20
12742.79700665169
 30
0.0
 40
0.300006
100
AcDbArc
 50
29.49453005081475
 51
89.99888705871644
  0
ARC
  5
97D
102
{ACAD_REACTORS
330
181F
102
}
330
1020
100
AcDbEntity
  8
主製品
  6
Continuous
 62
     7
100
AcDbCircle
 10
10124.58685652639
 20
12742.79700665169
 30
0.0
 40
1.100003999999997
100
AcDbArc
 50
29.49428005095129
 51
89.99969505875611
  0
LINE
  5
97E
102
{ACAD_REACTORS
330
181F
102
}
330
1020
100
AcDbEntity
  8
主製品
  6
Continuous
 62
     7
100
AcDbLine
 10
10123.0012965264
 20
12743.89695665168
 30
0.0
 11
10124.58685652639
 21
12743.89695665168
 31
0.0
  0
LINE
  5
97F
102
{ACAD_REACTORS
330
181F
102
}
330
1020
100
AcDbEntity
  8
主製品
  6
Continuous
 62
     7
100
AcDbLine
 10
10123.0012965264
 20
12743.89695665168
 30
0.0
 11
10123.0012965264
 21
12743.09696165168
 31
0.0
  0
ARC
  5
980
102
{ACAD_REACTORS
330
181F
102
}
330
1020
100
AcDbEntity
  8
主製品
  6
Continuous
 62
     7
100
AcDbCircle
 10
10126.3012815264
 20
12743.76681665168
 30
0.0
 40
1.669801499999999
100
AcDbArc
 50
209.4941600742901
 51
330.5058500901238
  0
ARC
  5
981
102
{ACAD_REACTORS
330
181F
102
}
330
1020
100
AcDbEntity
  8
主製品
  6
Continuous
 62
     7
100
AcDbCircle
 10
10130.50127152639
 20
12742.59695665168
 30
0.0
 40
1.3
100
AcDbArc
 50
0.0000000470034075
 51
90.00000005876076
  0
ARC
  5
982
102
{ACAD_REACTORS
330
181F
102
}
330
1020
100
AcDbEntity
  8
主製品
  6
Continuous
 62
     7
100
AcDbCircle
 10
10130.5012915264
 20
12742.59696165168
 30
0.0
 40
0.5
100
AcDbArc
 50
0.0000000470034075
 51
90.00000005876076
  0
LINE
  5
983
102
{ACAD_REACTORS
330
181F
102
}
330
1020
100
AcDbEntity
  8
主製品
  6
Continuous
 62
     7
100
AcDbLine
 10
10131.8012715264
 20
12742.59695665168
 30
0.0
 11
10131.8012715264
 21
12736.19706165168
 31
0.0
  0
LINE
  5
984
102
{ACAD_REACTORS
330
181F
102
}
330
1020
100
AcDbEntity
  8
主製品
  6
Continuous
 62
     7
100
AcDbLine
 10
10131.0012915264
 20
12742.59696165168
 30
0.0
 11
10131.0012915264
 21
12736.19704165168
 31
0.0
  0
LINE
  5
985
102
{ACAD_REACTORS
330
181F
102
}
330
1020
100
AcDbEntity
  8
主製品
  6
Continuous
 62
     7
100
AcDbLine
 10
10130.50127152639
 20
12734.89706165169
 30
0.0
 11
9963.101411526396
 21
12734.89706165169
 31
0.0
  0
ARC
  5
986
102
{ACAD_REACTORS
330
181F
102
}
330
1020
100
AcDbEntity
  8
主製品
  6
Continuous
 62
     7
100
AcDbCircle
 10
10130.50127152639
 20
12736.19706165168
 30
0.0
 40
1.3
100
AcDbArc
 50
270.0000000352525
 51
0.0000000470034075
  0
ARC
  5
987
102
{ACAD_REACTORS
330
181F
102
}
330
1020
100
AcDbEntity
  8
主製品
  6
Continuous
 62
     7
100
AcDbCircle
 10
9963.101411526396
 20
12736.19706165168
 30
0.0
 40
1.3
100
AcDbArc
 50
180.0000000705051
 51
270.0000000822624
  0
LINE
  5
988
102
{ACAD_REACTORS
330
181F
102
}
330
1020
100
AcDbEntity
  8
主製品
  6
Continuous
 62
     7
100
AcDbLine
 10
10130.5012915264
 20
12735.69704165168
 30
0.0
 11
9963.101391526404
 21
12735.69704165169
 31
0.0
  0
ARC
  5
989
102
{ACAD_REACTORS
330
181F
102
}
330
1020
100
AcDbEntity
  8
主製品
  6
Continuous
 62
     7
100
AcDbCircle
 10
10130.5012915264
 20
12736.19704165168
 30
0.0
 40
0.5
100
AcDbArc
 50
270.0000000352525
 51
0.0000000470034075
  0
ARC
  5
98A
102
{ACAD_REACTORS
330
181F
102
}
330
1020
100
AcDbEntity
  8
主製品
  6
Continuous
 62
     7
100
AcDbCircle
 10
9963.101391526404
 20
12736.19704165168
 30
0.0
 40
0.5
100
AcDbArc
 50
180.0000000705051
 51
270.0000000822624
  0
LINE
  5
98B
102
{ACAD_REACTORS
330
181F
102
}
330
1020
100
AcDbEntity
  8
主製品
  6
Continuous
 62
     7
100
AcDbLine
 10
9961.461341526403
 20
12744.89700665168
 30
0.0
 11
9956.096756526401
 21
12744.89700665168
 31
0.0
  0
LINE
  5
98C
102
{ACAD_REACTORS
330
181F
102
}
330
1020
100
AcDbEntity
  8
主製品
  6
Continuous
 62
     7
100
AcDbLine
 10
9962.601391526401
 20
12736.19704165168
 30
0.0
 11
9962.601391526396
 21
12743.59700665168
 31
0.0
  0
ARC
  5
98D
102
{ACAD_REACTORS
330
181F
102
}
330
1020
100
AcDbEntity
  8
主製品
  6
Continuous
 62
     7
100
AcDbCircle
 10
9961.301391526397
 20
12743.59700665168
 30
0.0
 40
1.3
100
AcDbArc
 50
0.0000000470034075
 51
90.00000005876076
  0
LINE
  5
98E
102
{ACAD_REACTORS
330
181F
102
}
330
1020
100
AcDbEntity
  8
主製品
  6
Continuous
 62
     7
100
AcDbLine
 10
9961.801411526396
 20
12736.19706165168
 30
0.0
 11
9961.801411526396
 21
12743.59702665168
 31
0.0
  0
ARC
  5
98F
102
{ACAD_REACTORS
330
181F
102
}
330
1020
100
AcDbEntity
  8
主製品
  6
Continuous
 62
     7
100
AcDbCircle
 10
9961.301411526399
 20
12743.59702665168
 30
0.0
 40
0.5
100
AcDbArc
 50
0.0000000470034075
 51
90.00000005876076
  0
LINE
  5
990
102
{ACAD_REACTORS
330
181F
102
}
330
1020
100
AcDbEntity
  8
主製品
  6
Continuous
 62
     7
100
AcDbLine
 10
9961.301411526399
 20
12744.09702665168
 30
0.0
 11
9955.936651526402
 21
12744.09702665168
 31
0.0
  0
ARC
  5
991
102
{ACAD_REACTORS
330
181F
102
}
330
1020
100
AcDbEntity
  8
主製品
  6
Continuous
 62
     7
100
AcDbCircle
 10
9953.801131526397
 20
12744.89700665168
 30
0.0
 40
1.200004499999999
100
AcDbArc
 50
211.3328400745615
 51
328.6678500898815
  0
ARC
  5
992
102
{ACAD_REACTORS
330
181F
102
}
330
1020
100
AcDbEntity
  8
主製品
  6
Continuous
 62
     7
100
AcDbCircle
 10
9955.936651526402
 20
12743.59698665168
 30
0.0
 40
0.5000175000000004
100
AcDbArc
 50
90.00100805871632
 51
148.6665650664204
  0
ARC
  5
993
102
{ACAD_REACTORS
330
181F
102
}
330
1020
100
AcDbEntity
  8
主製品
  6
Continuous
 62
     7
100
AcDbCircle
 10
9953.801131526397
 20
12744.89700665168
 30
0.0
 40
2.000000999999997
100
AcDbArc
 50
211.3322500746264
 51
328.6677400898637
  0
ARC
  5
994
102
{ACAD_REACTORS
330
181F
102
}
330
1020
100
AcDbEntity
  8
主製品
  6
Continuous
 62
     7
100
AcDbCircle
 10
9955.936651526402
 20
12743.59698665168
 30
0.0
 40
1.299973499999999
100
AcDbArc
 50
89.99949705872579
 51
148.6684120664063
  0
LINE
  5
995
102
{ACAD_REACTORS
330
181F
102
}
330
1020
100
AcDbEntity
  8
主製品
  6
Continuous
 62
     7
100
AcDbLine
 10
9961.301391526397
 20
12744.89700665168
 30
0.0
 11
9955.936651526402
 21
12744.89700665168
 31
0.0
  0
ARC
  5
996
102
{ACAD_REACTORS
330
181F
102
}
330
1020
100
AcDbEntity
  8
主製品
  6
Continuous
 62
     7
100
AcDbCircle
 10
9951.665896526396
 20
12743.59698665168
 30
0.0
 40
1.299995999999999
100
AcDbArc
 50
31.3320400511448
 51
90.000199058786
  0
ARC
  5
997
102
{ACAD_REACTORS
330
181F
102
}
330
1020
100
AcDbEntity
  8
主製品
  6
Continuous
 62
     7
100
AcDbCircle
 10
9951.665896526396
 20
12743.59698665168
 30
0.0
 40
0.4999935000000003
100
AcDbArc
 50
31.331870051124
 51
90.00053505873642
  0
LINE
  5
998
102
{ACAD_REACTORS
330
181F
102
}
330
1020
100
AcDbEntity
  8
主製品
  6
Continuous
 62
     7
100
AcDbLine
 10
9951.8258665264
 20
12744.89700665168
 30
0.0
 11
9941.761256526399
 21
12744.89700665168
 31
0.0
  0
LINE
  5
999
102
{ACAD_REACTORS
330
181F
102
}
330
1020
100
AcDbEntity
  8
主製品
  6
Continuous
 62
     7
100
AcDbLine
 10
9951.665896526396
 20
12744.09702665168
 30
0.0
 11
9941.601301526397
 21
12744.09702665168
 31
0.0
  0
LINE
  5
99A
102
{ACAD_REACTORS
330
181F
102
}
330
1020
100
AcDbEntity
  8
主製品
  6
Continuous
 62
     7
100
AcDbLine
 10
9951.665896526396
 20
12744.89700665168
 30
0.0
 11
9941.601301526397
 21
12744.89700665168
 31
0.0
  0
LINE
  5
99B
102
{ACAD_REACTORS
330
181F
102
}
330
1020
100
AcDbEntity
  8
主製品
  6
Continuous
 62
     7
100
AcDbLine
 10
9941.601301526397
 20
12744.89700665168
 30
0.0
 11
9941.601301526397
 21
12744.09702665168
 31
0.0
  0
ARC
  5
99C
330
1020
100
AcDbEntity
  8
主製品
  6
Continuous
 62
     0
100
AcDbCircle
 10
10120.2841218472
 20
12865.34098865669
 30
0.0
 40
1.669801499999999
100
AcDbArc
 50
209.4941600742997
 51
330.5058500901174
  0
ARC
  5
99D
330
1020
100
AcDbEntity
  8
主製品
  6
Continuous
 62
     0
100
AcDbCircle
 10
10120.2841218472
 20
12865.34098865669
 30
0.0
 40
0.8698020000000001
100
AcDbArc
 50
209.4941200743478
 51
330.5058900901857
  0
LINE
  5
99E
330
1020
100
AcDbEntity
  8
主製品
  6
Continuous
 62
     0
100
AcDbLine
 10
10116.98413684721
 20
12865.47112865669
 30
0.0
 11
10116.98413684721
 21
12864.67113365669
 31
0.0
  0
ARC
  5
99F
330
1020
100
AcDbEntity
  8
主製品
  6
Continuous
 62
     0
100
AcDbCircle
 10
10118.56969684721
 20
12864.37117865669
 30
0.0
 40
1.100003999999997
100
AcDbArc
 50
29.49428005093847
 51
89.99969505877565
  0
ARC
  5
9A0
330
1020
100
AcDbEntity
  8
主製品
  6
Continuous
 62
     0
100
AcDbCircle
 10
10118.56969684721
 20
12864.37117865669
 30
0.0
 40
0.300006
100
AcDbArc
 50
29.49453005086332
 51
89.99888705873596
  0
LINE
  5
9A1
330
1020
100
AcDbEntity
  8
主製品
  6
Continuous
 62
     0
100
AcDbLine
 10
10116.98413684721
 20
12865.47112865669
 30
0.0
 11
10118.56969684721
 21
12865.47112865669
 31
0.0
  0
LINE
  5
9A2
330
1020
100
AcDbEntity
  8
主製品
  6
Continuous
 62
     0
100
AcDbLine
 10
10116.98413684721
 20
12864.67113365669
 30
0.0
 11
10118.56969684721
 21
12864.67113365669
 31
0.0
  0
LINE
  5
9A3
330
1020
100
AcDbEntity
  8
主製品
  6
Continuous
 62
     0
100
AcDbLine
 10
10121.9986818472
 20
12864.67113365669
 30
0.0
 11
10124.4841318472
 21
12864.67113365669
 31
0.0
  0
LINE
  5
9A4
330
1020
100
AcDbEntity
  8
主製品
  6
Continuous
 62
     0
100
AcDbLine
 10
10121.9986818472
 20
12865.47112865669
 30
0.0
 11
10124.48411184721
 21
12865.47112865669
 31
0.0
  0
ARC
  5
9A5
330
1020
100
AcDbEntity
  8
主製品
  6
Continuous
 62
     0
100
AcDbCircle
 10
10121.9986818472
 20
12864.37117865669
 30
0.0
 40
0.2999985
100
AcDbArc
 50
89.99876505873409
 51
150.5060430666379
  0
ARC
  5
9A6
330
1020
100
AcDbEntity
  8
主製品
  6
Continuous
 62
     0
100
AcDbCircle
 10
10121.9986818472
 20
12864.37117865669
 30
0.0
 40
1.099998
100
AcDbArc
 50
89.99966505882477
 51
150.5057840667346
  0
ARC
  5
9A7
330
1020
100
AcDbEntity
  8
主製品
  6
Continuous
 62
     0
100
AcDbCircle
 10
10124.4841318472
 20
12864.17113365668
 30
0.0
 40
0.5
100
AcDbArc
 50
0.0000000470034075
 51
90.00000005878026
  0
ARC
  5
9A8
330
1020
100
AcDbEntity
  8
主製品
  6
Continuous
 62
     0
100
AcDbCircle
 10
10124.48411184721
 20
12864.17112865669
 30
0.0
 40
1.3
100
AcDbArc
 50
0.0000000470034075
 51
90.00000005878026
  0
LINE
  5
9A9
330
1020
100
AcDbEntity
  8
主製品
  6
Continuous
 62
     0
100
AcDbLine
 10
10124.9841318472
 20
12864.17113365668
 30
0.0
 11
10124.9841318472
 21
12857.77121365669
 31
0.0
  0
LINE
  5
9AA
330
1020
100
AcDbEntity
  8
主製品
  6
Continuous
 62
     0
100
AcDbLine
 10
10125.78411184721
 20
12864.17112865669
 30
0.0
 11
10125.78411184721
 21
12857.77123365668
 31
0.0
  0
LINE
  5
9AB
330
1020
100
AcDbEntity
  8
主製品
  6
Continuous
 62
     0
100
AcDbLine
 10
10124.4841118472
 20
12856.47123365669
 30
0.0
 11
9947.311111847206
 21
12856.47123365669
 31
0.0
  0
ARC
  5
9AC
330
1020
100
AcDbEntity
  8
主製品
  6
Continuous
 62
     0
100
AcDbCircle
 10
9947.311111847206
 20
12857.77123365668
 30
0.0
 40
1.3
100
AcDbArc
 50
180.0000000705572
 51
270.0000000822821
  0
ARC
  5
9AD
330
1020
100
AcDbEntity
  8
主製品
  6
Continuous
 62
     0
100
AcDbCircle
 10
10124.4841118472
 20
12857.77123365668
 30
0.0
 40
1.3
100
AcDbArc
 50
270.0000000352786
 51
0.0000000470034075
  0
LINE
  5
9AE
330
1020
100
AcDbEntity
  8
主製品
  6
Continuous
 62
     0
100
AcDbLine
 10
10124.4841318472
 20
12857.27121365669
 30
0.0
 11
9947.311091847209
 21
12857.27121365669
 31
0.0
  0
ARC
  5
9AF
330
1020
100
AcDbEntity
  8
主製品
  6
Continuous
 62
     0
100
AcDbCircle
 10
9947.311091847209
 20
12857.77121365669
 30
0.0
 40
0.5
100
AcDbArc
 50
180.0000000705572
 51
270.0000000822821
  0
ARC
  5
9B0
330
1020
100
AcDbEntity
  8
主製品
  6
Continuous
 62
     0
100
AcDbCircle
 10
10124.4841318472
 20
12857.77121365669
 30
0.0
 40
0.5
100
AcDbArc
 50
270.0000000352786
 51
0.0000000470034075
  0
ARC
  5
9B1
330
1020
100
AcDbEntity
  8
主製品
  6
Continuous
 62
     0
100
AcDbCircle
 10
9945.511091847208
 20
12865.17117865669
 30
0.0
 40
1.3
100
AcDbArc
 50
0.0000000470034075
 51
90.00000005878026
  0
LINE
  5
9B2
330
1020
100
AcDbEntity
  8
主製品
  6
Continuous
 62
     0
100
AcDbLine
 10
9946.011111847205
 20
12857.77123365668
 30
0.0
 11
9946.011111847205
 21
12865.17119865669
 31
0.0
  0
ARC
  5
9B3
330
1020
100
AcDbEntity
  8
主製品
  6
Continuous
 62
     0
100
AcDbCircle
 10
9945.511111847205
 20
12865.17119865669
 30
0.0
 40
0.5
100
AcDbArc
 50
0.0000000470034075
 51
90.00000005878026
  0
LINE
  5
9B4
330
1020
100
AcDbEntity
  8
主製品
  6
Continuous
 62
     0
100
AcDbLine
 10
9946.811091847207
 20
12857.77121365669
 30
0.0
 11
9946.811091847207
 21
12865.17117865669
 31
0.0
  0
LINE
  5
9B5
330
1020
100
AcDbEntity
  8
主製品
  6
Continuous
 62
     0
100
AcDbLine
 10
9945.511111847205
 20
12865.67119865669
 30
0.0
 11
9935.811001847206
 21
12865.67119865669
 31
0.0
  0
LINE
  5
9B6
330
1020
100
AcDbEntity
  8
主製品
  6
Continuous
 62
     0
100
AcDbLine
 10
9945.511091847208
 20
12866.47117865669
 30
0.0
 11
9935.811001847206
 21
12866.47117865669
 31
0.0
  0
LINE
  5
9B7
330
1020
100
AcDbEntity
  8
主製品
  6
Continuous
 62
     0
100
AcDbLine
 10
9935.811001847206
 20
12866.47117865669
 30
0.0
 11
9935.811001847206
 21
12865.67119865669
 31
0.0
  0
DIMENSION
  5
9B8
330
1020
100
AcDbEntity
  8
0
100
AcDbDimension
  2
*D27
 10
9961.137881156705
 20
12856.47123365669
 30
0.0
 11
9957.637881156701
 21
12861.47120615669
 31
0.0
 70
    32
 71
     5
 42
9.99994499999957
  3
ISO-25
100
AcDbAlignedDimension
 13
9945.511091847208
 23
12866.47117865669
 33
0.0
 14
9947.311111849071
 24
12856.47123365669
 34
0.0
 50
90.0
100
AcDbRotatedDimension
1001
ACAD
1000
DSTYLE
1002
{
1070
   271
1070
     2
1002
}
  0
DIMENSION
  5
9BB
330
1020
100
AcDbEntity
  8
0
100
AcDbDimension
  2
*D26
 10
9946.811091847209
 20
12876.4774290567
 30
0.0
 11
9941.311046847209
 21
12879.9774290567
 31
0.0
 70
    32
 71
     5
 42
11.00009000000318
  3
ISO-25
100
AcDbAlignedDimension
 13
9935.811001847206
 23
12866.47117865669
 33
0.0
 14
9946.811091847209
 24
12865.17117865775
 34
0.0
100
AcDbRotatedDimension
1001
ACAD
1000
DSTYLE
1002
{
1070
   271
1070
     2
1002
}
  0
DIMENSION
  5
9BE
330
1020
100
AcDbEntity
  8
0
100
AcDbDimension
  2
*D25
 10
10138.95670837669
 20
12856.47123365669
 30
0.0
 11
10135.45670837669
 21
12860.97118115669
 31
0.0
 70
    32
 71
     5
 42
8.999895000002652
  3
ISO-25
100
AcDbAlignedDimension
 13
10124.48411184587
 23
12865.47112865669
 33
0.0
 14
10124.484111848
 24
12856.47123365669
 34
0.0
 50
90.0
100
AcDbRotatedDimension
1001
ACAD
1000
DSTYLE
1002
{
1070
   271
1070
     2
1002
}
  0
LINE
  5
9C1
102
{ACAD_REACTORS
330
185F
102
}
330
1020
100
AcDbEntity
  8
主製品
  6
DASHED
 62
     7
100
AcDbLine
 10
10307.78884152627
 20
12743.29703165275
 30
0.0
 11
10310.27429152627
 21
12743.29703165275
 31
0.0
  0
ARC
  5
9C2
102
{ACAD_REACTORS
330
185F
102
}
330
1020
100
AcDbEntity
  8
主製品
  6
DASHED
 62
     7
100
AcDbCircle
 10
10307.78884152627
 20
12742.99707665275
 30
0.0
 40
1.099998
100
AcDbArc
 50
89.99966505880522
 51
150.5057840667249
  0
ARC
  5
9C3
102
{ACAD_REACTORS
330
185F
102
}
330
1020
100
AcDbEntity
  8
主製品
  6
DASHED
 62
     7
100
AcDbCircle
 10
10307.78884152627
 20
12742.99707665275
 30
0.0
 40
0.2999985
100
AcDbArc
 50
89.99876505871453
 51
150.5060430666507
  0
LINE
  5
9C4
102
{ACAD_REACTORS
330
185F
102
}
330
1020
100
AcDbEntity
  8
主製品
  6
DASHED
 62
     7
100
AcDbLine
 10
10307.78884152627
 20
12744.09702665275
 30
0.0
 11
10310.27427152627
 21
12744.09702665274
 31
0.0
  0
ARC
  5
9C5
102
{ACAD_REACTORS
330
185F
102
}
330
1020
100
AcDbEntity
  8
主製品
  6
DASHED
 62
     7
100
AcDbCircle
 10
10306.07428152628
 20
12743.96688665275
 30
0.0
 40
0.8698020000000001
100
AcDbArc
 50
209.4941200743574
 51
330.505890090176
  0
LINE
  5
9C6
102
{ACAD_REACTORS
330
185F
102
}
330
1020
100
AcDbEntity
  8
主製品
  6
DASHED
 62
     7
100
AcDbLine
 10
10302.77429652629
 20
12743.29703165275
 30
0.0
 11
10304.35985652628
 21
12743.29703165275
 31
0.0
  0
ARC
  5
9C7
102
{ACAD_REACTORS
330
185F
102
}
330
1020
100
AcDbEntity
  8
主製品
  6
DASHED
 62
     7
100
AcDbCircle
 10
10304.35985652628
 20
12742.99707665275
 30
0.0
 40
0.300006
100
AcDbArc
 50
29.49453005081475
 51
89.99888705871644
  0
ARC
  5
9C8
102
{ACAD_REACTORS
330
185F
102
}
330
1020
100
AcDbEntity
  8
主製品
  6
DASHED
 62
     7
100
AcDbCircle
 10
10304.35985652628
 20
12742.99707665275
 30
0.0
 40
1.100003999999997
100
AcDbArc
 50
29.49428005095129
 51
89.99969505875611
  0
LINE
  5
9C9
102
{ACAD_REACTORS
330
185F
102
}
330
1020
100
AcDbEntity
  8
主製品
  6
DASHED
 62
     7
100
AcDbLine
 10
10302.77429652629
 20
12744.09702665275
 30
0.0
 11
10304.35985652628
 21
12744.09702665275
 31
0.0
  0
LINE
  5
9CA
102
{ACAD_REACTORS
330
185F
102
}
330
1020
100
AcDbEntity
  8
主製品
  6
DASHED
 62
     7
100
AcDbLine
 10
10302.77429652629
 20
12744.09702665275
 30
0.0
 11
10302.77429652629
 21
12743.29703165275
 31
0.0
  0
ARC
  5
9CB
102
{ACAD_REACTORS
330
185F
102
}
330
1020
100
AcDbEntity
  8
主製品
  6
DASHED
 62
     7
100
AcDbCircle
 10
10306.07428152628
 20
12743.96688665275
 30
0.0
 40
1.669801499999999
100
AcDbArc
 50
209.4941600742901
 51
330.5058500901238
  0
ARC
  5
9CC
102
{ACAD_REACTORS
330
185F
102
}
330
1020
100
AcDbEntity
  8
主製品
  6
DASHED
 62
     7
100
AcDbCircle
 10
10310.27427152627
 20
12742.79702665275
 30
0.0
 40
1.3
100
AcDbArc
 50
0.0000000470034075
 51
90.00000005876076
  0
ARC
  5
9CD
102
{ACAD_REACTORS
330
185F
102
}
330
1020
100
AcDbEntity
  8
主製品
  6
DASHED
 62
     7
100
AcDbCircle
 10
10310.27429152627
 20
12742.79703165274
 30
0.0
 40
0.5
100
AcDbArc
 50
0.0000000470034075
 51
90.00000005876076
  0
LINE
  5
9CE
102
{ACAD_REACTORS
330
185F
102
}
330
1020
100
AcDbEntity
  8
主製品
  6
DASHED
 62
     7
100
AcDbLine
 10
10311.57427152627
 20
12742.79702665275
 30
0.0
 11
10311.57427152629
 21
12736.39713165275
 31
0.0
  0
LINE
  5
9CF
102
{ACAD_REACTORS
330
185F
102
}
330
1020
100
AcDbEntity
  8
主製品
  6
DASHED
 62
     7
100
AcDbLine
 10
10310.77429152627
 20
12742.79703165274
 30
0.0
 11
10310.77429152627
 21
12736.39711165275
 31
0.0
  0
LINE
  5
9D0
102
{ACAD_REACTORS
330
185F
102
}
330
1020
100
AcDbEntity
  8
主製品
  6
DASHED
 62
     7
100
AcDbLine
 10
10310.27427152627
 20
12735.09713165275
 30
0.0
 11
10142.87441152627
 21
12735.09713165275
 31
0.0
  0
ARC
  5
9D1
102
{ACAD_REACTORS
330
185F
102
}
330
1020
100
AcDbEntity
  8
主製品
  6
DASHED
 62
     7
100
AcDbCircle
 10
10310.27427152627
 20
12736.39713165275
 30
0.0
 40
1.3
100
AcDbArc
 50
270.0000000352525
 51
0.0000000470034075
  0
ARC
  5
9D2
102
{ACAD_REACTORS
330
185F
102
}
330
1020
100
AcDbEntity
  8
主製品
  6
DASHED
 62
     7
100
AcDbCircle
 10
10142.87441152627
 20
12736.39713165275
 30
0.0
 40
1.3
100
AcDbArc
 50
180.0000000705051
 51
270.0000000822624
  0
LINE
  5
9D3
102
{ACAD_REACTORS
330
185F
102
}
330
1020
100
AcDbEntity
  8
主製品
  6
DASHED
 62
     7
100
AcDbLine
 10
10310.27429152627
 20
12735.89711165275
 30
0.0
 11
10142.87439152629
 21
12735.89711165275
 31
0.0
  0
ARC
  5
9D4
102
{ACAD_REACTORS
330
185F
102
}
330
1020
100
AcDbEntity
  8
主製品
  6
DASHED
 62
     7
100
AcDbCircle
 10
10310.27429152627
 20
12736.39711165275
 30
0.0
 40
0.5
100
AcDbArc
 50
270.0000000352525
 51
0.0000000470034075
  0
ARC
  5
9D5
102
{ACAD_REACTORS
330
185F
102
}
330
1020
100
AcDbEntity
  8
主製品
  6
DASHED
 62
     7
100
AcDbCircle
 10
10142.87439152629
 20
12736.39711165275
 30
0.0
 40
0.5
100
AcDbArc
 50
180.0000000705051
 51
270.0000000822624
  0
LINE
  5
9D6
102
{ACAD_REACTORS
330
185F
102
}
330
1020
100
AcDbEntity
  8
主製品
  6
DASHED
 62
     7
100
AcDbLine
 10
10141.23434152628
 20
12745.09707665274
 30
0.0
 11
10135.86975652627
 21
12745.09707665274
 31
0.0
  0
LINE
  5
9D7
102
{ACAD_REACTORS
330
185F
102
}
330
1020
100
AcDbEntity
  8
主製品
  6
DASHED
 62
     7
100
AcDbLine
 10
10142.37439152628
 20
12736.39711165275
 30
0.0
 11
10142.37439152628
 21
12743.79707665275
 31
0.0
  0
ARC
  5
9D8
102
{ACAD_REACTORS
330
185F
102
}
330
1020
100
AcDbEntity
  8
主製品
  6
DASHED
 62
     7
100
AcDbCircle
 10
10141.07439152627
 20
12743.79707665275
 30
0.0
 40
1.3
100
AcDbArc
 50
0.0000000470034075
 51
90.00000005876076
  0
LINE
  5
9D9
102
{ACAD_REACTORS
330
185F
102
}
330
1020
100
AcDbEntity
  8
主製品
  6
DASHED
 62
     7
100
AcDbLine
 10
10141.57441152627
 20
12736.39713165275
 30
0.0
 11
10141.57441152627
 21
12743.79709665275
 31
0.0
  0
ARC
  5
9DA
102
{ACAD_REACTORS
330
185F
102
}
330
1020
100
AcDbEntity
  8
主製品
  6
DASHED
 62
     7
100
AcDbCircle
 10
10141.07441152627
 20
12743.79709665275
 30
0.0
 40
0.5
100
AcDbArc
 50
0.0000000470034075
 51
90.00000005876076
  0
LINE
  5
9DB
102
{ACAD_REACTORS
330
185F
102
}
330
1020
100
AcDbEntity
  8
主製品
  6
DASHED
 62
     7
100
AcDbLine
 10
10141.07441152627
 20
12744.29709665275
 30
0.0
 11
10135.70965152628
 21
12744.29709665275
 31
0.0
  0
ARC
  5
9DC
102
{ACAD_REACTORS
330
185F
102
}
330
1020
100
AcDbEntity
  8
主製品
  6
DASHED
 62
     7
100
AcDbCircle
 10
10133.57413152628
 20
12745.09707665274
 30
0.0
 40
1.200004499999999
100
AcDbArc
 50
211.3328400745615
 51
328.6678500898815
  0
ARC
  5
9DD
102
{ACAD_REACTORS
330
185F
102
}
330
1020
100
AcDbEntity
  8
主製品
  6
DASHED
 62
     7
100
AcDbCircle
 10
10135.70965152628
 20
12743.79705665275
 30
0.0
 40
0.5000175000000004
100
AcDbArc
 50
90.00100805871632
 51
148.6665650664204
  0
ARC
  5
9DE
102
{ACAD_REACTORS
330
185F
102
}
330
1020
100
AcDbEntity
  8
主製品
  6
DASHED
 62
     7
100
AcDbCircle
 10
10133.57413152628
 20
12745.09707665274
 30
0.0
 40
2.000000999999997
100
AcDbArc
 50
211.3322500746264
 51
328.6677400898637
  0
ARC
  5
9DF
102
{ACAD_REACTORS
330
185F
102
}
330
1020
100
AcDbEntity
  8
主製品
  6
DASHED
 62
     7
100
AcDbCircle
 10
10135.70965152628
 20
12743.79705665275
 30
0.0
 40
1.299973499999999
100
AcDbArc
 50
89.99949705872579
 51
148.6684120664062
  0
LINE
  5
9E0
102
{ACAD_REACTORS
330
185F
102
}
330
1020
100
AcDbEntity
  8
主製品
  6
DASHED
 62
     7
100
AcDbLine
 10
10141.07439152627
 20
12745.09707665274
 30
0.0
 11
10135.70965152628
 21
12745.09707665274
 31
0.0
  0
ARC
  5
9E1
102
{ACAD_REACTORS
330
185F
102
}
330
1020
100
AcDbEntity
  8
主製品
  6
DASHED
 62
     7
100
AcDbCircle
 10
10131.43889652627
 20
12743.79705665275
 30
0.0
 40
1.299995999999999
100
AcDbArc
 50
31.3320400511448
 51
90.000199058786
  0
ARC
  5
9E2
102
{ACAD_REACTORS
330
185F
102
}
330
1020
100
AcDbEntity
  8
主製品
  6
DASHED
 62
     7
100
AcDbCircle
 10
10131.43889652627
 20
12743.79705665275
 30
0.0
 40
0.4999935000000003
100
AcDbArc
 50
31.331870051124
 51
90.00053505873642
  0
LINE
  5
9E3
102
{ACAD_REACTORS
330
185F
102
}
330
1020
100
AcDbEntity
  8
主製品
  6
DASHED
 62
     7
100
AcDbLine
 10
10131.59886652627
 20
12745.09707665274
 30
0.0
 11
10121.53425652629
 21
12745.09707665274
 31
0.0
  0
LINE
  5
9E4
102
{ACAD_REACTORS
330
185F
102
}
330
1020
100
AcDbEntity
  8
主製品
  6
DASHED
 62
     7
100
AcDbLine
 10
10131.43889652627
 20
12744.29709665275
 30
0.0
 11
10121.37430152627
 21
12744.29709665275
 31
0.0
  0
LINE
  5
9E5
102
{ACAD_REACTORS
330
185F
102
}
330
1020
100
AcDbEntity
  8
主製品
  6
DASHED
 62
     7
100
AcDbLine
 10
10131.43889652627
 20
12745.09707665274
 30
0.0
 11
10121.37430152627
 21
12745.09707665274
 31
0.0
  0
LINE
  5
9E6
102
{ACAD_REACTORS
330
185F
102
}
330
1020
100
AcDbEntity
  8
主製品
  6
DASHED
 62
     7
100
AcDbLine
 10
10121.37430152627
 20
12745.09707665274
 30
0.0
 11
10121.37430152627
 21
12744.29709665275
 31
0.0
  0
LINE
  5
9E7
102
{ACAD_REACTORS
330
18BE
102
}
330
1020
100
AcDbEntity
  8
主製品
  6
DASHED
 62
     7
100
AcDbLine
 10
9948.242841526521
 20
12743.29703165168
 30
0.0
 11
9950.728291526525
 21
12743.29703165168
 31
0.0
  0
ARC
  5
9E8
102
{ACAD_REACTORS
330
18BE
102
}
330
1020
100
AcDbEntity
  8
主製品
  6
DASHED
 62
     7
100
AcDbCircle
 10
9948.242841526521
 20
12742.99707665168
 30
0.0
 40
1.099998
100
AcDbArc
 50
89.99966505880522
 51
150.5057840667249
  0
ARC
  5
9E9
102
{ACAD_REACTORS
330
18BE
102
}
330
1020
100
AcDbEntity
  8
主製品
  6
DASHED
 62
     7
100
AcDbCircle
 10
9948.242841526521
 20
12742.99707665168
 30
0.0
 40
0.2999985
100
AcDbArc
 50
89.99876505871453
 51
150.5060430666507
  0
LINE
  5
9EA
102
{ACAD_REACTORS
330
18BE
102
}
330
1020
100
AcDbEntity
  8
主製品
  6
DASHED
 62
     7
100
AcDbLine
 10
9948.242841526521
 20
12744.09702665168
 30
0.0
 11
9950.72827152652
 21
12744.09702665168
 31
0.0
  0
ARC
  5
9EB
102
{ACAD_REACTORS
330
18BE
102
}
330
1020
100
AcDbEntity
  8
主製品
  6
DASHED
 62
     7
100
AcDbCircle
 10
9946.52828152653
 20
12743.96688665168
 30
0.0
 40
0.8698020000000001
100
AcDbArc
 50
209.4941200743574
 51
330.505890090176
  0
LINE
  5
9EC
102
{ACAD_REACTORS
330
18BE
102
}
330
1020
100
AcDbEntity
  8
主製品
  6
DASHED
 62
     7
100
AcDbLine
 10
9943.228296526527
 20
12743.29703165168
 30
0.0
 11
9944.81385652652
 21
12743.29703165168
 31
0.0
  0
ARC
  5
9ED
102
{ACAD_REACTORS
330
18BE
102
}
330
1020
100
AcDbEntity
  8
主製品
  6
DASHED
 62
     7
100
AcDbCircle
 10
9944.81385652652
 20
12742.99707665168
 30
0.0
 40
0.300006
100
AcDbArc
 50
29.49453005081475
 51
89.99888705871644
  0
ARC
  5
9EE
102
{ACAD_REACTORS
330
18BE
102
}
330
1020
100
AcDbEntity
  8
主製品
  6
DASHED
 62
     7
100
AcDbCircle
 10
9944.81385652652
 20
12742.99707665168
 30
0.0
 40
1.100003999999997
100
AcDbArc
 50
29.4942800509513
 51
89.99969505875611
  0
LINE
  5
9EF
102
{ACAD_REACTORS
330
18BE
102
}
330
1020
100
AcDbEntity
  8
主製品
  6
DASHED
 62
     7
100
AcDbLine
 10
9943.228296526527
 20
12744.09702665168
 30
0.0
 11
9944.81385652652
 21
12744.09702665168
 31
0.0
  0
LINE
  5
9F0
102
{ACAD_REACTORS
330
18BE
102
}
330
1020
100
AcDbEntity
  8
主製品
  6
DASHED
 62
     7
100
AcDbLine
 10
9943.228296526527
 20
12744.09702665168
 30
0.0
 11
9943.228296526527
 21
12743.29703165168
 31
0.0
  0
ARC
  5
9F1
102
{ACAD_REACTORS
330
18BE
102
}
330
1020
100
AcDbEntity
  8
主製品
  6
DASHED
 62
     7
100
AcDbCircle
 10
9946.52828152653
 20
12743.96688665168
 30
0.0
 40
1.669801499999999
100
AcDbArc
 50
209.4941600742901
 51
330.5058500901238
  0
ARC
  5
9F2
102
{ACAD_REACTORS
330
18BE
102
}
330
1020
100
AcDbEntity
  8
主製品
  6
DASHED
 62
     7
100
AcDbCircle
 10
9950.72827152652
 20
12742.79702665168
 30
0.0
 40
1.3
100
AcDbArc
 50
0.0000000470034075
 51
90.00000005876076
  0
ARC
  5
9F3
102
{ACAD_REACTORS
330
18BE
102
}
330
1020
100
AcDbEntity
  8
主製品
  6
DASHED
 62
     7
100
AcDbCircle
 10
9950.728291526525
 20
12742.79703165168
 30
0.0
 40
0.5
100
AcDbArc
 50
0.0000000470034075
 51
90.00000005876076
  0
LINE
  5
9F4
102
{ACAD_REACTORS
330
18BE
102
}
330
1020
100
AcDbEntity
  8
主製品
  6
DASHED
 62
     7
100
AcDbLine
 10
9952.028271526526
 20
12742.79702665168
 30
0.0
 11
9952.028271526529
 21
12736.39713165168
 31
0.0
  0
LINE
  5
9F5
102
{ACAD_REACTORS
330
18BE
102
}
330
1020
100
AcDbEntity
  8
主製品
  6
DASHED
 62
     7
100
AcDbLine
 10
9951.228291526525
 20
12742.79703165168
 30
0.0
 11
9951.228291526525
 21
12736.39711165168
 31
0.0
  0
LINE
  5
9F6
102
{ACAD_REACTORS
330
18BE
102
}
330
1020
100
AcDbEntity
  8
主製品
  6
DASHED
 62
     7
100
AcDbLine
 10
9950.72827152652
 20
12735.09713165169
 30
0.0
 11
9783.32841152652
 21
12735.09713165168
 31
0.0
  0
ARC
  5
9F7
102
{ACAD_REACTORS
330
18BE
102
}
330
1020
100
AcDbEntity
  8
主製品
  6
DASHED
 62
     7
100
AcDbCircle
 10
9950.72827152652
 20
12736.39713165168
 30
0.0
 40
1.3
100
AcDbArc
 50
270.0000000352525
 51
0.0000000470034075
  0
ARC
  5
9F8
102
{ACAD_REACTORS
330
18BE
102
}
330
1020
100
AcDbEntity
  8
主製品
  6
DASHED
 62
     7
100
AcDbCircle
 10
9783.32841152652
 20
12736.39713165168
 30
0.0
 40
1.3
100
AcDbArc
 50
180.0000000705051
 51
270.0000000822624
  0
LINE
  5
9F9
102
{ACAD_REACTORS
330
18BE
102
}
330
1020
100
AcDbEntity
  8
主製品
  6
DASHED
 62
     7
100
AcDbLine
 10
9950.728291526525
 20
12735.89711165168
 30
0.0
 11
9783.328391526527
 21
12735.89711165169
 31
0.0
  0
ARC
  5
9FA
102
{ACAD_REACTORS
330
18BE
102
}
330
1020
100
AcDbEntity
  8
主製品
  6
DASHED
 62
     7
100
AcDbCircle
 10
9950.728291526525
 20
12736.39711165168
 30
0.0
 40
0.5
100
AcDbArc
 50
270.0000000352525
 51
0.0000000470034075
  0
ARC
  5
9FB
102
{ACAD_REACTORS
330
18BE
102
}
330
1020
100
AcDbEntity
  8
主製品
  6
DASHED
 62
     7
100
AcDbCircle
 10
9783.328391526527
 20
12736.39711165168
 30
0.0
 40
0.5
100
AcDbArc
 50
180.0000000705051
 51
270.0000000822624
  0
LINE
  5
9FC
102
{ACAD_REACTORS
330
18BE
102
}
330
1020
100
AcDbEntity
  8
主製品
  6
DASHED
 62
     7
100
AcDbLine
 10
9781.688341526528
 20
12745.09707665168
 30
0.0
 11
9776.323756526522
 21
12745.09707665168
 31
0.0
  0
LINE
  5
9FD
102
{ACAD_REACTORS
330
18BE
102
}
330
1020
100
AcDbEntity
  8
主製品
  6
DASHED
 62
     7
100
AcDbLine
 10
9782.828391526528
 20
12736.39711165168
 30
0.0
 11
9782.828391526521
 21
12743.79707665168
 31
0.0
  0
ARC
  5
9FE
102
{ACAD_REACTORS
330
18BE
102
}
330
1020
100
AcDbEntity
  8
主製品
  6
DASHED
 62
     7
100
AcDbCircle
 10
9781.528391526522
 20
12743.79707665168
 30
0.0
 40
1.3
100
AcDbArc
 50
0.0000000470034075
 51
90.00000005876076
  0
LINE
  5
9FF
102
{ACAD_REACTORS
330
18BE
102
}
330
1020
100
AcDbEntity
  8
主製品
  6
DASHED
 62
     7
100
AcDbLine
 10
9782.028411526523
 20
12736.39713165168
 30
0.0
 11
9782.028411526523
 21
12743.79709665168
 31
0.0
  0
ARC
  5
A00
102
{ACAD_REACTORS
330
18BE
102
}
330
1020
100
AcDbEntity
  8
主製品
  6
DASHED
 62
     7
100
AcDbCircle
 10
9781.528411526524
 20
12743.79709665168
 30
0.0
 40
0.5
100
AcDbArc
 50
0.0000000470034075
 51
90.00000005876076
  0
LINE
  5
A01
102
{ACAD_REACTORS
330
18BE
102
}
330
1020
100
AcDbEntity
  8
主製品
  6
DASHED
 62
     7
100
AcDbLine
 10
9781.528411526524
 20
12744.29709665168
 30
0.0
 11
9776.163651526523
 21
12744.29709665168
 31
0.0
  0
ARC
  5
A02
102
{ACAD_REACTORS
330
18BE
102
}
330
1020
100
AcDbEntity
  8
主製品
  6
DASHED
 62
     7
100
AcDbCircle
 10
9774.028131526522
 20
12745.09707665168
 30
0.0
 40
1.200004499999999
100
AcDbArc
 50
211.3328400745615
 51
328.6678500898815
  0
ARC
  5
A03
102
{ACAD_REACTORS
330
18BE
102
}
330
1020
100
AcDbEntity
  8
主製品
  6
DASHED
 62
     7
100
AcDbCircle
 10
9776.163651526523
 20
12743.79705665168
 30
0.0
 40
0.5000175000000004
100
AcDbArc
 50
90.00100805871634
 51
148.6665650664204
  0
ARC
  5
A04
102
{ACAD_REACTORS
330
18BE
102
}
330
1020
100
AcDbEntity
  8
主製品
  6
DASHED
 62
     7
100
AcDbCircle
 10
9774.028131526522
 20
12745.09707665168
 30
0.0
 40
2.000000999999997
100
AcDbArc
 50
211.3322500746264
 51
328.6677400898637
  0
ARC
  5
A05
102
{ACAD_REACTORS
330
18BE
102
}
330
1020
100
AcDbEntity
  8
主製品
  6
DASHED
 62
     7
100
AcDbCircle
 10
9776.163651526523
 20
12743.79705665168
 30
0.0
 40
1.299973499999999
100
AcDbArc
 50
89.99949705872579
 51
148.6684120664063
  0
LINE
  5
A06
102
{ACAD_REACTORS
330
18BE
102
}
330
1020
100
AcDbEntity
  8
主製品
  6
DASHED
 62
     7
100
AcDbLine
 10
9781.528391526522
 20
12745.09707665168
 30
0.0
 11
9776.163651526523
 21
12745.09707665168
 31
0.0
  0
ARC
  5
A07
102
{ACAD_REACTORS
330
18BE
102
}
330
1020
100
AcDbEntity
  8
主製品
  6
DASHED
 62
     7
100
AcDbCircle
 10
9771.892896526523
 20
12743.79705665168
 30
0.0
 40
1.299995999999999
100
AcDbArc
 50
31.3320400511448
 51
90.000199058786
  0
ARC
  5
A08
102
{ACAD_REACTORS
330
18BE
102
}
330
1020
100
AcDbEntity
  8
主製品
  6
DASHED
 62
     7
100
AcDbCircle
 10
9771.892896526523
 20
12743.79705665168
 30
0.0
 40
0.4999935000000003
100
AcDbArc
 50
31.331870051124
 51
90.00053505873644
  0
LINE
  5
A09
102
{ACAD_REACTORS
330
18BE
102
}
330
1020
100
AcDbEntity
  8
主製品
  6
DASHED
 62
     7
100
AcDbLine
 10
9772.052866526523
 20
12745.09707665168
 30
0.0
 11
9761.988256526528
 21
12745.09707665168
 31
0.0
  0
LINE
  5
A0A
102
{ACAD_REACTORS
330
18BE
102
}
330
1020
100
AcDbEntity
  8
主製品
  6
DASHED
 62
     7
100
AcDbLine
 10
9771.892896526523
 20
12744.29709665168
 30
0.0
 11
9761.828301526522
 21
12744.29709665168
 31
0.0
  0
LINE
  5
A0B
102
{ACAD_REACTORS
330
18BE
102
}
330
1020
100
AcDbEntity
  8
主製品
  6
DASHED
 62
     7
100
AcDbLine
 10
9771.892896526523
 20
12745.09707665168
 30
0.0
 11
9761.828301526522
 21
12745.09707665168
 31
0.0
  0
LINE
  5
A0C
102
{ACAD_REACTORS
330
18BE
102
}
330
1020
100
AcDbEntity
  8
主製品
  6
DASHED
 62
     7
100
AcDbLine
 10
9761.828301526522
 20
12745.09707665168
 30
0.0
 11
9761.828301526522
 21
12744.29709665168
 31
0.0
  0
DIMENSION
  5
A0D
330
1020
100
AcDbEntity
  8
0
100
AcDbDimension
  2
*D24
 10
10141.57441152627
 20
12707.94516147712
 30
0.0
 11
10226.57434152628
 21
12711.44516147712
 31
0.0
 70
    32
 71
     5
 42
169.9998600000126
  3
ISO-25
100
AcDbAlignedDimension
 13
10311.57427152629
 23
12736.39713165275
 33
0.0
 14
10141.57441152627
 24
12736.39713165275
 34
0.0
100
AcDbRotatedDimension
1001
ACAD
1000
DSTYLE
1002
{
1070
   271
1070
     0
1002
}
  0
DIMENSION
  5
A13
330
1020
100
AcDbEntity
  8
0
100
AcDbDimension
  2
*D23
 10
9961.801411526398
 20
12707.74509147605
 30
0.0
 11
10046.8013415264
 21
12711.24509147605
 31
0.0
 70
    32
 71
     5
 42
169.9998600000017
  3
ISO-25
100
AcDbAlignedDimension
 13
10131.8012715264
 23
12736.19706165168
 33
0.0
 14
9961.801411526398
 24
12736.19706164998
 34
0.0
100
AcDbRotatedDimension
1001
ACAD
1000
DSTYLE
1002
{
1070
   271
1070
     3
1002
}
  0
DIMENSION
  5
A16
330
1020
100
AcDbEntity
  8
0
100
AcDbDimension
  2
*D22
 10
9952.028271526522
 20
12707.94516147712
 30
0.0
 11
9963.228787965466
 21
12697.41056033431
 31
0.0
 70
   160
 71
     5
 42
9.773139999875638
  3
ISO-25
100
AcDbAlignedDimension
 13
9961.801411526398
 23
12736.19706164998
 33
0.0
 14
9952.028271526522
 24
12736.39713165114
 34
0.0
100
AcDbRotatedDimension
1001
ACAD
1000
DSTYLE
1002
{
1070
   271
1070
     3
1002
}
  0
DIMENSION
  5
A17
330
1020
100
AcDbEntity
  8
0
100
AcDbDimension
  2
*D21
 10
9782.028411526521
 20
12707.94516147712
 30
0.0
 11
9867.028341526522
 21
12711.44516147712
 31
0.0
 70
    32
 71
     5
 42
169.9998600000017
  3
ISO-25
100
AcDbAlignedDimension
 13
9952.028271526522
 23
12736.39713165275
 33
0.0
 14
9782.028411526521
 24
12736.39713165169
 34
0.0
100
AcDbRotatedDimension
1001
ACAD
1000
DSTYLE
1002
{
1070
   271
1070
     0
1002
}
  0
DIMENSION
  5
A18
330
1020
100
AcDbEntity
  8
0
100
AcDbDimension
  2
*D20
 10
9952.028271526522
 20
12685.0472194048
 30
0.0
 11
10041.91477152646
 21
12688.5472194048
 31
0.0
 70
    32
 71
     5
 42
179.7729999998773
  3
ISO-25
100
AcDbAlignedDimension
 13
10131.8012715264
 23
12736.19706165168
 33
0.0
 14
9952.028271526522
 24
12731.39713165275
 34
0.0
100
AcDbRotatedDimension
1001
ACAD
1000
DSTYLE
1002
{
1070
   271
1070
     3
1002
}
  0
DIMENSION
  5
A1B
330
1020
100
AcDbEntity
  8
0
100
AcDbDimension
  2
*D19
 10
9946.011111847205
 20
12827.66565901736
 30
0.0
 11
10035.8976118472
 21
12831.16565901736
 31
0.0
 70
    32
 71
     5
 42
179.7729999999937
  3
ISO-25
100
AcDbAlignedDimension
 13
10125.7841118472
 23
12857.77123365775
 33
0.0
 14
9946.011111847205
 24
12857.77123365668
 34
0.0
100
AcDbRotatedDimension
1001
ACAD
1000
DSTYLE
1002
{
1070
   271
1070
     0
1002
}
  0
DIMENSION
  5
A5C
102
{ACAD_REACTORS
330
181F
102
}
330
1020
100
AcDbEntity
  8
0
100
AcDbDimension
  2
*D18
 10
9941.601301526397
 20
12760.29443511107
 30
0.0
 11
9952.101346526397
 21
12763.79443511107
 31
0.0
 70
    32
 71
     5
 42
21.00008999999955
  3
ISO-25
100
AcDbAlignedDimension
 13
9962.601391526396
 23
12743.59700665275
 33
0.0
 14
9941.601301526397
 24
12744.89700665168
 34
0.0
100
AcDbRotatedDimension
1001
ACAD
1000
DSTYLE
1002
{
1070
   271
1070
     1
1002
}
  0
ARC
  5
B73
330
1020
100
AcDbEntity
  8
主製品
  6
DASHED
 62
     0
100
AcDbCircle
 10
9940.51112184721
 20
12865.34098865669
 30
0.0
 40
1.669801499999999
100
AcDbArc
 50
209.4941600742997
 51
330.5058500901174
  0
ARC
  5
B74
330
1020
100
AcDbEntity
  8
主製品
  6
DASHED
 62
     0
100
AcDbCircle
 10
9940.51112184721
 20
12865.34098865669
 30
0.0
 40
0.8698020000000001
100
AcDbArc
 50
209.4941200743478
 51
330.5058900901857
  0
LINE
  5
B75
330
1020
100
AcDbEntity
  8
主製品
  6
DASHED
 62
     0
100
AcDbLine
 10
9937.21113684721
 20
12865.47112865669
 30
0.0
 11
9937.21113684721
 21
12864.67113365669
 31
0.0
  0
ARC
  5
B76
330
1020
100
AcDbEntity
  8
主製品
  6
DASHED
 62
     0
100
AcDbCircle
 10
9938.796696847209
 20
12864.37117865669
 30
0.0
 40
1.100003999999997
100
AcDbArc
 50
29.49428005093847
 51
89.99969505877565
  0
ARC
  5
B77
330
1020
100
AcDbEntity
  8
主製品
  6
DASHED
 62
     0
100
AcDbCircle
 10
9938.796696847209
 20
12864.37117865669
 30
0.0
 40
0.300006
100
AcDbArc
 50
29.49453005086332
 51
89.99888705873596
  0
LINE
  5
B78
330
1020
100
AcDbEntity
  8
主製品
  6
DASHED
 62
     0
100
AcDbLine
 10
9937.21113684721
 20
12865.47112865669
 30
0.0
 11
9938.796696847209
 21
12865.47112865669
 31
0.0
  0
LINE
  5
B79
330
1020
100
AcDbEntity
  8
主製品
  6
DASHED
 62
     0
100
AcDbLine
 10
9937.21113684721
 20
12864.67113365669
 30
0.0
 11
9938.796696847209
 21
12864.67113365669
 31
0.0
  0
LINE
  5
B7A
330
1020
100
AcDbEntity
  8
主製品
  6
DASHED
 62
     0
100
AcDbLine
 10
9942.225681847205
 20
12864.67113365669
 30
0.0
 11
9944.711131847206
 21
12864.67113365669
 31
0.0
  0
LINE
  5
B7B
330
1020
100
AcDbEntity
  8
主製品
  6
DASHED
 62
     0
100
AcDbLine
 10
9942.225681847205
 20
12865.47112865669
 30
0.0
 11
9944.711111847212
 21
12865.47112865669
 31
0.0
  0
ARC
  5
B7C
330
1020
100
AcDbEntity
  8
主製品
  6
DASHED
 62
     0
100
AcDbCircle
 10
9942.225681847205
 20
12864.37117865669
 30
0.0
 40
0.2999985
100
AcDbArc
 50
89.99876505873409
 51
150.5060430666379
  0
ARC
  5
B7D
330
1020
100
AcDbEntity
  8
主製品
  6
DASHED
 62
     0
100
AcDbCircle
 10
9942.225681847205
 20
12864.37117865669
 30
0.0
 40
1.099998
100
AcDbArc
 50
89.99966505882477
 51
150.5057840667346
  0
ARC
  5
B7E
330
1020
100
AcDbEntity
  8
主製品
  6
DASHED
 62
     0
100
AcDbCircle
 10
9944.711131847206
 20
12864.17113365668
 30
0.0
 40
0.5
100
AcDbArc
 50
0.0000000470034075
 51
90.00000005878026
  0
ARC
  5
B7F
330
1020
100
AcDbEntity
  8
主製品
  6
DASHED
 62
     0
100
AcDbCircle
 10
9944.711111847212
 20
12864.17112865669
 30
0.0
 40
1.3
100
AcDbArc
 50
0.0000000470034075
 51
90.00000005878026
  0
LINE
  5
B80
330
1020
100
AcDbEntity
  8
主製品
  6
DASHED
 62
     0
100
AcDbLine
 10
9945.211131847205
 20
12864.17113365668
 30
0.0
 11
9945.211131847205
 21
12857.77121365669
 31
0.0
  0
LINE
  5
B81
330
1020
100
AcDbEntity
  8
主製品
  6
DASHED
 62
     0
100
AcDbLine
 10
9946.011111847212
 20
12864.17112865669
 30
0.0
 11
9946.011111847212
 21
12857.77123365668
 31
0.0
  0
LINE
  5
B82
330
1020
100
AcDbEntity
  8
主製品
  6
DASHED
 62
     0
100
AcDbLine
 10
9944.711111847205
 20
12856.47123365669
 30
0.0
 11
9767.538111847205
 21
12856.47123365669
 31
0.0
  0
ARC
  5
B83
330
1020
100
AcDbEntity
  8
主製品
  6
DASHED
 62
     0
100
AcDbCircle
 10
9767.538111847205
 20
12857.77123365668
 30
0.0
 40
1.3
100
AcDbArc
 50
180.0000000705572
 51
270.0000000822821
  0
ARC
  5
B84
330
1020
100
AcDbEntity
  8
主製品
  6
DASHED
 62
     0
100
AcDbCircle
 10
9944.711111847205
 20
12857.77123365668
 30
0.0
 40
1.3
100
AcDbArc
 50
270.0000000352786
 51
0.0000000470034075
  0
LINE
  5
B85
330
1020
100
AcDbEntity
  8
主製品
  6
DASHED
 62
     0
100
AcDbLine
 10
9944.711131847206
 20
12857.27121365669
 30
0.0
 11
9767.538091847207
 21
12857.27121365669
 31
0.0
  0
ARC
  5
B86
330
1020
100
AcDbEntity
  8
主製品
  6
DASHED
 62
     0
100
AcDbCircle
 10
9767.538091847207
 20
12857.77121365669
 30
0.0
 40
0.5
100
AcDbArc
 50
180.0000000705572
 51
270.0000000822821
  0
ARC
  5
B87
330
1020
100
AcDbEntity
  8
主製品
  6
DASHED
 62
     0
100
AcDbCircle
 10
9944.711131847206
 20
12857.77121365669
 30
0.0
 40
0.5
100
AcDbArc
 50
270.0000000352786
 51
0.0000000470034075
  0
ARC
  5
B88
330
1020
100
AcDbEntity
  8
主製品
  6
DASHED
 62
     0
100
AcDbCircle
 10
9765.738091847211
 20
12865.17117865669
 30
0.0
 40
1.3
100
AcDbArc
 50
0.0000000470034075
 51
90.00000005878026
  0
LINE
  5
B89
330
1020
100
AcDbEntity
  8
主製品
  6
DASHED
 62
     0
100
AcDbLine
 10
9766.238111847204
 20
12857.77123365668
 30
0.0
 11
9766.238111847204
 21
12865.17119865669
 31
0.0
  0
ARC
  5
B8A
330
1020
100
AcDbEntity
  8
主製品
  6
DASHED
 62
     0
100
AcDbCircle
 10
9765.738111847205
 20
12865.17119865669
 30
0.0
 40
0.5
100
AcDbArc
 50
0.0000000470034075
 51
90.00000005878026
  0
LINE
  5
B8B
330
1020
100
AcDbEntity
  8
主製品
  6
DASHED
 62
     0
100
AcDbLine
 10
9767.038091847208
 20
12857.77121365669
 30
0.0
 11
9767.038091847208
 21
12865.17117865669
 31
0.0
  0
LINE
  5
B8C
330
1020
100
AcDbEntity
  8
主製品
  6
DASHED
 62
     0
100
AcDbLine
 10
9765.738111847205
 20
12865.67119865669
 30
0.0
 11
9756.038001847205
 21
12865.67119865669
 31
0.0
  0
LINE
  5
B8D
330
1020
100
AcDbEntity
  8
主製品
  6
DASHED
 62
     0
100
AcDbLine
 10
9765.738091847211
 20
12866.47117865669
 30
0.0
 11
9756.038001847205
 21
12866.47117865669
 31
0.0
  0
LINE
  5
B8E
330
1020
100
AcDbEntity
  8
主製品
  6
DASHED
 62
     0
100
AcDbLine
 10
9756.038001847205
 20
12866.47117865669
 30
0.0
 11
9756.038001847205
 21
12865.67119865669
 31
0.0
  0
ARC
  5
B90
330
1020
100
AcDbEntity
  8
主製品
  6
DASHED
 62
     0
100
AcDbCircle
 10
10300.05712184721
 20
12865.34098865669
 30
0.0
 40
1.669801499999999
100
AcDbArc
 50
209.4941600742997
 51
330.5058500901174
  0
ARC
  5
B91
330
1020
100
AcDbEntity
  8
主製品
  6
DASHED
 62
     0
100
AcDbCircle
 10
10300.05712184721
 20
12865.34098865669
 30
0.0
 40
0.8698020000000001
100
AcDbArc
 50
209.4941200743478
 51
330.5058900901857
  0
LINE
  5
B92
330
1020
100
AcDbEntity
  8
主製品
  6
DASHED
 62
     0
100
AcDbLine
 10
10296.75713684721
 20
12865.47112865669
 30
0.0
 11
10296.75713684721
 21
12864.67113365669
 31
0.0
  0
ARC
  5
B93
330
1020
100
AcDbEntity
  8
主製品
  6
DASHED
 62
     0
100
AcDbCircle
 10
10298.3426968472
 20
12864.37117865669
 30
0.0
 40
1.100003999999997
100
AcDbArc
 50
29.49428005093847
 51
89.99969505877565
  0
ARC
  5
B94
330
1020
100
AcDbEntity
  8
主製品
  6
DASHED
 62
     0
100
AcDbCircle
 10
10298.3426968472
 20
12864.37117865669
 30
0.0
 40
0.300006
100
AcDbArc
 50
29.49453005086332
 51
89.99888705873596
  0
LINE
  5
B95
330
1020
100
AcDbEntity
  8
主製品
  6
DASHED
 62
     0
100
AcDbLine
 10
10296.75713684721
 20
12865.47112865669
 30
0.0
 11
10298.3426968472
 21
12865.47112865669
 31
0.0
  0
LINE
  5
B96
330
1020
100
AcDbEntity
  8
主製品
  6
DASHED
 62
     0
100
AcDbLine
 10
10296.75713684721
 20
12864.67113365669
 30
0.0
 11
10298.3426968472
 21
12864.67113365669
 31
0.0
  0
LINE
  5
B97
330
1020
100
AcDbEntity
  8
主製品
  6
DASHED
 62
     0
100
AcDbLine
 10
10301.7716818472
 20
12864.67113365669
 30
0.0
 11
10304.2571318472
 21
12864.67113365669
 31
0.0
  0
LINE
  5
B98
330
1020
100
AcDbEntity
  8
主製品
  6
DASHED
 62
     0
100
AcDbLine
 10
10301.7716818472
 20
12865.47112865669
 30
0.0
 11
10304.25711184721
 21
12865.47112865669
 31
0.0
  0
ARC
  5
B99
330
1020
100
AcDbEntity
  8
主製品
  6
DASHED
 62
     0
100
AcDbCircle
 10
10301.7716818472
 20
12864.37117865669
 30
0.0
 40
0.2999985
100
AcDbArc
 50
89.99876505873409
 51
150.5060430666379
  0
ARC
  5
B9A
330
1020
100
AcDbEntity
  8
主製品
  6
DASHED
 62
     0
100
AcDbCircle
 10
10301.7716818472
 20
12864.37117865669
 30
0.0
 40
1.099998
100
AcDbArc
 50
89.99966505882477
 51
150.5057840667346
  0
ARC
  5
B9B
330
1020
100
AcDbEntity
  8
主製品
  6
DASHED
 62
     0
100
AcDbCircle
 10
10304.2571318472
 20
12864.17113365668
 30
0.0
 40
0.5
100
AcDbArc
 50
0.0000000470034075
 51
90.00000005878026
  0
ARC
  5
B9C
330
1020
100
AcDbEntity
  8
主製品
  6
DASHED
 62
     0
100
AcDbCircle
 10
10304.25711184721
 20
12864.17112865669
 30
0.0
 40
1.3
100
AcDbArc
 50
0.0000000470034075
 51
90.00000005878026
  0
LINE
  5
B9D
330
1020
100
AcDbEntity
  8
主製品
  6
DASHED
 62
     0
100
AcDbLine
 10
10304.7571318472
 20
12864.17113365668
 30
0.0
 11
10304.7571318472
 21
12857.77121365669
 31
0.0
  0
LINE
  5
B9E
330
1020
100
AcDbEntity
  8
主製品
  6
DASHED
 62
     0
100
AcDbLine
 10
10305.55711184721
 20
12864.17112865669
 30
0.0
 11
10305.55711184721
 21
12857.77123365668
 31
0.0
  0
LINE
  5
B9F
330
1020
100
AcDbEntity
  8
主製品
  6
DASHED
 62
     0
100
AcDbLine
 10
10304.2571118472
 20
12856.47123365669
 30
0.0
 11
10127.0841118472
 21
12856.47123365669
 31
0.0
  0
ARC
  5
BA0
330
1020
100
AcDbEntity
  8
主製品
  6
DASHED
 62
     0
100
AcDbCircle
 10
10127.0841118472
 20
12857.77123365668
 30
0.0
 40
1.3
100
AcDbArc
 50
180.0000000705572
 51
270.0000000822821
  0
ARC
  5
BA1
330
1020
100
AcDbEntity
  8
主製品
  6
DASHED
 62
     0
100
AcDbCircle
 10
10304.2571118472
 20
12857.77123365668
 30
0.0
 40
1.3
100
AcDbArc
 50
270.0000000352786
 51
0.0000000470034075
  0
LINE
  5
BA2
330
1020
100
AcDbEntity
  8
主製品
  6
DASHED
 62
     0
100
AcDbLine
 10
10304.2571318472
 20
12857.27121365669
 30
0.0
 11
10127.0840918472
 21
12857.27121365669
 31
0.0
  0
ARC
  5
BA3
330
1020
100
AcDbEntity
  8
主製品
  6
DASHED
 62
     0
100
AcDbCircle
 10
10127.0840918472
 20
12857.77121365669
 30
0.0
 40
0.5
100
AcDbArc
 50
180.0000000705572
 51
270.0000000822821
  0
ARC
  5
BA4
330
1020
100
AcDbEntity
  8
主製品
  6
DASHED
 62
     0
100
AcDbCircle
 10
10304.2571318472
 20
12857.77121365669
 30
0.0
 40
0.5
100
AcDbArc
 50
270.0000000352786
 51
0.0000000470034075
  0
ARC
  5
BA5
330
1020
100
AcDbEntity
  8
主製品
  6
DASHED
 62
     0
100
AcDbCircle
 10
10125.28409184721
 20
12865.17117865669
 30
0.0
 40
1.3
100
AcDbArc
 50
0.0000000470034075
 51
90.00000005878026
  0
LINE
  5
BA6
330
1020
100
AcDbEntity
  8
主製品
  6
DASHED
 62
     0
100
AcDbLine
 10
10125.7841118472
 20
12857.77123365668
 30
0.0
 11
10125.7841118472
 21
12865.17119865669
 31
0.0
  0
ARC
  5
BA7
330
1020
100
AcDbEntity
  8
主製品
  6
DASHED
 62
     0
100
AcDbCircle
 10
10125.2841118472
 20
12865.17119865669
 30
0.0
 40
0.5
100
AcDbArc
 50
0.0000000470034075
 51
90.00000005878026
  0
LINE
  5
BA8
330
1020
100
AcDbEntity
  8
主製品
  6
DASHED
 62
     0
100
AcDbLine
 10
10126.5840918472
 20
12857.77121365669
 30
0.0
 11
10126.5840918472
 21
12865.17117865669
 31
0.0
  0
LINE
  5
BA9
330
1020
100
AcDbEntity
  8
主製品
  6
DASHED
 62
     0
100
AcDbLine
 10
10125.2841118472
 20
12865.67119865669
 30
0.0
 11
10115.5840018472
 21
12865.67119865669
 31
0.0
  0
LINE
  5
BAA
330
1020
100
AcDbEntity
  8
主製品
  6
DASHED
 62
     0
100
AcDbLine
 10
10125.28409184721
 20
12866.47117865669
 30
0.0
 11
10115.5840018472
 21
12866.47117865669
 31
0.0
  0
LINE
  5
BAB
330
1020
100
AcDbEntity
  8
主製品
  6
DASHED
 62
     0
100
AcDbLine
 10
10115.5840018472
 20
12866.47117865669
 30
0.0
 11
10115.5840018472
 21
12865.67119865669
 31
0.0
  0
DIMENSION
  5
BB6
330
1020
100
AcDbEntity
  8
0
100
AcDbDimension
  2
*D17
 10
9766.229872108539
 20
12827.66565901736
 30
0.0
 11
9856.116372108537
 21
12831.16565901736
 31
0.0
 70
    32
 71
     5
 42
179.7729999999992
  3
ISO-25
100
AcDbAlignedDimension
 13
9946.002872108536
 23
12857.77123365775
 33
0.0
 14
9766.229872108539
 24
12857.77123365668
 34
0.0
100
AcDbRotatedDimension
1001
ACAD
1000
DSTYLE
1002
{
1070
   271
1070
     0
1002
}
  0
DIMENSION
  5
BC5
330
1020
100
AcDbEntity
  8
0
100
AcDbDimension
  2
*D16
 10
10125.77587210854
 20
12827.66565901736
 30
0.0
 11
10215.66237210854
 21
12831.16565901736
 31
0.0
 70
    32
 71
     5
 42
179.773000000001
  3
ISO-25
100
AcDbAlignedDimension
 13
10305.54887210854
 23
12857.77123365775
 33
0.0
 14
10125.77587210854
 24
12857.77123365668
 34
0.0
100
AcDbRotatedDimension
1001
ACAD
1000
DSTYLE
1002
{
1070
   271
1070
     0
1002
}
  0
INSERT
  5
D3D
330
1020
100
AcDbEntity
  8
0
100
AcDbBlockReference
  2
*U8
 10
-37.55419001718474
 20
33.57089600197651
 30
0.0
  0
LWPOLYLINE
  5
D3E
330
1020
100
AcDbEntity
  8
0
100
AcDbPolyline
 90
        4
 70
     1
 43
0.0
 10
9728.974217860642
 20
13239.21354749757
 10
9805.497373287048
 20
13239.21354749757
 10
9805.497373287048
 20
13218.70922979878
 10
9728.974217860642
 20
13218.70922979878
  0
INSERT
  5
D3F
330
1020
100
AcDbEntity
  8
0
100
AcDbBlockReference
  2
*U9
 10
-4.436954199934916
 20
40.47687055685492
 30
0.0
  0
LWPOLYLINE
  5
D41
330
1020
100
AcDbEntity
  8
0
100
AcDbPolyline
 90
        4
 70
     1
 43
0.0
 10
9745.868151830562
 20
13198.33693767577
 10
9798.559517069442
 20
13198.33693767577
 10
9798.559517069442
 20
13178.58076669193
 10
9745.868151830562
 20
13178.58076669193
  0
INSERT
  5
D42
330
1020
100
AcDbEntity
  8
0
100
AcDbBlockReference
  2
*U10
 10
-4.436954199934916
 20
40.47687055685492
 30
0.0
  0
LWPOLYLINE
  5
D43
330
1020
100
AcDbEntity
  8
0
100
AcDbPolyline
 90
        4
 70
     1
 43
0.0
 10
9745.868151830562
 20
13091.48115433922
 10
9798.559517069442
 20
13091.48115433922
 10
9798.559517069442
 20
13071.72498335538
 10
9745.868151830562
 20
13071.72498335538
  0
INSERT
  5
D44
330
1020
100
AcDbEntity
  8
0
100
AcDbBlockReference
  2
*U11
 10
-32.11728528854292
 20
45.33426029402654
 30
0.0
  0
LWPOLYLINE
  5
D45
330
1020
100
AcDbEntity
  8
0
100
AcDbPolyline
 90
        4
 70
     1
 43
0.0
 10
9680.200518840507
 20
12947.9000746513
 10
9756.723674266915
 20
12947.9000746513
 10
9756.723674266915
 20
12927.39575695251
 10
9680.200518840507
 20
12927.39575695251
  0
INSERT
  5
D46
330
1020
100
AcDbEntity
  8
0
100
AcDbBlockReference
  2
*U12
 10
0.0
 20
45.33426029402654
 30
0.0
  0
LWPOLYLINE
  5
D47
330
1020
100
AcDbEntity
  8
0
100
AcDbPolyline
 90
        4
 70
     1
 43
0.0
 10
9696.09450228172
 20
12900.11749027463
 10
9748.785867520602
 20
12900.11749027463
 10
9748.785867520602
 20
12880.36131929077
 10
9696.09450228172
 20
12880.36131929077
  0
INSERT
  5
D48
330
1020
100
AcDbEntity
  8
0
100
AcDbBlockReference
  2
*U13
 10
0.0
 20
45.33426029402654
 30
0.0
  0
LWPOLYLINE
  5
D49
330
1020
100
AcDbEntity
  8
0
100
AcDbPolyline
 90
        4
 70
     1
 43
0.0
 10
9696.09450228172
 20
12793.26170693807
 10
9748.785867520602
 20
12793.26170693807
 10
9748.785867520602
 20
12773.50553595423
 10
9696.09450228172
 20
12773.50553595423
  0
INSERT
  5
E33
330
1020
100
AcDbEntity
  8
0
100
AcDbBlockReference
  2
*U14
 10
-56.07322529725206
 20
-109.2742847721492
 30
0.0
  0
INSERT
  5
E35
330
1020
100
AcDbEntity
  8
0
100
AcDbBlockReference
  2
*U15
 10
-54.3653302600469
 20
-114.5869332134389
 30
0.0
  0
DIMENSION
  5
1884
330
1020
100
AcDbEntity
  8
0
100
AcDbDimension
  2
*D41
 10
10131.8012715264
 20
12707.94516147712
 30
0.0
 11
10143.00178796534
 21
12697.41056033431
 31
0.0
 70
   160
 71
     5
 42
9.773139999875638
  3
ISO-25
100
AcDbAlignedDimension
 13
10141.57441152627
 23
12736.39713165275
 33
0.0
 14
10131.8012715264
 24
12736.39713165114
 34
0.0
100
AcDbRotatedDimension
1001
ACAD
1000
DSTYLE
1002
{
1070
   271
1070
     3
1002
}
  0
TEXT
  5
191F
330
1020
100
AcDbEntity
  8
0
100
AcDbText
 10
9802.387870445361
 20
13184.61202173045
 30
0.0
 40
10.0
  1
働巾120ｍｍ
100
AcDbText
  0
TEXT
  5
1923
330
1020
100
AcDbEntity
  8
0
100
AcDbText
 10
9758.900636203172
 20
12886.39257432928
 30
0.0
 40
10.0
  1
働巾180ｍｍ
100
AcDbText
  0
VIEWPORT
  5
71
102
{ACAD_XDICTIONARY
360
198C
102
}
330
101C
100
AcDbEntity
 67
     1
  8
0
100
AcDbViewport
 10
150.1652135264906
 20
101.599997546291
 30
0.0
 40
339.1973820494347
 41
164.5360435314421
 68
     1
 69
     1
 12
150.1652135264906
 22
101.599997546291
 13
0.0
 23
0.0
 14
10.0
 24
10.0
 15
10.0
 25
10.0
 16
0.0
 26
0.0
 36
1.0
 17
0.0
 27
0.0
 37
0.0
 42
50.0
 43
0.0
 44
0.0
 45
164.5360435314421
 50
0.0
 51
0.0
 72
  1000
 90
    32864
  1

281
     0
 71
     0
 74
     0
110
0.0
120
0.0
130
0.0
111
1.0
121
0.0
131
0.0
112
0.0
122
1.0
132
0.0
 79
     0
146
0.0
  0
VIEWPORT
  5
73
102
{ACAD_XDICTIONARY
360
198E
102
}
330
101C
100
AcDbEntity
 67
     1
  8
0
100
AcDbViewport
 10
133.349993944168
 20
101.5999939441681
 30
0.0
 40
213.3599903106689
 41
162.5599903106689
 68
     2
 69
     2
 12
210.0
 22
148.5
 13
0.0
 23
0.0
 14
10.0
 24
10.0
 15
10.0
 25
10.0
 16
0.0
 26
0.0
 36
1.0
 17
0.0
 27
0.0
 37
0.0
 42
50.0
 43
0.0
 44
0.0
 45
324.0677920111345
 50
0.0
 51
0.0
 72
   100
 90
    32864
  1

281
     0
 71
     0
 74
     0
110
0.0
120
0.0
130
0.0
111
1.0
121
0.0
131
0.0
112
0.0
122
1.0
132
0.0
 79
     0
146
0.0
  0
ENDSEC
  0
SECTION
  2
OBJECTS
  0
DICTIONARY
  5
FBD
330
0
100
AcDbDictionary
281
     1
  3
ACAD_CIP_PREVIOUS_PRODUCT_INFO
350
10BE
  3
ACAD_COLOR
350
1013
  3
ACAD_DETAILVIEWSTYLE
350
101A
  3
ACAD_GROUP
350
FBE
  3
ACAD_LAYOUT
350
1012
  3
ACAD_MATERIAL
350
FC1
  3
ACAD_MLEADERSTYLE
350
1016
  3
ACAD_MLINESTYLE
350
100F
  3
ACAD_PLOTSETTINGS
350
1011
  3
ACAD_PLOTSTYLENAME
350
FBF
  3
ACAD_SCALELIST
350
FF3
  3
ACAD_SECTIONVIEWSTYLE
350
1018
  3
ACAD_TABLESTYLE
350
1014
  3
ACAD_VISUALSTYLE
350
FDA
  3
ACDB_RECOMPOSE_DATA
350
1982
  3
AcDbVariableDictionary
350
10D2
  3
AcDsDecomposeData
350
1989
  3
DWGPROPS
350
1983
  0
DICTIONARY
  5
1601
330
FB3
100
AcDbDictionary
280
     1
281
     1
  3
ACAD_LAYERSTATES
360
1602
  0
DICTIONARY
  5
10BF
330
1005
100
AcDbDictionary
280
     1
281
     1
  3
ADSK_XREC_LAYER_RECONCILED
360
10C0
  0
DICTIONARY
  5
10C1
330
1026
100
AcDbDictionary
280
     1
281
     1
  3
ADSK_XREC_LAYER_RECONCILED
360
10C2
  0
DICTIONARY
  5
1920
330
1020
100
AcDbDictionary
280
     1
281
     1
  3
ACAD_SORTENTS
360
1921
  0
DICTIONARY
  5
198C
330
71
100
AcDbDictionary
280
     1
281
     1
  3
ACAD_XREC_ROUNDTRIP
360
198D
  0
DICTIONARY
  5
198E
330
73
100
AcDbDictionary
280
     1
281
     1
  3
ACAD_XREC_ROUNDTRIP
360
198F
  0
XRECORD
  5
10BE
102
{ACAD_REACTORS
330
FBD
102
}
330
FBD
100
AcDbXrecord
280
     1
300
ACDLT
300
2014
300
ACDLT_F_S
  0
DICTIONARY
  5
1013
102
{ACAD_REACTORS
330
FBD
102
}
330
FBD
100
AcDbDictionary
281
     1
  0
DICTIONARY
  5
101A
102
{ACAD_REACTORS
330
FBD
102
}
330
FBD
100
AcDbDictionary
281
     1
  3
Imperial24
350
101B
  0
DICTIONARY
  5
FBE
102
{ACAD_REACTORS
330
FBD
102
}
330
FBD
100
AcDbDictionary
281
     1
  3
*A1
350
181F
  3
*A2
350
185F
  3
*A3
350
18BE
  0
DICTIONARY
  5
1012
102
{ACAD_REACTORS
330
FBD
102
}
330
FBD
100
AcDbDictionary
281
     1
  3
Model
350
1023
  3
レイアウト1
350
101F
  0
DICTIONARY
  5
FC1
102
{ACAD_REACTORS
330
FBD
102
}
330
FBD
100
AcDbDictionary
281
     1
  3
ByBlock
350
FCA
  3
ByLayer
350
FC2
  3
Global
350
FD2
  0
DICTIONARY
  5
1016
102
{ACAD_REACTORS
330
FBD
102
}
330
FBD
100
AcDbDictionary
281
     1
  3
Standard
350
1017
  0
DICTIONARY
  5
100F
102
{ACAD_REACTORS
330
FBD
102
}
330
FBD
100
AcDbDictionary
281
     1
  3
Standard
350
1010
  0
DICTIONARY
  5
1011
102
{ACAD_REACTORS
330
FBD
102
}
330
FBD
100
AcDbDictionary
281
     1
  0
ACDBDICTIONARYWDFLT
  5
FBF
102
{ACAD_REACTORS
330
FBD
102
}
330
FBD
100
AcDbDictionary
281
     1
  3
Normal
350
FC0
100
AcDbDictionaryWithDefault
340
FC0
  0
DICTIONARY
  5
FF3
102
{ACAD_REACTORS
330
FBD
102
}
330
FBD
100
AcDbDictionary
281
     1
  3
A0
350
FF4
  3
A1
350
FF5
  3
A2
350
FF6
  3
A3
350
FF7
  3
A4
350
FF8
  3
A5
350
FF9
  3
A6
350
FFA
  3
A7
350
FFB
  3
A8
350
FFC
  3
A9
350
FFD
  3
B0
350
FFE
  3
B1
350
FFF
  3
B2
350
1000
  3
B3
350
1001
  3
B4
350
1002
  3
B5
350
1003
  3
B6
350
1004
  0
DICTIONARY
  5
1018
102
{ACAD_REACTORS
330
FBD
102
}
330
FBD
100
AcDbDictionary
281
     1
  3
Imperial24
350
1019
  0
DICTIONARY
  5
1014
102
{ACAD_REACTORS
330
FBD
102
}
330
FBD
100
AcDbDictionary
281
     1
  3
Standard
350
1015
  0
DICTIONARY
  5
FDA
102
{ACAD_REACTORS
330
FBD
102
}
330
FBD
100
AcDbDictionary
281
     1
  3
2dWireframe
350
FE0
  3
Basic
350
FDF
  3
Brighten
350
FE6
  3
ColorChange
350
FEA
  3
Conceptual
350
FE3
  3
Dim
350
FE5
  3
EdgeColorOff
350
FF2
  3
Facepattern
350
FE9
  3
Flat
350
FDB
  3
FlatWithEdges
350
FDC
  3
Gouraud
350
FDD
  3
GouraudWithEdges
350
FDE
  3
Hidden
350
FE2
  3
JitterOff
350
FF0
  3
Linepattern
350
FE8
  3
OverhangOff
350
FF1
  3
Realistic
350
FE4
  3
Shaded
350
FEF
  3
Shaded with edges
350
FEE
  3
Shades of Gray
350
FEB
  3
Sketchy
350
FEC
  3
Thicken
350
FE7
  3
Wireframe
350
FE1
  3
X-Ray
350
FED
  0
XRECORD
  5
1982
102
{ACAD_REACTORS
330
FBD
102
}
330
FBD
100
AcDbXrecord
280
     1
 90
        1
330
1015
  0
DICTIONARY
  5
10D2
102
{ACAD_REACTORS
330
FBD
102
}
330
FBD
100
AcDbDictionary
281
     1
  3
CANNOSCALE
350
10D7
  3
CMLEADERSTYLE
350
10D4
  3
CTABLESTYLE
350
10D3
  3
CVIEWDETAILSTYLE
350
10D5
  3
CVIEWSECTIONSTYLE
350
10D6
  3
DIMASSOC
350
10DA
  3
INDEXCTL
350
10D9
  3
LAYEREVAL
350
1173
  3
LAYERNOTIFY
350
1174
  3
LIGHTINGUNITS
350
1172
  3
MSLTSCALE
350
1171
  3
SORTENTS
350
10D8
  3
XCLIPFRAME
350
10DB
  0
DICTIONARY
  5
1989
102
{ACAD_REACTORS
330
FBD
102
}
330
FBD
100
AcDbDictionary
281
     1
  3
AcDsRecords
350
198B
  3
AcDsSchemas
350
198A
1001
ACAD
1070
     2
  0
XRECORD
  5
1983
102
{ACAD_REACTORS
330
FBD
102
}
330
FBD
100
AcDbXrecord
280
     1
  1
DWGPROPS COOKIE
  2

  3

  4

  6

  7

  8
morison
  9

300
=
301
=
302
=
303
=
304
=
305
=
306
=
307
=
308
=
309
=
 40
0.2784321180555556
 41
2456336.369642072
 42
2458045.861006794
  1

 90
        0
  0
DICTIONARY
  5
1602
102
{ACAD_REACTORS
330
1601
102
}
330
1601
100
AcDbDictionary
281
     1
  0
XRECORD
  5
10C0
102
{ACAD_REACTORS
330
10BF
102
}
330
10BF
100
AcDbXrecord
280
     1
290
     1
  0
XRECORD
  5
10C2
102
{ACAD_REACTORS
330
10C1
102
}
330
10C1
100
AcDbXrecord
280
     1
290
     1
  0
SORTENTSTABLE
  5
1921
102
{ACAD_REACTORS
330
1920
102
}
330
1920
100
AcDbSortentsTable
330
1020
331
918
  5
918
331
9F9
  5
9F9
331
A1B
  5
A1B
331
9A4
  5
9A4
331
982
  5
982
331
B85
  5
B85
331
9C6
  5
9C6
331
BA7
  5
BA7
331
9E8
  5
9E8
331
6CB
  5
6CB
331
637
  5
637
331
615
  5
615
331
4E9
  5
4E9
331
8BF
  5
8BF
331
89D
  5
89D
331
A0A
  5
A0A
331
993
  5
993
331
979
  5
979
331
B74
  5
B74
331
9B5
  5
9B5
331
B96
  5
B96
331
9D7
  5
9D7
331
88C
  5
88C
331
648
  5
648
331
626
  5
626
331
604
  5
604
331
4D8
  5
4D8
331
8AE
  5
8AE
331
16D
  5
16D
331
15C
  5
15C
331
9A2
  5
9A2
331
980
  5
980
331
B83
  5
B83
331
9C4
  5
9C4
331
BA5
  5
BA5
331
9E6
  5
9E6
331
635
  5
635
331
613
  5
613
331
8BD
  5
8BD
331
89B
  5
89B
331
A08
  5
A08
331
991
  5
991
331
977
  5
977
331
B94
  5
B94
331
9D5
  5
9D5
331
9B3
  5
9B3
331
BB6
  5
BB6
331
D48
  5
D48
331
9F7
  5
9F7
331
88A
  5
88A
331
646
  5
646
331
602
  5
602
331
4D6
  5
4D6
331
8AC
  5
8AC
331
4E7
  5
4E7
331
16B
  5
16B
331
15A
  5
15A
331
9A0
  5
9A0
331
B81
  5
B81
331
9C2
  5
9C2
331
BA3
  5
BA3
331
9E4
  5
9E4
331
BC5
  5
BC5
331
665
  5
665
331
633
  5
633
331
611
  5
611
331
8BB
  5
8BB
331
899
  5
899
331
A06
  5
A06
331
98F
  5
98F
331
9B1
  5
9B1
331
B92
  5
B92
331
9D3
  5
9D3
331
D46
  5
D46
331
9F5
  5
9F5
331
644
  5
644
331
622
  5
622
331
600
  5
600
331
4D4
  5
4D4
331
8AA
  5
8AA
331
A17
  5
A17
331
4E5
  5
4E5
331
169
  5
169
331
158
  5
158
331
BA1
  5
BA1
331
E35
  5
E35
331
9E2
  5
9E2
331
631
  5
631
331
8B9
  5
8B9
331
897
  5
897
331
A04
  5
A04
331
98D
  5
98D
331
9AF
  5
9AF
331
B90
  5
B90
331
9D1
  5
9D1
331
D44
  5
D44
331
9F3
  5
9F3
331
642
  5
642
331
620
  5
620
331
5FE
  5
5FE
331
4D2
  5
4D2
331
8A8
  5
8A8
331
99E
  5
99E
331
B7F
  5
B7F
331
60F
  5
60F
331
4E3
  5
4E3
331
167
  5
167
331
156
  5
156
331
9E0
  5
9E0
331
E33
  5
E33
331
6BB
  5
6BB
331
8B7
  5
8B7
331
895
  5
895
331
A02
  5
A02
331
A5C
  5
A5C
331
9AD
  5
9AD
331
98B
  5
98B
331
B8E
  5
B8E
331
9CF
  5
9CF
331
D42
  5
D42
331
9F1
  5
9F1
331
640
  5
640
331
61E
  5
61E
331
4D0
  5
4D0
331
A13
  5
A13
331
99C
  5
99C
331
B7D
  5
B7D
331
9BE
  5
9BE
331
B9F
  5
B9F
331
62F
  5
62F
331
60D
  5
60D
331
4E1
  5
4E1
331
165
  5
165
331
154
  5
154
331
A00
  5
A00
331
9AB
  5
9AB
331
989
  5
989
331
8B5
  5
8B5
331
893
  5
893
331
B8C
  5
B8C
331
9CD
  5
9CD
331
9EF
  5
9EF
331
63E
  5
63E
331
61C
  5
61C
331
8A4
  5
8A4
331
99A
  5
99A
331
B7B
  5
B7B
331
B9D
  5
B9D
331
9DE
  5
9DE
331
62D
  5
62D
331
60B
  5
60B
331
4DF
  5
4DF
331
163
  5
163
331
152
  5
152
331
9FE
  5
9FE
331
9A9
  5
9A9
331
987
  5
987
331
8B3
  5
8B3
331
891
  5
891
331
B8A
  5
B8A
331
9CB
  5
9CB
331
D3E
  5
D3E
331
9ED
  5
9ED
331
63C
  5
63C
331
61A
  5
61A
331
8C4
  5
8C4
331
8A2
  5
8A2
331
97E
  5
97E
331
4DD
  5
4DD
331
161
  5
161
331
150
  5
150
331
998
  5
998
331
B79
  5
B79
331
B9B
  5
B9B
331
9DC
  5
9DC
331
64D
  5
64D
331
62B
  5
62B
331
609
  5
609
331
14F
  5
14F
331
9FC
  5
9FC
331
9A7
  5
9A7
331
985
  5
985
331
8B1
  5
8B1
331
B88
  5
B88
331
9C9
  5
9C9
331
BAA
  5
BAA
331
9EB
  5
9EB
331
63A
  5
63A
331
618
  5
618
331
170
  5
170
331
8C2
  5
8C2
331
8A0
  5
8A0
331
97C
  5
97C
331
5CD
  5
5CD
331
4DB
  5
4DB
331
15F
  5
15F
331
A0D
  5
A0D
331
996
  5
996
331
B77
  5
B77
331
9B8
  5
9B8
331
B99
  5
B99
331
9DA
  5
9DA
331
88F
  5
88F
331
629
  5
629
331
607
  5
607
331
14D
  5
14D
331
9FA
  5
9FA
331
9A5
  5
9A5
331
983
  5
983
331
B86
  5
B86
331
9C7
  5
9C7
331
BA8
  5
BA8
331
1884
  5
1884
331
9E9
  5
9E9
331
638
  5
638
331
616
  5
616
331
4EA
  5
4EA
331
8C0
  5
8C0
331
89E
  5
89E
331
A0B
  5
A0B
331
994
  5
994
331
97A
  5
97A
331
B75
  5
B75
331
9B6
  5
9B6
331
B97
  5
B97
331
9D8
  5
9D8
331
88D
  5
88D
331
649
  5
649
331
627
  5
627
331
605
  5
605
331
4D9
  5
4D9
331
8AF
  5
8AF
331
16E
  5
16E
331
15D
  5
15D
331
9F8
  5
9F8
331
9A3
  5
9A3
331
981
  5
981
331
B84
  5
B84
331
9C5
  5
9C5
331
BA6
  5
BA6
331
9E7
  5
9E7
331
636
  5
636
331
614
  5
614
331
4E8
  5
4E8
331
8BE
  5
8BE
331
89C
  5
89C
331
A09
  5
A09
331
992
  5
992
331
978
  5
978
331
B73
  5
B73
331
9B4
  5
9B4
331
B95
  5
B95
331
9D6
  5
9D6
331
D49
  5
D49
331
88B
  5
88B
331
647
  5
647
331
625
  5
625
331
603
  5
603
331
4D7
  5
4D7
331
191F
  5
191F
331
8AD
  5
8AD
331
16C
  5
16C
331
15B
  5
15B
331
A18
  5
A18
331
9A1
  5
9A1
331
B82
  5
B82
331
9C3
  5
9C3
331
BA4
  5
BA4
331
9E5
  5
9E5
331
634
  5
634
331
612
  5
612
331
8BC
  5
8BC
331
89A
  5
89A
331
A07
  5
A07
331
990
  5
990
331
976
  5
976
331
9B2
  5
9B2
331
B93
  5
B93
331
9D4
  5
9D4
331
D47
  5
D47
331
9F6
  5
9F6
331
645
  5
645
331
623
  5
623
331
601
  5
601
331
4D5
  5
4D5
331
8E5
  5
8E5
331
8AB
  5
8AB
331
4E6
  5
4E6
331
16A
  5
16A
331
159
  5
159
331
B80
  5
B80
331
9C1
  5
9C1
331
BA2
  5
BA2
331
9E3
  5
9E3
331
632
  5
632
331
610
  5
610
331
8BA
  5
8BA
331
898
  5
898
331
A05
  5
A05
331
98E
  5
98E
331
9B0
  5
9B0
331
B91
  5
B91
331
9D2
  5
9D2
331
D45
  5
D45
331
9F4
  5
9F4
331
643
  5
643
331
621
  5
621
331
5FF
  5
5FF
331
5B5
  5
5B5
331
4D3
  5
4D3
331
8A9
  5
8A9
331
A16
  5
A16
331
99F
  5
99F
331
4E4
  5
4E4
331
168
  5
168
331
157
  5
157
331
BA0
  5
BA0
331
9E1
  5
9E1
331
630
  5
630
331
8B8
  5
8B8
331
896
  5
896
331
A03
  5
A03
331
9AE
  5
9AE
331
98C
  5
98C
331
9D0
  5
9D0
331
9F2
  5
9F2
331
D43
  5
D43
331
6AB
  5
6AB
331
641
  5
641
331
61F
  5
61F
331
4D1
  5
4D1
331
8A7
  5
8A7
331
99D
  5
99D
331
B7E
  5
B7E
331
60E
  5
60E
331
4E2
  5
4E2
331
166
  5
166
331
155
  5
155
331
8B6
  5
8B6
331
894
  5
894
331
A01
  5
A01
331
9AC
  5
9AC
331
98A
  5
98A
331
B8D
  5
B8D
331
9CE
  5
9CE
331
D41
  5
D41
331
9F0
  5
9F0
331
63F
  5
63F
331
61D
  5
61D
331
4CF
  5
4CF
331
8A5
  5
8A5
331
99B
  5
99B
331
B7C
  5
B7C
331
B9E
  5
B9E
331
9DF
  5
9DF
331
62E
  5
62E
331
60C
  5
60C
331
4E0
  5
4E0
331
164
  5
164
331
153
  5
153
331
9FF
  5
9FF
331
9AA
  5
9AA
331
988
  5
988
331
8B4
  5
8B4
331
892
  5
892
331
B8B
  5
B8B
331
9CC
  5
9CC
331
D3F
  5
D3F
331
9EE
  5
9EE
331
821
  5
821
331
63D
  5
63D
331
61B
  5
61B
331
8A3
  5
8A3
331
999
  5
999
331
97F
  5
97F
331
B7A
  5
B7A
331
9BB
  5
9BB
331
B9C
  5
B9C
331
9DD
  5
9DD
331
62C
  5
62C
331
60A
  5
60A
331
4DE
  5
4DE
331
162
  5
162
331
151
  5
151
331
890
  5
890
331
9FD
  5
9FD
331
9A8
  5
9A8
331
986
  5
986
331
8B2
  5
8B2
331
B89
  5
B89
331
9CA
  5
9CA
331
BAB
  5
BAB
331
D3D
  5
D3D
331
9EC
  5
9EC
331
63B
  5
63B
331
619
  5
619
331
171
  5
171
331
8A1
  5
8A1
331
97D
  5
97D
331
4DC
  5
4DC
331
160
  5
160
331
997
  5
997
331
B78
  5
B78
331
B9A
  5
B9A
331
9DB
  5
9DB
331
62A
  5
62A
331
608
  5
608
331
14E
  5
14E
331
9FB
  5
9FB
331
984
  5
984
331
8B0
  5
8B0
331
9A6
  5
9A6
331
B87
  5
B87
331
9C8
  5
9C8
331
BA9
  5
BA9
331
9EA
  5
9EA
331
693
  5
693
331
639
  5
639
331
617
  5
617
331
5E5
  5
5E5
331
8C1
  5
8C1
331
89F
  5
89F
331
97B
  5
97B
331
4DA
  5
4DA
331
15E
  5
15E
331
A0C
  5
A0C
331
995
  5
995
331
B76
  5
B76
331
9B7
  5
9B7
331
B98
  5
B98
331
9D9
  5
9D9
331
88E
  5
88E
331
64A
  5
64A
331
628
  5
628
331
606
  5
606
331
16F
  5
16F
331
14C
  5
14C
  0
XRECORD
  5
198D
102
{ACAD_REACTORS
330
198C
102
}
330
198C
100
AcDbXrecord
280
     1
102
SHADEPLOT
 70
     0
  0
XRECORD
  5
198F
102
{ACAD_REACTORS
330
198E
102
}
330
198E
100
AcDbXrecord
280
     1
102
SHADEPLOT
 70
     0
  0
ACDBDETAILVIEWSTYLE
  5
101B
102
{ACAD_XDICTIONARY
360
116E
102
}
102
{ACAD_REACTORS
330
101A
102
}
330
101A
100
AcDbModelDocViewStyle
 70
     0
  3
Imperial24
290
     0
100
AcDbDetailViewStyle
 70
     0
 71
     0
 90
        3
 71
     1
340
1006
 40
0.24
340
0
 40
0.24
300

 40
0.36
280
     3
 71
     2
340
100D
 90
       25
 71
     3
340
1006
 40
0.24
 90
        1
 40
0.75
 90
        1
300
%<\AcVar ViewType \f "%tc1">% %<\AcVar ViewDetailId>%\PSCALE %<\AcVar ViewScale \f "%sn">%
 71
     4
340
100D
 90
       25
340
100D
 90
       25
280
     0
  0
GROUP
  5
181F
102
{ACAD_REACTORS
330
FBE
102
}
330
FBE
100
AcDbGroup
300

 70
     1
 71
     1
340
A5C
340
99B
340
99A
340
999
340
998
340
996
340
995
340
994
340
993
340
992
340
991
340
990
340
98B
340
997
340
98F
340
98E
340
98D
340
98C
340
98A
340
987
340
988
340
985
340
989
340
986
340
984
340
983
340
982
340
980
340
97F
340
97E
340
97D
340
97C
340
97B
340
97A
340
979
340
978
340
977
340
976
340
981
  0
GROUP
  5
185F
102
{ACAD_REACTORS
330
FBE
102
}
330
FBE
100
AcDbGroup
300

 70
     1
 71
     1
340
9D3
340
9D0
340
9E0
340
9DF
340
9DE
340
9DD
340
9DC
340
9DB
340
9D6
340
9E6
340
9E5
340
9E4
340
9E3
340
9E2
340
9E1
340
9DA
340
9D9
340
9D8
340
9D7
340
9D5
340
9D2
340
9D4
340
9D1
340
9CF
340
9CE
340
9CD
340
9CC
340
9CB
340
9CA
340
9C9
340
9C8
340
9C7
340
9C6
340
9C5
340
9C4
340
9C3
340
9C2
340
9C1
  0
GROUP
  5
18BE
102
{ACAD_REACTORS
330
FBE
102
}
330
FBE
100
AcDbGroup
300

 70
     1
 71
     1
340
9FA
340
9F7
340
9F5
340
9F4
340
9F9
340
9F6
340
A0C
340
A0B
340
A0A
340
A09
340
A08
340
A07
340
A06
340
A05
340
A04
340
A03
340
A02
340
A01
340
A00
340
9FF
340
9FE
340
9FD
340
9FC
340
9FB
340
9F8
340
9F1
340
9EB
340
9E9
340
9E7
340
9F0
340
9EF
340
9EE
340
9ED
340
9EC
340
9EA
340
9E8
340
9F3
340
9F2
  0
LAYOUT
  5
1023
102
{ACAD_XDICTIONARY
360
19C8
102
}
102
{ACAD_REACTORS
330
1012
102
}
330
1012
100
AcDbPlotSettings
  1

  2
Color MultiWriter 9300C
  4
A4
  6

 40
4.857749938964843
 41
4.942390441894531
 42
4.942413330078125
 43
4.857757568359375
 44
209.9733276367187
 45
297.0106506347656
 46
0.0
 47
0.0
 48
0.0
 49
0.0
140
0.0
141
0.0
142
1.0
143
76.44039130180022
 70
 11952
 72
     0
 73
     1
 74
     0
  7

 75
     0
147
0.0130820889711543
148
-243117.0845698228
149
-322105.6508068161
100
AcDbLayout
  1
Model
 70
     1
 71
     0
 10
0.0
 20
0.0
 11
12.0
 21
9.0
 12
0.0
 22
0.0
 32
0.0
 14
0.0
 24
0.0
 34
0.0
 15
0.0
 25
0.0
 35
0.0
146
0.0
 13
0.0
 23
0.0
 33
0.0
 16
1.0
 26
0.0
 36
0.0
 17
0.0
 27
1.0
 37
0.0
 76
     0
330
1020
331
1024
1001
ACAD_PSEXT
1000
Color MultiWriter 9300C
1000
NEC Color MultiWriter 9300C
1000
120.1.1.82
1000

1070
     0
  0
LAYOUT
  5
101F
102
{ACAD_XDICTIONARY
360
19C6
102
}
102
{ACAD_REACTORS
330
1012
102
}
330
1012
100
AcDbPlotSettings
  1

  2
Color MultiWriter 9300C
  4

  6

 40
0.0
 41
0.0
 42
0.0
 43
0.0
 44
0.0
 45
0.0
 46
0.0
 47
0.0
 48
0.0
 49
0.0
140
0.0
141
0.0
142
1.0
143
1.0
 70
   688
 72
     0
 73
     0
 74
     5
  7

 75
    16
147
1.0
148
0.0
149
0.0
100
AcDbLayout
  1
レイアウト1
 70
     1
 71
     1
 10
-6.350006103515625
 20
-6.349999904632568
 11
273.0499877929688
 21
209.5499939918518
 12
0.0
 22
0.0
 32
0.0
 14
26.66999878883363
 24
20.31999878883363
 34
0.0
 15
240.0299890995026
 25
182.8799890995025
 35
0.0
146
0.0
 13
0.0
 23
0.0
 33
0.0
 16
1.0
 26
0.0
 36
0.0
 17
0.0
 27
1.0
 37
0.0
 76
     0
330
101C
331
71
  0
MATERIAL
  5
FCA
102
{ACAD_XDICTIONARY
360
FCB
102
}
102
{ACAD_REACTORS
330
FC1
102
}
330
FC1
100
AcDbMaterial
  1
ByBlock
 72
     0
 43
0.0208333333333333
 43
0.0
 43
0.0
 43
0.0
 43
0.0
 43
0.0208333333333333
 43
0.0
 43
0.0
 43
0.0
 43
0.0
 43
1.0
 43
0.0
 43
0.0
 43
0.0
 43
0.0
 43
1.0
 77
     0
 47
0.0208333333333333
 47
0.0
 47
0.0
 47
0.0
 47
0.0
 47
0.0208333333333333
 47
0.0
 47
0.0
 47
0.0
 47
0.0
 47
1.0
 47
0.0
 47
0.0
 47
0.0
 47
0.0
 47
1.0
171
     0
 49
0.0208333333333333
 49
0.0
 49
0.0
 49
0.0
 49
0.0
 49
0.0208333333333333
 49
0.0
 49
0.0
 49
0.0
 49
0.0
 49
1.0
 49
0.0
 49
0.0
 49
0.0
 49
0.0
 49
1.0
175
     0
142
0.0208333333333333
142
0.0
142
0.0
142
0.0
142
0.0
142
0.0208333333333333
142
0.0
142
0.0
142
0.0
142
0.0
142
1.0
142
0.0
142
0.0
142
0.0
142
0.0
142
1.0
179
     0
144
0.0208333333333333
144
0.0
144
0.0
144
0.0
144
0.0
144
0.0208333333333333
144
0.0
144
0.0
144
0.0
144
0.0
144
1.0
144
0.0
144
0.0
144
0.0
144
0.0
144
1.0
147
0.0208333333333333
147
0.0
147
0.0
147
0.0
147
0.0
147
0.0208333333333333
147
0.0
147
0.0
147
0.0
147
0.0
147
1.0
147
0.0
147
0.0
147
0.0
147
0.0
147
1.0
  0
MATERIAL
  5
FC2
102
{ACAD_XDICTIONARY
360
FC3
102
}
102
{ACAD_REACTORS
330
FC1
102
}
330
FC1
100
AcDbMaterial
  1
ByLayer
 72
     0
 43
0.0208333333333333
 43
0.0
 43
0.0
 43
0.0
 43
0.0
 43
0.0208333333333333
 43
0.0
 43
0.0
 43
0.0
 43
0.0
 43
1.0
 43
0.0
 43
0.0
 43
0.0
 43
0.0
 43
1.0
 77
     0
 47
0.0208333333333333
 47
0.0
 47
0.0
 47
0.0
 47
0.0
 47
0.0208333333333333
 47
0.0
 47
0.0
 47
0.0
 47
0.0
 47
1.0
 47
0.0
 47
0.0
 47
0.0
 47
0.0
 47
1.0
171
     0
 49
0.0208333333333333
 49
0.0
 49
0.0
 49
0.0
 49
0.0
 49
0.0208333333333333
 49
0.0
 49
0.0
 49
0.0
 49
0.0
 49
1.0
 49
0.0
 49
0.0
 49
0.0
 49
0.0
 49
1.0
175
     0
142
0.0208333333333333
142
0.0
142
0.0
142
0.0
142
0.0
142
0.0208333333333333
142
0.0
142
0.0
142
0.0
142
0.0
142
1.0
142
0.0
142
0.0
142
0.0
142
0.0
142
1.0
179
     0
144
0.0208333333333333
144
0.0
144
0.0
144
0.0
144
0.0
144
0.0208333333333333
144
0.0
144
0.0
144
0.0
144
0.0
144
1.0
144
0.0
144
0.0
144
0.0
144
0.0
144
1.0
147
0.0208333333333333
147
0.0
147
0.0
147
0.0
147
0.0
147
0.0208333333333333
147
0.0
147
0.0
147
0.0
147
0.0
147
1.0
147
0.0
147
0.0
147
0.0
147
0.0
147
1.0
  0
MATERIAL
  5
FD2
102
{ACAD_XDICTIONARY
360
FD3
102
}
102
{ACAD_REACTORS
330
FC1
102
}
330
FC1
100
AcDbMaterial
  1
Global
 72
     0
 43
0.0208333333333333
 43
0.0
 43
0.0
 43
0.0
 43
0.0
 43
0.0208333333333333
 43
0.0
 43
0.0
 43
0.0
 43
0.0
 43
1.0
 43
0.0
 43
0.0
 43
0.0
 43
0.0
 43
1.0
 77
     0
 47
0.0208333333333333
 47
0.0
 47
0.0
 47
0.0
 47
0.0
 47
0.0208333333333333
 47
0.0
 47
0.0
 47
0.0
 47
0.0
 47
1.0
 47
0.0
 47
0.0
 47
0.0
 47
0.0
 47
1.0
171
     0
 49
0.0208333333333333
 49
0.0
 49
0.0
 49
0.0
 49
0.0
 49
0.0208333333333333
 49
0.0
 49
0.0
 49
0.0
 49
0.0
 49
1.0
 49
0.0
 49
0.0
 49
0.0
 49
0.0
 49
1.0
175
     0
142
0.0208333333333333
142
0.0
142
0.0
142
0.0
142
0.0
142
0.0208333333333333
142
0.0
142
0.0
142
0.0
142
0.0
142
1.0
142
0.0
142
0.0
142
0.0
142
0.0
142
1.0
179
     0
144
0.0208333333333333
144
0.0
144
0.0
144
0.0
144
0.0
144
0.0208333333333333
144
0.0
144
0.0
144
0.0
144
0.0
144
1.0
144
0.0
144
0.0
144
0.0
144
0.0
144
1.0
147
0.0208333333333333
147
0.0
147
0.0
147
0.0
147
0.0
147
0.0208333333333333
147
0.0
147
0.0
147
0.0
147
0.0
147
1.0
147
0.0
147
0.0
147
0.0
147
0.0
147
1.0
  0
MLEADERSTYLE
  5
1017
102
{ACAD_REACTORS
330
1016
102
}
330
1016
100
AcDbMLeaderStyle
170
     2
171
     1
172
     0
 90
        2
 40
0.0
 41
0.0
173
     1
 91
-1056964608
340
100B
 92
       -2
290
     1
 42
0.09
291
     1
 43
0.36
  3
Standard
 44
0.18
300

342
1006
174
     1
178
     6
175
     1
176
     0
 93
-1056964608
 45
0.18
292
     0
297
     0
 46
0.18
 94
-1056964608
 47
1.0
 49
1.0
140
1.0
293
     1
141
0.0
294
     1
177
     0
142
1.0
295
     0
296
     0
143
0.125
1001
ACAD_MLEADERVER
1070
     2
  0
MLINESTYLE
  5
1010
102
{ACAD_REACTORS
330
100F
102
}
330
100F
100
AcDbMlineStyle
  2
STANDARD
 70
     0
  3

 62
   256
 51
90.0
 52
90.0
 71
     2
 49
0.5
 62
   256
  6
BYLAYER
 49
-0.5
 62
   256
  6
BYLAYER
  0
ACDBPLACEHOLDER
  5
FC0
102
{ACAD_REACTORS
330
FBF
102
}
330
FBF
  0
SCALE
  5
FF4
102
{ACAD_REACTORS
330
FF3
102
}
330
FF3
100
AcDbScale
 70
     0
300
1:1
140
1.0
141
1.0
290
     1
  0
SCALE
  5
FF5
102
{ACAD_REACTORS
330
FF3
102
}
330
FF3
100
AcDbScale
 70
     0
300
1/128" = 1'-0"
140
0.0078125
141
12.0
290
     0
  0
SCALE
  5
FF6
102
{ACAD_REACTORS
330
FF3
102
}
330
FF3
100
AcDbScale
 70
     0
300
1/64" = 1'-0"
140
0.015625
141
12.0
290
     0
  0
SCALE
  5
FF7
102
{ACAD_REACTORS
330
FF3
102
}
330
FF3
100
AcDbScale
 70
     0
300
1/32" = 1'-0"
140
0.03125
141
12.0
290
     0
  0
SCALE
  5
FF8
102
{ACAD_REACTORS
330
FF3
102
}
330
FF3
100
AcDbScale
 70
     0
300
1/16" = 1'-0"
140
0.0625
141
12.0
290
     0
  0
SCALE
  5
FF9
102
{ACAD_REACTORS
330
FF3
102
}
330
FF3
100
AcDbScale
 70
     0
300
3/32" = 1'-0"
140
0.09375
141
12.0
290
     0
  0
SCALE
  5
FFA
102
{ACAD_REACTORS
330
FF3
102
}
330
FF3
100
AcDbScale
 70
     0
300
1/8" = 1'-0"
140
0.125
141
12.0
290
     0
  0
SCALE
  5
FFB
102
{ACAD_REACTORS
330
FF3
102
}
330
FF3
100
AcDbScale
 70
     0
300
3/16" = 1'-0"
140
0.1875
141
12.0
290
     0
  0
SCALE
  5
FFC
102
{ACAD_REACTORS
330
FF3
102
}
330
FF3
100
AcDbScale
 70
     0
300
1/4" = 1'-0"
140
0.25
141
12.0
290
     0
  0
SCALE
  5
FFD
102
{ACAD_REACTORS
330
FF3
102
}
330
FF3
100
AcDbScale
 70
     0
300
3/8" = 1'-0"
140
0.375
141
12.0
290
     0
  0
SCALE
  5
FFE
102
{ACAD_REACTORS
330
FF3
102
}
330
FF3
100
AcDbScale
 70
     0
300
1/2" = 1'-0"
140
0.5
141
12.0
290
     0
  0
SCALE
  5
FFF
102
{ACAD_REACTORS
330
FF3
102
}
330
FF3
100
AcDbScale
 70
     0
300
3/4" = 1'-0"
140
0.75
141
12.0
290
     0
  0
SCALE
  5
1000
102
{ACAD_REACTORS
330
FF3
102
}
330
FF3
100
AcDbScale
 70
     0
300
1" = 1'-0"
140
1.0
141
12.0
290
     0
  0
SCALE
  5
1001
102
{ACAD_REACTORS
330
FF3
102
}
330
FF3
100
AcDbScale
 70
     0
300
1-1/2" = 1'-0"
140
1.5
141
12.0
290
     0
  0
SCALE
  5
1002
102
{ACAD_REACTORS
330
FF3
102
}
330
FF3
100
AcDbScale
 70
     0
300
3" = 1'-0"
140
3.0
141
12.0
290
     0
  0
SCALE
  5
1003
102
{ACAD_REACTORS
330
FF3
102
}
330
FF3
100
AcDbScale
 70
     0
300
6" = 1'-0"
140
6.0
141
12.0
290
     0
  0
SCALE
  5
1004
102
{ACAD_REACTORS
330
FF3
102
}
330
FF3
100
AcDbScale
 70
     0
300
1'-0" = 1'-0"
140
12.0
141
12.0
290
     0
  0
ACDBSECTIONVIEWSTYLE
  5
1019
102
{ACAD_XDICTIONARY
360
116C
102
}
102
{ACAD_REACTORS
330
1018
102
}
330
1018
100
AcDbModelDocViewStyle
 70
     0
  3
Imperial24
290
     0
100
AcDbSectionViewStyle
 70
     0
 71
     0
 90
       78
 71
     1
340
1006
 40
0.24
340
0
340
0
 40
0.24
300
I, O, Q, S, X, Z
 40
0.48
 90
        3
 40
0.18
 90
        1
 71
     2
340
100D
 90
       25
340
100D
 90
       50
 40
0.24
 40
0.0
 40
0.24
 71
     3
340
1006
 40
0.24
 90
        1
 40
0.75
 90
        1
300
%<\AcVar ViewType \f "%tc1">% %<\AcVar ViewSectionStartId>%-%<\AcVar ViewSectionEndId>%\PSCALE %<\AcVar ViewScale \f "%sn">%
 71
     4
300
ANSI31
 40
1.0
 90
        0
290
     0
290
     0
 90
        6
 40
0.0
 40
1.570796326794896
 40
0.2617993877991494
 40
1.308996938995747
 40
-0.2617993877991494
 40
1.832595714594046
  0
TABLESTYLE
  5
1015
102
{ACAD_XDICTIONARY
360
1980
102
}
102
{ACAD_REACTORS
330
1014
102
}
330
1014
100
AcDbTableStyle
  3
Standard
 70
     0
 71
     0
 40
0.06
 41
0.06
280
     0
281
     0
  7
STANDARD
140
0.18
170
     2
 62
     0
 63
     7
283
     0
274
    -2
284
     1
 64
     0
275
    -2
285
     1
 65
     0
276
    -2
286
     1
 66
     0
277
    -2
287
     1
 67
     0
278
    -2
288
     1
 68
     0
279
    -2
289
     1
 69
     0
  7
STANDARD
140
0.25
170
     5
 62
     0
 63
     7
283
     0
274
    -2
284
     1
 64
     0
275
    -2
285
     1
 65
     0
276
    -2
286
     1
 66
     0
277
    -2
287
     1
 67
     0
278
    -2
288
     1
 68
     0
279
    -2
289
     1
 69
     0
  7
STANDARD
140
0.18
170
     5
 62
     0
 63
     7
283
     0
274
    -2
284
     1
 64
     0
275
    -2
285
     1
 65
     0
276
    -2
286
     1
 66
     0
277
    -2
287
     1
 67
     0
278
    -2
288
     1
 68
     0
279
    -2
289
     1
 69
     0
  0
VISUALSTYLE
  5
FE0
102
{ACAD_XDICTIONARY
360
199D
102
}
102
{ACAD_REACTORS
330
FDA
102
}
330
FDA
100
AcDbVisualStyle
  2
2dWireframe
 70
     4
 71
     0
 72
     2
 73
     0
 90
        0
 40
-0.6
 41
-30.0
 62
     5
 63
     7
 74
     1
 91
        4
 64
     7
 65
   257
 75
     1
175
     1
 42
1.0
 92
        0
 66
   257
 43
1.0
 76
     1
 77
     6
 78
     2
 67
     7
 79
     5
170
     0
171
     0
290
     0
174
     0
 93
        1
 44
0.0
173
     0
291
     0
 45
0.0
1001
ACAD
1000
AcDbSavedByObjectVersion
1070
     0
  0
VISUALSTYLE
  5
FDF
102
{ACAD_XDICTIONARY
360
199B
102
}
102
{ACAD_REACTORS
330
FDA
102
}
330
FDA
100
AcDbVisualStyle
  2
Basic
 70
     7
 71
     1
 72
     0
 73
     1
 90
        0
 40
-0.6
 41
-30.0
 62
     5
 63
     7
 74
     0
 91
        4
 64
     7
 65
   257
 75
     1
175
     1
 42
1.0
 92
        8
 66
     7
 43
1.0
 76
     1
 77
     6
 78
     2
 67
     7
 79
     5
170
     0
171
     0
290
     0
174
     0
 93
        1
 44
0.0
173
     0
291
     1
 45
0.0
1001
ACAD
1000
AcDbSavedByObjectVersion
1070
     0
  0
VISUALSTYLE
  5
FE6
102
{ACAD_XDICTIONARY
360
19A9
102
}
102
{ACAD_REACTORS
330
FDA
102
}
330
FDA
100
AcDbVisualStyle
  2
Brighten
 70
    12
 71
     2
 72
     2
 73
     0
 90
        0
 40
-0.6
 41
-30.0
 62
     5
 63
     7
 74
     1
 91
        4
 64
     7
 65
   257
 75
     1
175
     1
 42
1.0
 92
        8
 66
     7
 43
1.0
 76
     1
 77
     6
 78
     2
 67
     7
 79
     5
170
     0
171
     0
290
     0
174
     0
 93
        1
 44
50.0
173
     0
291
     1
 45
0.0
1001
ACAD
1000
AcDbSavedByObjectVersion
1070
     0
  0
VISUALSTYLE
  5
FEA
102
{ACAD_XDICTIONARY
360
19B1
102
}
102
{ACAD_REACTORS
330
FDA
102
}
330
FDA
100
AcDbVisualStyle
  2
ColorChange
 70
    16
 71
     2
 72
     2
 73
     3
 90
        0
 40
-0.6
 41
-30.0
 62
     5
 63
     8
 74
     1
 91
        4
 64
     7
 65
   257
 75
     1
175
     1
 42
1.0
 92
        8
 66
     8
 43
1.0
 76
     1
 77
     6
 78
     2
 67
     7
 79
     5
170
     0
171
     0
290
     0
174
     0
 93
        1
 44
0.0
173
     0
291
     1
 45
0.0
1001
ACAD
1000
AcDbSavedByObjectVersion
1070
     0
  0
VISUALSTYLE
  5
FE3
102
{ACAD_XDICTIONARY
360
19A3
102
}
102
{ACAD_REACTORS
330
FDA
102
}
330
FDA
100
AcDbVisualStyle
  2
Conceptual
 70
     9
 71
     3
 72
     2
 73
     0
 90
        0
 40
-0.6
 41
-30.0
 62
     5
 63
     7
 74
     2
 91
        2
 64
     7
 65
   257
 75
     1
175
     1
 42
179.0
 92
        8
 66
     7
 43
1.0
 76
     1
 77
     6
 78
     2
 67
     7
 79
     3
170
     0
171
     0
290
     0
174
     0
 93
        1
 44
0.0
173
     0
291
     0
 45
0.0
1001
ACAD
1000
AcDbSavedByObjectVersion
1070
     0
  0
VISUALSTYLE
  5
FE5
102
{ACAD_XDICTIONARY
360
19A7
102
}
102
{ACAD_REACTORS
330
FDA
102
}
330
FDA
100
AcDbVisualStyle
  2
Dim
 70
    11
 71
     2
 72
     2
 73
     0
 90
        0
 40
-0.6
 41
-30.0
 62
     5
 63
     7
 74
     1
 91
        4
 64
     7
 65
   257
 75
     1
175
     1
 42
1.0
 92
        8
 66
     7
 43
1.0
 76
     1
 77
     6
 78
     2
 67
     7
 79
     5
170
     0
171
     0
290
     0
174
     0
 93
        1
 44
-50.0
173
     0
291
     1
 45
0.0
1001
ACAD
1000
AcDbSavedByObjectVersion
1070
     0
  0
VISUALSTYLE
  5
FF2
102
{ACAD_XDICTIONARY
360
19C1
102
}
102
{ACAD_REACTORS
330
FDA
102
}
330
FDA
100
AcDbVisualStyle
  2
EdgeColorOff
 70
    22
 71
     2
 72
     2
 73
     0
 90
        0
 40
-0.6
 41
-30.0
 62
     5
 63
     7
 74
     1
 91
        4
 64
     7
 65
   257
 75
     1
175
     1
 42
1.0
 92
        8
 66
     7
 43
1.0
 76
     1
 77
     6
 78
     2
 67
     7
 79
     5
170
     0
171
     0
290
     0
174
     0
 93
        1
 44
0.0
173
     0
291
     1
 45
0.0
1001
ACAD
1000
AcDbSavedByObjectVersion
1070
     0
  0
VISUALSTYLE
  5
FE9
102
{ACAD_XDICTIONARY
360
19AF
102
}
102
{ACAD_REACTORS
330
FDA
102
}
330
FDA
100
AcDbVisualStyle
  2
Facepattern
 70
    15
 71
     2
 72
     2
 73
     0
 90
        0
 40
-0.6
 41
-30.0
 62
     5
 63
     7
 74
     1
 91
        4
 64
     7
 65
   257
 75
     1
175
     1
 42
1.0
 92
        8
 66
     7
 43
1.0
 76
     1
 77
     6
 78
     2
 67
     7
 79
     5
170
     0
171
     0
290
     0
174
     0
 93
        1
 44
0.0
173
     0
291
     1
 45
0.0
1001
ACAD
1000
AcDbSavedByObjectVersion
1070
     0
  0
VISUALSTYLE
  5
FDB
102
{ACAD_XDICTIONARY
360
1993
102
}
102
{ACAD_REACTORS
330
FDA
102
}
330
FDA
100
AcDbVisualStyle
  2
Flat
 70
     0
 71
     2
 72
     1
 73
     1
 90
        2
 40
-0.6
 41
30.0
 62
     5
 63
     7
 74
     0
 91
        0
 64
     7
 65
   257
 75
     1
175
     1
 42
1.0
 92
        8
 66
     7
 43
1.0
 76
     1
 77
     6
 78
     2
 67
     7
 79
     5
170
     0
171
     0
290
     0
174
     0
 93
       13
 44
0.0
173
     0
291
     1
 45
0.0
1001
ACAD
1000
AcDbSavedByObjectVersion
1070
     0
  0
VISUALSTYLE
  5
FDC
102
{ACAD_XDICTIONARY
360
1995
102
}
102
{ACAD_REACTORS
330
FDA
102
}
330
FDA
100
AcDbVisualStyle
  2
FlatWithEdges
 70
     1
 71
     2
 72
     1
 73
     1
 90
        2
 40
-0.6
 41
30.0
 62
     5
 63
     7
 74
     1
 91
        0
 64
     7
 65
   257
 75
     1
175
     1
 42
1.0
 92
        0
 66
   257
 43
1.0
 76
     1
 77
     6
 78
     2
 67
     7
 79
     5
170
     0
171
     0
290
     0
174
     0
 93
       13
 44
0.0
173
     0
291
     1
 45
0.0
1001
ACAD
1000
AcDbSavedByObjectVersion
1070
     0
  0
VISUALSTYLE
  5
FDD
102
{ACAD_XDICTIONARY
360
1997
102
}
102
{ACAD_REACTORS
330
FDA
102
}
330
FDA
100
AcDbVisualStyle
  2
Gouraud
 70
     2
 71
     2
 72
     2
 73
     1
 90
        2
 40
-0.6
 41
30.0
 62
     5
 63
     7
 74
     0
 91
        0
 64
     7
 65
   257
 75
     1
175
     1
 42
1.0
 92
        0
 66
     7
 43
1.0
 76
     1
 77
     6
 78
     2
 67
     7
 79
     5
170
     0
171
     0
290
     0
174
     0
 93
       13
 44
0.0
173
     0
291
     1
 45
0.0
1001
ACAD
1000
AcDbSavedByObjectVersion
1070
     0
  0
VISUALSTYLE
  5
FDE
102
{ACAD_XDICTIONARY
360
1999
102
}
102
{ACAD_REACTORS
330
FDA
102
}
330
FDA
100
AcDbVisualStyle
  2
GouraudWithEdges
 70
     3
 71
     2
 72
     2
 73
     1
 90
        2
 40
-0.6
 41
30.0
 62
     5
 63
     7
 74
     1
 91
        0
 64
     7
 65
   257
 75
     1
175
     1
 42
1.0
 92
        0
 66
   257
 43
1.0
 76
     1
 77
     6
 78
     2
 67
     7
 79
     5
170
     0
171
     0
290
     0
174
     0
 93
       13
 44
0.0
173
     0
291
     1
 45
0.0
1001
ACAD
1000
AcDbSavedByObjectVersion
1070
     0
  0
VISUALSTYLE
  5
FE2
102
{ACAD_XDICTIONARY
360
19A1
102
}
102
{ACAD_REACTORS
330
FDA
102
}
330
FDA
100
AcDbVisualStyle
  2
Hidden
 70
     6
 71
     1
 72
     2
 73
     2
 90
        0
 40
-0.6
 41
-30.0
 62
     5
 63
     7
 74
     2
 91
        2
 64
     7
 65
   257
 75
     2
175
     1
 42
40.0
 92
        0
 66
   257
 43
1.0
 76
     1
 77
     6
 78
     2
 67
     7
 79
     3
170
     0
171
     0
290
     0
174
     0
 93
        1
 44
0.0
173
     0
291
     0
 45
0.0
1001
ACAD
1000
AcDbSavedByObjectVersion
1070
     0
  0
VISUALSTYLE
  5
FF0
102
{ACAD_XDICTIONARY
360
19BD
102
}
102
{ACAD_REACTORS
330
FDA
102
}
330
FDA
100
AcDbVisualStyle
  2
JitterOff
 70
    20
 71
     2
 72
     2
 73
     0
 90
        0
 40
-0.6
 41
-30.0
 62
     5
 63
     7
 74
     1
 91
        4
 64
     7
 65
   257
 75
     1
175
     1
 42
1.0
 92
       10
 66
     7
 43
1.0
 76
     1
 77
     6
 78
     2
 67
     7
 79
     5
170
     0
171
     0
290
     0
174
     0
 93
        1
 44
0.0
173
     0
291
     1
 45
0.0
1001
ACAD
1000
AcDbSavedByObjectVersion
1070
     0
  0
VISUALSTYLE
  5
FE8
102
{ACAD_XDICTIONARY
360
19AD
102
}
102
{ACAD_REACTORS
330
FDA
102
}
330
FDA
100
AcDbVisualStyle
  2
Linepattern
 70
    14
 71
     2
 72
     2
 73
     0
 90
        0
 40
-0.6
 41
-30.0
 62
     5
 63
     7
 74
     1
 91
        4
 64
     7
 65
   257
 75
     7
175
     7
 42
1.0
 92
        8
 66
     7
 43
1.0
 76
     1
 77
     6
 78
     2
 67
     7
 79
     5
170
     0
171
     0
290
     0
174
     0
 93
        1
 44
0.0
173
     0
291
     1
 45
0.0
1001
ACAD
1000
AcDbSavedByObjectVersion
1070
     0
  0
VISUALSTYLE
  5
FF1
102
{ACAD_XDICTIONARY
360
19BF
102
}
102
{ACAD_REACTORS
330
FDA
102
}
330
FDA
100
AcDbVisualStyle
  2
OverhangOff
 70
    21
 71
     2
 72
     2
 73
     0
 90
        0
 40
-0.6
 41
-30.0
 62
     5
 63
     7
 74
     1
 91
        4
 64
     7
 65
   257
 75
     1
175
     1
 42
1.0
 92
        9
 66
     7
 43
1.0
 76
     1
 77
     6
 78
     2
 67
     7
 79
     5
170
     0
171
     0
290
     0
174
     0
 93
        1
 44
0.0
173
     0
291
     1
 45
0.0
1001
ACAD
1000
AcDbSavedByObjectVersion
1070
     0
  0
VISUALSTYLE
  5
FE4
102
{ACAD_XDICTIONARY
360
19A5
102
}
102
{ACAD_REACTORS
330
FDA
102
}
330
FDA
100
AcDbVisualStyle
  2
Realistic
 70
     8
 71
     2
 72
     3
 73
     0
 90
        2
 40
-0.6
 41
30.0
 62
     5
 63
     7
 74
     0
 91
        0
 64
     7
 65
   257
 75
     1
175
     1
 42
1.0
 92
        8
 66
   257
 43
1.0
 76
     1
 77
     6
 78
     2
 67
     7
 79
     3
170
     0
171
     0
290
     0
174
     0
 93
       13
 44
0.0
173
     0
291
     0
 45
0.0
1001
ACAD
1000
AcDbSavedByObjectVersion
1070
     0
  0
VISUALSTYLE
  5
FEF
102
{ACAD_XDICTIONARY
360
19BB
102
}
102
{ACAD_REACTORS
330
FDA
102
}
330
FDA
100
AcDbVisualStyle
  2
Shaded
 70
    27
 71
     2
 72
     2
 73
     1
 90
        2
 40
-0.6
 41
30.0
 62
     5
 63
     7
 74
     0
 91
        4
 64
     7
 65
   257
 75
     1
175
     1
 42
1.0
 92
        8
 66
   257
 43
1.0
 76
     1
 77
     6
 78
     2
 67
     8
 79
     3
170
     0
171
     0
290
     0
174
     0
 93
        5
 44
0.0
173
     0
291
     0
 45
0.0
1001
ACAD
1000
AcDbSavedByObjectVersion
1070
     0
  0
VISUALSTYLE
  5
FEE
102
{ACAD_XDICTIONARY
360
19B9
102
}
102
{ACAD_REACTORS
330
FDA
102
}
330
FDA
100
AcDbVisualStyle
  2
Shaded with edges
 70
    26
 71
     2
 72
     2
 73
     1
 90
        2
 40
-0.6
 41
30.0
 62
     5
 63
     7
 74
     1
 91
       10
 64
     7
 65
   257
 75
     2
175
     1
 42
1.0
 92
        8
 66
   257
 43
1.0
 76
     1
 77
     6
 78
     2
 67
     7
 79
     3
170
     0
171
     0
290
     0
174
     0
 93
        5
 44
0.0
173
     0
291
     0
 45
0.0
1001
ACAD
1000
AcDbSavedByObjectVersion
1070
     0
  0
VISUALSTYLE
  5
FEB
102
{ACAD_XDICTIONARY
360
19B3
102
}
102
{ACAD_REACTORS
330
FDA
102
}
330
FDA
100
AcDbVisualStyle
  2
Shades of Gray
 70
    23
 71
     2
 72
     2
 73
     3
 90
        0
 40
-0.6
 41
-30.0
 62
     5
 63
     7
 74
     2
 91
        2
 64
     7
 65
     7
 75
     1
175
     1
 42
40.0
 92
        8
 66
     7
 43
1.0
 76
     1
 77
     6
 78
     2
 67
     7
 79
     3
170
     0
171
     0
290
     0
174
     0
 93
        1
 44
0.0
173
     0
291
     0
 45
0.0
1001
ACAD
1000
AcDbSavedByObjectVersion
1070
     0
  0
VISUALSTYLE
  5
FEC
102
{ACAD_XDICTIONARY
360
19B5
102
}
102
{ACAD_REACTORS
330
FDA
102
}
330
FDA
100
AcDbVisualStyle
  2
Sketchy
 70
    24
 71
     1
 72
     2
 73
     2
 90
        0
 40
-0.6
 41
-30.0
 62
     5
 63
     7
 74
     2
 91
        2
 64
     7
 65
     7
 75
     1
175
     1
 42
40.0
 92
       11
 66
     7
 43
1.0
 76
     1
 77
     6
 78
     2
 67
     7
 79
     6
170
     0
171
     0
290
     0
174
     0
 93
        1
 44
0.0
173
     0
291
     0
 45
0.0
1001
ACAD
1000
AcDbSavedByObjectVersion
1070
     0
  0
VISUALSTYLE
  5
FE7
102
{ACAD_XDICTIONARY
360
19AB
102
}
102
{ACAD_REACTORS
330
FDA
102
}
330
FDA
100
AcDbVisualStyle
  2
Thicken
 70
    13
 71
     2
 72
     2
 73
     0
 90
        0
 40
-0.6
 41
-30.0
 62
     5
 63
     7
 74
     1
 91
        4
 64
     7
 65
   257
 75
     1
175
     1
 42
1.0
 92
       12
 66
     7
 43
1.0
 76
     1
 77
     6
 78
     2
 67
     7
 79
     5
170
     0
171
     0
290
     0
174
     0
 93
        1
 44
0.0
173
     0
291
     1
 45
0.0
1001
ACAD
1000
AcDbSavedByObjectVersion
1070
     0
  0
VISUALSTYLE
  5
FE1
102
{ACAD_XDICTIONARY
360
199F
102
}
102
{ACAD_REACTORS
330
FDA
102
}
330
FDA
100
AcDbVisualStyle
  2
Wireframe
 70
     5
 71
     0
 72
     2
 73
     0
 90
        0
 40
-0.6
 41
-30.0
 62
     5
 63
     7
 74
     1
 91
        4
 64
     7
 65
   257
 75
     1
175
     1
 42
1.0
 92
        0
 66
   257
 43
1.0
 76
     1
 77
     6
 78
     2
 67
     7
 79
     3
170
     0
171
     0
290
     0
174
     0
 93
        1
 44
0.0
173
     0
291
     0
 45
0.0
1001
ACAD
1000
AcDbSavedByObjectVersion
1070
     0
  0
VISUALSTYLE
  5
FED
102
{ACAD_XDICTIONARY
360
19B7
102
}
102
{ACAD_REACTORS
330
FDA
102
}
330
FDA
100
AcDbVisualStyle
  2
X-Ray
 70
    25
 71
     2
 72
     2
 73
     1
 90
        1
 40
0.5
 41
-30.0
 62
     5
 63
     7
 74
     1
 91
        0
 64
     7
 65
   257
 75
     1
175
     1
 42
1.0
 92
        8
 66
     7
 43
1.0
 76
     1
 77
     6
 78
     2
 67
     7
 79
     3
170
     0
171
     0
290
     0
174
     0
 93
       13
 44
0.0
173
     0
291
     0
 45
0.0
1001
ACAD
1000
AcDbSavedByObjectVersion
1070
     0
  0
DICTIONARYVAR
  5
10D7
102
{ACAD_REACTORS
330
10D2
102
}
330
10D2
100
DictionaryVariables
280
     0
  1
1:1
  0
DICTIONARYVAR
  5
10D4
102
{ACAD_REACTORS
330
10D2
102
}
330
10D2
100
DictionaryVariables
280
     0
  1
STANDARD
  0
DICTIONARYVAR
  5
10D3
102
{ACAD_REACTORS
330
10D2
102
}
330
10D2
100
DictionaryVariables
280
     0
  1
STANDARD
  0
DICTIONARYVAR
  5
10D5
102
{ACAD_REACTORS
330
10D2
102
}
330
10D2
100
DictionaryVariables
280
     0
  1
Imperial24
  0
DICTIONARYVAR
  5
10D6
102
{ACAD_REACTORS
330
10D2
102
}
330
10D2
100
DictionaryVariables
280
     0
  1
Imperial24
  0
DICTIONARYVAR
  5
10DA
102
{ACAD_REACTORS
330
10D2
102
}
330
10D2
100
DictionaryVariables
280
     0
  1
1
  0
DICTIONARYVAR
  5
10D9
102
{ACAD_REACTORS
330
10D2
102
}
330
10D2
100
DictionaryVariables
280
     0
  1
0
  0
DICTIONARYVAR
  5
1173
102
{ACAD_REACTORS
330
10D2
102
}
330
10D2
100
DictionaryVariables
280
     0
  1
1
  0
DICTIONARYVAR
  5
1174
102
{ACAD_REACTORS
330
10D2
102
}
330
10D2
100
DictionaryVariables
280
     0
  1
15
  0
DICTIONARYVAR
  5
1172
102
{ACAD_REACTORS
330
10D2
102
}
330
10D2
100
DictionaryVariables
280
     0
  1
0
  0
DICTIONARYVAR
  5
1171
102
{ACAD_REACTORS
330
10D2
102
}
330
10D2
100
DictionaryVariables
280
     0
  1
0
  0
DICTIONARYVAR
  5
10D8
102
{ACAD_REACTORS
330
10D2
102
}
330
10D2
100
DictionaryVariables
280
     0
  1
127
  0
DICTIONARYVAR
  5
10DB
102
{ACAD_REACTORS
330
10D2
102
}
330
10D2
100
DictionaryVariables
280
     0
  1
2
  0
DICTIONARY
  5
198B
102
{ACAD_REACTORS
330
1989
102
}
330
1989
100
AcDbDictionary
281
     1
  0
DICTIONARY
  5
198A
102
{ACAD_REACTORS
330
1989
102
}
330
1989
100
AcDbDictionary
281
     1
  3
2130696544
350
1984
  3
2130696552
350
1985
  3
2130696560
350
1986
  3
2130696568
350
1987
  3
2130696576
350
1988
  0
DICTIONARY
  5
116E
330
101B
100
AcDbDictionary
280
     1
281
     1
  3
ACAD_XREC_ROUNDTRIP
360
19C5
  0
DICTIONARY
  5
19C8
330
1023
100
AcDbDictionary
280
     1
281
     1
  3
ACAD_XREC_ROUNDTRIP
360
19C9
  0
DICTIONARY
  5
19C6
330
101F
100
AcDbDictionary
280
     1
281
     1
  3
ACAD_XREC_ROUNDTRIP
360
19C7
  0
DICTIONARY
  5
FCB
330
FCA
100
AcDbDictionary
280
     1
281
     1
  3
ACAD_XREC_ROUNDTRIP
360
1991
  3
BUMPTILE
360
FCD
  3
DIFFUSETILE
360
FCC
  3
OPACITYTILE
360
FD0
  3
REFLECTIONTILE
360
FCF
  3
REFRACTIONTILE
360
FD1
  3
SPECULARTILE
360
FCE
  0
DICTIONARY
  5
FC3
330
FC2
100
AcDbDictionary
280
     1
281
     1
  3
ACAD_XREC_ROUNDTRIP
360
1990
  3
BUMPTILE
360
FC5
  3
DIFFUSETILE
360
FC4
  3
OPACITYTILE
360
FC8
  3
REFLECTIONTILE
360
FC7
  3
REFRACTIONTILE
360
FC9
  3
SPECULARTILE
360
FC6
  0
DICTIONARY
  5
FD3
330
FD2
100
AcDbDictionary
280
     1
281
     1
  3
ACAD_XREC_ROUNDTRIP
360
1992
  3
BUMPTILE
360
FD5
  3
DIFFUSETILE
360
FD4
  3
OPACITYTILE
360
FD8
  3
REFLECTIONTILE
360
FD7
  3
REFRACTIONTILE
360
FD9
  3
SPECULARTILE
360
FD6
  0
DICTIONARY
  5
116C
330
1019
100
AcDbDictionary
280
     1
281
     1
  3
ACAD_XREC_ROUNDTRIP
360
19C4
  0
DICTIONARY
  5
1980
330
1015
100
AcDbDictionary
280
     1
281
     1
  3
ACAD_ROUNDTRIP_2008_TABLESTYLE_CELLSTYLEMAP
360
1981
  3
ACAD_XREC_ROUNDTRIP
360
19C3
  0
DICTIONARY
  5
199D
330
FE0
100
AcDbDictionary
280
     1
281
     1
  3
ACAD_XREC_ROUNDTRIP
360
199E
  0
DICTIONARY
  5
199B
330
FDF
100
AcDbDictionary
280
     1
281
     1
  3
ACAD_XREC_ROUNDTRIP
360
199C
  0
DICTIONARY
  5
19A9
330
FE6
100
AcDbDictionary
280
     1
281
     1
  3
ACAD_XREC_ROUNDTRIP
360
19AA
  0
DICTIONARY
  5
19B1
330
FEA
100
AcDbDictionary
280
     1
281
     1
  3
ACAD_XREC_ROUNDTRIP
360
19B2
  0
DICTIONARY
  5
19A3
330
FE3
100
AcDbDictionary
280
     1
281
     1
  3
ACAD_XREC_ROUNDTRIP
360
19A4
  0
DICTIONARY
  5
19A7
330
FE5
100
AcDbDictionary
280
     1
281
     1
  3
ACAD_XREC_ROUNDTRIP
360
19A8
  0
DICTIONARY
  5
19C1
330
FF2
100
AcDbDictionary
280
     1
281
     1
  3
ACAD_XREC_ROUNDTRIP
360
19C2
  0
DICTIONARY
  5
19AF
330
FE9
100
AcDbDictionary
280
     1
281
     1
  3
ACAD_XREC_ROUNDTRIP
360
19B0
  0
DICTIONARY
  5
1993
330
FDB
100
AcDbDictionary
280
     1
281
     1
  3
ACAD_XREC_ROUNDTRIP
360
1994
  0
DICTIONARY
  5
1995
330
FDC
100
AcDbDictionary
280
     1
281
     1
  3
ACAD_XREC_ROUNDTRIP
360
1996
  0
DICTIONARY
  5
1997
330
FDD
100
AcDbDictionary
280
     1
281
     1
  3
ACAD_XREC_ROUNDTRIP
360
1998
  0
DICTIONARY
  5
1999
330
FDE
100
AcDbDictionary
280
     1
281
     1
  3
ACAD_XREC_ROUNDTRIP
360
199A
  0
DICTIONARY
  5
19A1
330
FE2
100
AcDbDictionary
280
     1
281
     1
  3
ACAD_XREC_ROUNDTRIP
360
19A2
  0
DICTIONARY
  5
19BD
330
FF0
100
AcDbDictionary
280
     1
281
     1
  3
ACAD_XREC_ROUNDTRIP
360
19BE
  0
DICTIONARY
  5
19AD
330
FE8
100
AcDbDictionary
280
     1
281
     1
  3
ACAD_XREC_ROUNDTRIP
360
19AE
  0
DICTIONARY
  5
19BF
330
FF1
100
AcDbDictionary
280
     1
281
     1
  3
ACAD_XREC_ROUNDTRIP
360
19C0
  0
DICTIONARY
  5
19A5
330
FE4
100
AcDbDictionary
280
     1
281
     1
  3
ACAD_XREC_ROUNDTRIP
360
19A6
  0
DICTIONARY
  5
19BB
330
FEF
100
AcDbDictionary
280
     1
281
     1
  3
ACAD_XREC_ROUNDTRIP
360
19BC
  0
DICTIONARY
  5
19B9
330
FEE
100
AcDbDictionary
280
     1
281
     1
  3
ACAD_XREC_ROUNDTRIP
360
19BA
  0
DICTIONARY
  5
19B3
330
FEB
100
AcDbDictionary
280
     1
281
     1
  3
ACAD_XREC_ROUNDTRIP
360
19B4
  0
DICTIONARY
  5
19B5
330
FEC
100
AcDbDictionary
280
     1
281
     1
  3
ACAD_XREC_ROUNDTRIP
360
19B6
  0
DICTIONARY
  5
19AB
330
FE7
100
AcDbDictionary
280
     1
281
     1
  3
ACAD_XREC_ROUNDTRIP
360
19AC
  0
DICTIONARY
  5
199F
330
FE1
100
AcDbDictionary
280
     1
281
     1
  3
ACAD_XREC_ROUNDTRIP
360
19A0
  0
DICTIONARY
  5
19B7
330
FED
100
AcDbDictionary
280
     1
281
     1
  3
ACAD_XREC_ROUNDTRIP
360
19B8
  0
XRECORD
  5
1984
102
{ACAD_REACTORS
330
198A
102
}
330
198A
100
AcDbXrecord
280
     1
  1
AcDb_Thumbnail_Schema
102
{ATTRRECORD
341
1985
  2
AcDbDs::TreatedAsObjectData
280
     1
291
     1
102
ATTRRECORD}
102
{ATTRRECORD
341
1986
  2
AcDbDs::Legacy
280
     1
291
     1
102
ATTRRECORD}
  2
AcDbDs::ID
280
    10
 91
        8
102
{ATTRRECORD
341
1987
  2
AcDs:Indexable
280
     1
291
     1
102
ATTRRECORD}
102
{ATTRRECORD
341
1988
  2
AcDbDs::HandleAttribute
280
     7
282
     1
102
ATTRRECORD}
  2
Thumbnail_Data
280
    15
 91
        0
  0
XRECORD
  5
1985
102
{ACAD_REACTORS
330
198A
102
}
330
198A
100
AcDbXrecord
280
     1
  1
AcDbDs::TreatedAsObjectDataSchema
  2
AcDbDs::TreatedAsObjectData
280
     1
 91
        0
  0
XRECORD
  5
1986
102
{ACAD_REACTORS
330
198A
102
}
330
198A
100
AcDbXrecord
280
     1
  1
AcDbDs::LegacySchema
  2
AcDbDs::Legacy
280
     1
 91
        0
  0
XRECORD
  5
1987
102
{ACAD_REACTORS
330
198A
102
}
330
198A
100
AcDbXrecord
280
     1
  1
AcDbDs::IndexedPropertySchema
  2
AcDs:Indexable
280
     1
 91
        0
  0
XRECORD
  5
1988
102
{ACAD_REACTORS
330
198A
102
}
330
198A
100
AcDbXrecord
280
     1
  1
AcDbDs::HandleAttributeSchema
  2
AcDbDs::HandleAttribute
280
     7
 91
        1
284
     1
  0
XRECORD
  5
19C5
102
{ACAD_REACTORS
330
116E
102
}
330
116E
100
AcDbXrecord
280
     1
102
DISPLAYNAME
  1
Imperial24
102
FLAGS
 90
        0
  0
XRECORD
  5
19C9
102
{ACAD_REACTORS
330
19C8
102
}
330
19C8
100
AcDbXrecord
280
     1
102
SHADEPLOT
 70
     0
102
SHADEPLOTRESLEVEL
 70
     2
102
SHADEPLOTCUSTOMDPI
 70
   300
  0
XRECORD
  5
19C7
102
{ACAD_REACTORS
330
19C6
102
}
330
19C6
100
AcDbXrecord
280
     1
102
SHADEPLOT
 70
     0
102
SHADEPLOTRESLEVEL
 70
     2
102
SHADEPLOTCUSTOMDPI
 70
   300
  0
XRECORD
  5
1991
102
{ACAD_REACTORS
330
FCB
102
}
330
FCB
100
AcDbXrecord
280
     1
102
MATERIAL
148
0.0
149
0.0
149
0.0
 93
        0
 94
      127
282
     0
 72
     0
 77
     0
171
     0
175
     0
179
     0
273
     0
  0
XRECORD
  5
FCD
102
{ACAD_REACTORS
330
FCB
102
}
330
FCB
100
AcDbXrecord
280
     1
270
     1
271
     1
  0
XRECORD
  5
FCC
102
{ACAD_REACTORS
330
FCB
102
}
330
FCB
100
AcDbXrecord
280
     1
270
     1
271
     1
  0
XRECORD
  5
FD0
102
{ACAD_REACTORS
330
FCB
102
}
330
FCB
100
AcDbXrecord
280
     1
270
     1
271
     1
  0
XRECORD
  5
FCF
102
{ACAD_REACTORS
330
FCB
102
}
330
FCB
100
AcDbXrecord
280
     1
270
     1
271
     1
  0
XRECORD
  5
FD1
102
{ACAD_REACTORS
330
FCB
102
}
330
FCB
100
AcDbXrecord
280
     1
270
     1
271
     1
  0
XRECORD
  5
FCE
102
{ACAD_REACTORS
330
FCB
102
}
330
FCB
100
AcDbXrecord
280
     1
270
     1
271
     1
  0
XRECORD
  5
1990
102
{ACAD_REACTORS
330
FC3
102
}
330
FC3
100
AcDbXrecord
280
     1
102
MATERIAL
148
0.0
149
0.0
149
0.0
 93
        0
 94
      127
282
     0
 72
     0
 77
     0
171
     0
175
     0
179
     0
273
     0
  0
XRECORD
  5
FC5
102
{ACAD_REACTORS
330
FC3
102
}
330
FC3
100
AcDbXrecord
280
     1
270
     1
271
     1
  0
XRECORD
  5
FC4
102
{ACAD_REACTORS
330
FC3
102
}
330
FC3
100
AcDbXrecord
280
     1
270
     1
271
     1
  0
XRECORD
  5
FC8
102
{ACAD_REACTORS
330
FC3
102
}
330
FC3
100
AcDbXrecord
280
     1
270
     1
271
     1
  0
XRECORD
  5
FC7
102
{ACAD_REACTORS
330
FC3
102
}
330
FC3
100
AcDbXrecord
280
     1
270
     1
271
     1
  0
XRECORD
  5
FC9
102
{ACAD_REACTORS
330
FC3
102
}
330
FC3
100
AcDbXrecord
280
     1
270
     1
271
     1
  0
XRECORD
  5
FC6
102
{ACAD_REACTORS
330
FC3
102
}
330
FC3
100
AcDbXrecord
280
     1
270
     1
271
     1
  0
XRECORD
  5
1992
102
{ACAD_REACTORS
330
FD3
102
}
330
FD3
100
AcDbXrecord
280
     1
102
MATERIAL
148
0.0
149
0.0
149
0.0
 93
        0
 94
      127
282
     0
 72
     0
 77
     0
171
     0
175
     0
179
     0
273
     0
  0
XRECORD
  5
FD5
102
{ACAD_REACTORS
330
FD3
102
}
330
FD3
100
AcDbXrecord
280
     1
270
     1
271
     1
  0
XRECORD
  5
FD4
102
{ACAD_REACTORS
330
FD3
102
}
330
FD3
100
AcDbXrecord
280
     1
270
     1
271
     1
  0
XRECORD
  5
FD8
102
{ACAD_REACTORS
330
FD3
102
}
330
FD3
100
AcDbXrecord
280
     1
270
     1
271
     1
  0
XRECORD
  5
FD7
102
{ACAD_REACTORS
330
FD3
102
}
330
FD3
100
AcDbXrecord
280
     1
270
     1
271
     1
  0
XRECORD
  5
FD9
102
{ACAD_REACTORS
330
FD3
102
}
330
FD3
100
AcDbXrecord
280
     1
270
     1
271
     1
  0
XRECORD
  5
FD6
102
{ACAD_REACTORS
330
FD3
102
}
330
FD3
100
AcDbXrecord
280
     1
270
     1
271
     1
  0
XRECORD
  5
19C4
102
{ACAD_REACTORS
330
116C
102
}
330
116C
100
AcDbXrecord
280
     1
102
DISPLAYNAME
  1
Imperial24
102
FLAGS
 90
        0
  0
CELLSTYLEMAP
  5
1981
102
{ACAD_REACTORS
330
1980
102
}
330
1980
100
AcDbCellStyleMap
 90
        3
300
CELLSTYLE
  1
TABLEFORMAT_BEGIN
 90
        5
170
     1
 91
        0
 92
    32768
 62
   257
 93
        1
300
CONTENTFORMAT
  1
CONTENTFORMAT_BEGIN
 90
        0
 91
        0
 92
      512
 93
        0
300

 40
0.0
140
1.0
 94
        5
 62
     0
340
1006
144
0.25
309
CONTENTFORMAT_END
171
     0
 94
        0
309
TABLEFORMAT_END
  1
CELLSTYLE_BEGIN
 90
        1
 91
        1
300
_TITLE
309
CELLSTYLE_END
300
CELLSTYLE
  1
TABLEFORMAT_BEGIN
 90
        5
170
     1
 91
        0
 92
        0
 62
   257
 93
        1
300
CONTENTFORMAT
  1
CONTENTFORMAT_BEGIN
 90
        0
 91
        0
 92
      512
 93
        0
300

 40
0.0
140
1.0
 94
        5
 62
     0
340
1006
144
0.18
309
CONTENTFORMAT_END
171
     0
 94
        0
309
TABLEFORMAT_END
  1
CELLSTYLE_BEGIN
 90
        2
 91
        1
300
_HEADER
309
CELLSTYLE_END
300
CELLSTYLE
  1
TABLEFORMAT_BEGIN
 90
        5
170
     1
 91
        0
 92
        0
 62
   257
 93
        1
300
CONTENTFORMAT
  1
CONTENTFORMAT_BEGIN
 90
        0
 91
        0
 92
      512
 93
        0
300

 40
0.0
140
1.0
 94
        2
 62
     0
340
1006
144
0.18
309
CONTENTFORMAT_END
171
     0
 94
        0
309
TABLEFORMAT_END
  1
CELLSTYLE_BEGIN
 90
        3
 91
        2
300
_DATA
309
CELLSTYLE_END
  0
XRECORD
  5
19C3
102
{ACAD_REACTORS
330
1980
102
}
330
1980
100
AcDbXrecord
280
     1
102
ACAD_ROUNDTRIP_PRE2007_TABLESTYLE
 90
      512
 91
        0
  1

 92
      512
 93
        0
  2

 94
      512
 95
        0
  3

  0
XRECORD
  5
199E
102
{ACAD_REACTORS
330
199D
102
}
330
199D
100
AcDbXrecord
280
     1
102
RTVSPost2010Prop28
280
     1
102
RTVSPost2010PropOp28
 70
     1
102
RTVSPost2010Prop29
280
     1
102
RTVSPost2010PropOp29
 70
     1
102
RTVSPost2010Prop30
280
     0
102
RTVSPost2010PropOp30
 70
     1
102
RTVSPost2010Prop31
280
     0
102
RTVSPost2010PropOp31
 70
     1
102
RTVSPost2010Prop32
280
     0
102
RTVSPost2010PropOp32
 70
     1
102
RTVSPost2010Prop33
280
     0
102
RTVSPost2010PropOp33
 70
     1
102
RTVSPost2010Prop34
280
     0
102
RTVSPost2010PropOp34
 70
     1
102
RTVSPost2010Prop35
280
     0
102
RTVSPost2010PropOp35
 70
     1
102
RTVSPost2010Prop36
280
     0
102
RTVSPost2010PropOp36
 70
     1
102
RTVSPost2010Prop37
 90
       50
102
RTVSPost2010PropOp37
 70
     1
102
RTVSPost2010Prop38
140
0.0
102
RTVSPost2010PropOp38
 70
     1
102
RTVSPost2010Prop39
140
1.0
102
RTVSPost2010PropOp39
 70
     1
102
RTVSPost2010Prop40
 90
        0
102
RTVSPost2010PropOp40
 70
     1
102
RTVSPost2010Prop41ColorIndex
 90
       18
102
RTVSPost2010Prop41ColorRGB
 90
        0
102
RTVSPost2010PropOp41
 70
     1
102
RTVSPost2010Prop42
 90
       50
102
RTVSPost2010PropOp42
 70
     1
102
RTVSPost2010Prop43
 90
        3
102
RTVSPost2010PropOp43
 70
     1
102
RTVSPost2010Prop44ColorIndex
 90
        5
102
RTVSPost2010Prop44ColorRGB
 90
      255
102
RTVSPost2010PropOp44
 70
     1
102
RTVSPost2010Prop45
280
     0
102
RTVSPost2010PropOp45
 70
     1
102
RTVSPost2010Prop46
 90
       50
102
RTVSPost2010PropOp46
 70
     1
102
RTVSPost2010Prop47
 90
       50
102
RTVSPost2010PropOp47
 70
     1
102
RTVSPost2010Prop48
 90
       50
102
RTVSPost2010PropOp48
 70
     1
102
RTVSPost2010Prop49
280
     0
102
RTVSPost2010PropOp49
 70
     1
102
RTVSPost2010Prop50
 90
       50
102
RTVSPost2010PropOp50
 70
     1
102
RTVSPost2010Prop51ColorIndex
 90
      256
102
RTVSPost2010Prop51ColorRGB
 90
-16777216
102
RTVSPost2010PropOp51
 70
     0
102
RTVSPost2010Prop52
140
1.0
102
RTVSPost2010PropOp52
 70
     0
102
RTVSPost2010Prop53
 90
        2
102
RTVSPost2010PropOp53
 70
     1
102
RTVSPost2010Prop54
  1
strokes_ogs.tif
102
RTVSPost2010PropOp54
 70
     1
102
RTVSPost2010Prop55
280
     0
102
RTVSPost2010PropOp55
 70
     1
102
RTVSPost2010Prop56
140
1.0
102
RTVSPost2010PropOp56
 70
     1
102
RTVSPost2010Prop57
140
1.0
102
RTVSPost2010PropOp57
 70
     1
102
RTVSPropertyOp0
 70
     1
102
RTVSPropertyOp1
 70
     1
102
RTVSPropertyOp2
 70
     1
102
RTVSPropertyOp3
 70
     1
102
RTVSPropertyOp4
 70
     1
102
RTVSPropertyOp5
 70
     1
102
RTVSPropertyOp6
 70
     1
102
RTVSPropertyOp7
 70
     1
102
RTVSPropertyOp8
 70
     1
102
RTVSPropertyOp9
 70
     1
102
RTVSPropertyOp10
 70
     1
102
RTVSPropertyOp11
 70
     1
102
RTVSPropertyOp12
 70
     1
102
RTVSPropertyOp13
 70
     1
102
RTVSPropertyOp14
 70
     1
102
RTVSPropertyOp15
 70
     1
102
RTVSPropertyOp16
 70
     1
102
RTVSPropertyOp17
 70
     1
102
RTVSPropertyOp18
 70
     1
102
RTVSPropertyOp19
 70
     1
102
RTVSPropertyOp20
 70
     1
102
RTVSPropertyOp21
 70
     1
102
RTVSPropertyOp22
 70
     1
102
RTVSPropertyOp23
 70
     1
102
RTVSPropertyOp24
 70
     1
102
RTVSPropertyOp25
 70
     1
102
RTVSPropertyOp26
 70
     1
102
RTVSPropertyOp27
 70
     1
102
RTVSPropertyOp28
 70
     1
102
RTVSPropertyOp29
 70
     1
102
RTVSPropertyOp30
 70
     1
102
RTVSPropertyOp31
 70
     1
102
RTVSPropertyOp32
 70
     1
102
RTVSPropertyOp33
 70
     1
102
RTVSPropertyOp34
 70
     1
102
RTVSPropertyOp35
 70
     1
102
RTVSPropertyOp36
 70
     1
102
RTVSPropertyOp37
 70
     1
102
RTVSPropertyOp38
 70
     1
102
RTVSPropertyOp39
 70
     1
102
RTVSPropertyOp40
 70
     1
102
RTVSPropertyOp41
 70
     1
102
RTVSPropertyOp42
 70
     1
102
RTVSPropertyOp43
 70
     1
102
RTVSPropertyOp44
 70
     1
102
RTVSPropertyOp45
 70
     1
102
RTVSPropertyOp46
 70
     1
102
RTVSPropertyOp47
 70
     1
102
RTVSPropertyOp48
 70
     1
102
RTVSPropertyOp49
 70
     1
102
RTVSPropertyOp50
 70
     1
102
RTVSPropertyOp51
 70
     0
102
RTVSPropertyOp52
 70
     0
102
RTVSPropertyOp53
 70
     1
102
RTVSPropertyOp54
 70
     1
102
RTVSPropertyOp55
 70
     1
102
RTVSPropertyOp56
 70
     1
102
RTVSPropertyOp57
 70
     1
102
RTVSPropertyOp58
 70
     1
102
RTVSPropertyOp59
 70
     1
102
RTVSPropertyOp60
 70
     1
102
RTVSPropertyOp61
 70
     1
102
RTVSPropertyOp62
 70
     1
  0
XRECORD
  5
199C
102
{ACAD_REACTORS
330
199B
102
}
330
199B
100
AcDbXrecord
280
     1
102
RTVSPost2010Prop28
280
     0
102
RTVSPost2010PropOp28
 70
     1
102
RTVSPost2010Prop29
280
     1
102
RTVSPost2010PropOp29
 70
     1
102
RTVSPost2010Prop30
280
     1
102
RTVSPost2010PropOp30
 70
     1
102
RTVSPost2010Prop31
280
     0
102
RTVSPost2010PropOp31
 70
     1
102
RTVSPost2010Prop32
280
     0
102
RTVSPost2010PropOp32
 70
     1
102
RTVSPost2010Prop33
280
     0
102
RTVSPost2010PropOp33
 70
     1
102
RTVSPost2010Prop34
280
     0
102
RTVSPost2010PropOp34
 70
     1
102
RTVSPost2010Prop35
280
     0
102
RTVSPost2010PropOp35
 70
     1
102
RTVSPost2010Prop36
280
     0
102
RTVSPost2010PropOp36
 70
     1
102
RTVSPost2010Prop37
 90
       50
102
RTVSPost2010PropOp37
 70
     1
102
RTVSPost2010Prop38
140
0.0
102
RTVSPost2010PropOp38
 70
     1
102
RTVSPost2010Prop39
140
1.0
102
RTVSPost2010PropOp39
 70
     1
102
RTVSPost2010Prop40
 90
        0
102
RTVSPost2010PropOp40
 70
     1
102
RTVSPost2010Prop41ColorIndex
 90
       18
102
RTVSPost2010Prop41ColorRGB
 90
        0
102
RTVSPost2010PropOp41
 70
     1
102
RTVSPost2010Prop42
 90
       50
102
RTVSPost2010PropOp42
 70
     1
102
RTVSPost2010Prop43
 90
        3
102
RTVSPost2010PropOp43
 70
     1
102
RTVSPost2010Prop44ColorIndex
 90
        5
102
RTVSPost2010Prop44ColorRGB
 90
      255
102
RTVSPost2010PropOp44
 70
     1
102
RTVSPost2010Prop45
280
     0
102
RTVSPost2010PropOp45
 70
     1
102
RTVSPost2010Prop46
 90
       50
102
RTVSPost2010PropOp46
 70
     1
102
RTVSPost2010Prop47
 90
       50
102
RTVSPost2010PropOp47
 70
     1
102
RTVSPost2010Prop48
 90
       50
102
RTVSPost2010PropOp48
 70
     1
102
RTVSPost2010Prop49
280
     0
102
RTVSPost2010PropOp49
 70
     1
102
RTVSPost2010Prop50
 90
       50
102
RTVSPost2010PropOp50
 70
     1
102
RTVSPost2010Prop51ColorIndex
 90
      256
102
RTVSPost2010Prop51ColorRGB
 90
-16777216
102
RTVSPost2010PropOp51
 70
     0
102
RTVSPost2010Prop52
140
1.0
102
RTVSPost2010PropOp52
 70
     0
102
RTVSPost2010Prop53
 90
        2
102
RTVSPost2010PropOp53
 70
     1
102
RTVSPost2010Prop54
  1
strokes_ogs.tif
102
RTVSPost2010PropOp54
 70
     1
102
RTVSPost2010Prop55
280
     0
102
RTVSPost2010PropOp55
 70
     1
102
RTVSPost2010Prop56
140
1.0
102
RTVSPost2010PropOp56
 70
     1
102
RTVSPost2010Prop57
140
1.0
102
RTVSPost2010PropOp57
 70
     1
102
RTVSPropertyOp0
 70
     1
102
RTVSPropertyOp1
 70
     1
102
RTVSPropertyOp2
 70
     1
102
RTVSPropertyOp3
 70
     1
102
RTVSPropertyOp4
 70
     1
102
RTVSPropertyOp5
 70
     1
102
RTVSPropertyOp6
 70
     1
102
RTVSPropertyOp7
 70
     1
102
RTVSPropertyOp8
 70
     1
102
RTVSPropertyOp9
 70
     1
102
RTVSPropertyOp10
 70
     1
102
RTVSPropertyOp11
 70
     1
102
RTVSPropertyOp12
 70
     1
102
RTVSPropertyOp13
 70
     1
102
RTVSPropertyOp14
 70
     1
102
RTVSPropertyOp15
 70
     1
102
RTVSPropertyOp16
 70
     1
102
RTVSPropertyOp17
 70
     1
102
RTVSPropertyOp18
 70
     1
102
RTVSPropertyOp19
 70
     1
102
RTVSPropertyOp20
 70
     1
102
RTVSPropertyOp21
 70
     1
102
RTVSPropertyOp22
 70
     1
102
RTVSPropertyOp23
 70
     1
102
RTVSPropertyOp24
 70
     1
102
RTVSPropertyOp25
 70
     1
102
RTVSPropertyOp26
 70
     1
102
RTVSPropertyOp27
 70
     1
102
RTVSPropertyOp28
 70
     1
102
RTVSPropertyOp29
 70
     1
102
RTVSPropertyOp30
 70
     1
102
RTVSPropertyOp31
 70
     1
102
RTVSPropertyOp32
 70
     1
102
RTVSPropertyOp33
 70
     1
102
RTVSPropertyOp34
 70
     1
102
RTVSPropertyOp35
 70
     1
102
RTVSPropertyOp36
 70
     1
102
RTVSPropertyOp37
 70
     1
102
RTVSPropertyOp38
 70
     1
102
RTVSPropertyOp39
 70
     1
102
RTVSPropertyOp40
 70
     1
102
RTVSPropertyOp41
 70
     1
102
RTVSPropertyOp42
 70
     1
102
RTVSPropertyOp43
 70
     1
102
RTVSPropertyOp44
 70
     1
102
RTVSPropertyOp45
 70
     1
102
RTVSPropertyOp46
 70
     1
102
RTVSPropertyOp47
 70
     1
102
RTVSPropertyOp48
 70
     1
102
RTVSPropertyOp49
 70
     1
102
RTVSPropertyOp50
 70
     1
102
RTVSPropertyOp51
 70
     0
102
RTVSPropertyOp52
 70
     0
102
RTVSPropertyOp53
 70
     1
102
RTVSPropertyOp54
 70
     1
102
RTVSPropertyOp55
 70
     1
102
RTVSPropertyOp56
 70
     1
102
RTVSPropertyOp57
 70
     1
102
RTVSPropertyOp58
 70
     1
102
RTVSPropertyOp59
 70
     1
102
RTVSPropertyOp60
 70
     1
102
RTVSPropertyOp61
 70
     1
102
RTVSPropertyOp62
 70
     1
  0
XRECORD
  5
19AA
102
{ACAD_REACTORS
330
19A9
102
}
330
19A9
100
AcDbXrecord
280
     1
102
RTVSPost2010Prop28
280
     0
102
RTVSPost2010PropOp28
 70
     1
102
RTVSPost2010Prop29
280
     1
102
RTVSPost2010PropOp29
 70
     1
102
RTVSPost2010Prop30
280
     1
102
RTVSPost2010PropOp30
 70
     1
102
RTVSPost2010Prop31
280
     0
102
RTVSPost2010PropOp31
 70
     1
102
RTVSPost2010Prop32
280
     0
102
RTVSPost2010PropOp32
 70
     1
102
RTVSPost2010Prop33
280
     0
102
RTVSPost2010PropOp33
 70
     1
102
RTVSPost2010Prop34
280
     0
102
RTVSPost2010PropOp34
 70
     1
102
RTVSPost2010Prop35
280
     0
102
RTVSPost2010PropOp35
 70
     1
102
RTVSPost2010Prop36
280
     0
102
RTVSPost2010PropOp36
 70
     1
102
RTVSPost2010Prop37
 90
       50
102
RTVSPost2010PropOp37
 70
     1
102
RTVSPost2010Prop38
140
0.0
102
RTVSPost2010PropOp38
 70
     1
102
RTVSPost2010Prop39
140
1.0
102
RTVSPost2010PropOp39
 70
     1
102
RTVSPost2010Prop40
 90
        0
102
RTVSPost2010PropOp40
 70
     1
102
RTVSPost2010Prop41ColorIndex
 90
       18
102
RTVSPost2010Prop41ColorRGB
 90
        0
102
RTVSPost2010PropOp41
 70
     1
102
RTVSPost2010Prop42
 90
       50
102
RTVSPost2010PropOp42
 70
     1
102
RTVSPost2010Prop43
 90
        3
102
RTVSPost2010PropOp43
 70
     1
102
RTVSPost2010Prop44ColorIndex
 90
        5
102
RTVSPost2010Prop44ColorRGB
 90
      255
102
RTVSPost2010PropOp44
 70
     1
102
RTVSPost2010Prop45
280
     0
102
RTVSPost2010PropOp45
 70
     1
102
RTVSPost2010Prop46
 90
       50
102
RTVSPost2010PropOp46
 70
     1
102
RTVSPost2010Prop47
 90
       50
102
RTVSPost2010PropOp47
 70
     1
102
RTVSPost2010Prop48
 90
       50
102
RTVSPost2010PropOp48
 70
     1
102
RTVSPost2010Prop49
280
     0
102
RTVSPost2010PropOp49
 70
     1
102
RTVSPost2010Prop50
 90
       50
102
RTVSPost2010PropOp50
 70
     1
102
RTVSPost2010Prop51ColorIndex
 90
      256
102
RTVSPost2010Prop51ColorRGB
 90
-16777216
102
RTVSPost2010PropOp51
 70
     0
102
RTVSPost2010Prop52
140
1.0
102
RTVSPost2010PropOp52
 70
     0
102
RTVSPost2010Prop53
 90
        2
102
RTVSPost2010PropOp53
 70
     1
102
RTVSPost2010Prop54
  1
strokes_ogs.tif
102
RTVSPost2010PropOp54
 70
     1
102
RTVSPost2010Prop55
280
     0
102
RTVSPost2010PropOp55
 70
     1
102
RTVSPost2010Prop56
140
1.0
102
RTVSPost2010PropOp56
 70
     1
102
RTVSPost2010Prop57
140
1.0
102
RTVSPost2010PropOp57
 70
     1
102
RTVSPropertyOp0
 70
     1
102
RTVSPropertyOp1
 70
     1
102
RTVSPropertyOp2
 70
     1
102
RTVSPropertyOp3
 70
     1
102
RTVSPropertyOp4
 70
     1
102
RTVSPropertyOp5
 70
     1
102
RTVSPropertyOp6
 70
     1
102
RTVSPropertyOp7
 70
     1
102
RTVSPropertyOp8
 70
     1
102
RTVSPropertyOp9
 70
     1
102
RTVSPropertyOp10
 70
     1
102
RTVSPropertyOp11
 70
     1
102
RTVSPropertyOp12
 70
     1
102
RTVSPropertyOp13
 70
     1
102
RTVSPropertyOp14
 70
     1
102
RTVSPropertyOp15
 70
     1
102
RTVSPropertyOp16
 70
     1
102
RTVSPropertyOp17
 70
     1
102
RTVSPropertyOp18
 70
     1
102
RTVSPropertyOp19
 70
     1
102
RTVSPropertyOp20
 70
     1
102
RTVSPropertyOp21
 70
     1
102
RTVSPropertyOp22
 70
     1
102
RTVSPropertyOp23
 70
     1
102
RTVSPropertyOp24
 70
     1
102
RTVSPropertyOp25
 70
     1
102
RTVSPropertyOp26
 70
     1
102
RTVSPropertyOp27
 70
     1
102
RTVSPropertyOp28
 70
     1
102
RTVSPropertyOp29
 70
     1
102
RTVSPropertyOp30
 70
     1
102
RTVSPropertyOp31
 70
     1
102
RTVSPropertyOp32
 70
     1
102
RTVSPropertyOp33
 70
     1
102
RTVSPropertyOp34
 70
     1
102
RTVSPropertyOp35
 70
     1
102
RTVSPropertyOp36
 70
     1
102
RTVSPropertyOp37
 70
     1
102
RTVSPropertyOp38
 70
     1
102
RTVSPropertyOp39
 70
     1
102
RTVSPropertyOp40
 70
     1
102
RTVSPropertyOp41
 70
     1
102
RTVSPropertyOp42
 70
     1
102
RTVSPropertyOp43
 70
     1
102
RTVSPropertyOp44
 70
     1
102
RTVSPropertyOp45
 70
     1
102
RTVSPropertyOp46
 70
     1
102
RTVSPropertyOp47
 70
     1
102
RTVSPropertyOp48
 70
     1
102
RTVSPropertyOp49
 70
     1
102
RTVSPropertyOp50
 70
     1
102
RTVSPropertyOp51
 70
     0
102
RTVSPropertyOp52
 70
     0
102
RTVSPropertyOp53
 70
     1
102
RTVSPropertyOp54
 70
     1
102
RTVSPropertyOp55
 70
     1
102
RTVSPropertyOp56
 70
     1
102
RTVSPropertyOp57
 70
     1
102
RTVSPropertyOp58
 70
     1
102
RTVSPropertyOp59
 70
     1
102
RTVSPropertyOp60
 70
     1
102
RTVSPropertyOp61
 70
     1
102
RTVSPropertyOp62
 70
     1
  0
XRECORD
  5
19B2
102
{ACAD_REACTORS
330
19B1
102
}
330
19B1
100
AcDbXrecord
280
     1
102
RTVSPost2010Prop28
280
     0
102
RTVSPost2010PropOp28
 70
     1
102
RTVSPost2010Prop29
280
     1
102
RTVSPost2010PropOp29
 70
     1
102
RTVSPost2010Prop30
280
     1
102
RTVSPost2010PropOp30
 70
     1
102
RTVSPost2010Prop31
280
     0
102
RTVSPost2010PropOp31
 70
     1
102
RTVSPost2010Prop32
280
     0
102
RTVSPost2010PropOp32
 70
     1
102
RTVSPost2010Prop33
280
     0
102
RTVSPost2010PropOp33
 70
     1
102
RTVSPost2010Prop34
280
     0
102
RTVSPost2010PropOp34
 70
     1
102
RTVSPost2010Prop35
280
     0
102
RTVSPost2010PropOp35
 70
     1
102
RTVSPost2010Prop36
280
     0
102
RTVSPost2010PropOp36
 70
     1
102
RTVSPost2010Prop37
 90
       50
102
RTVSPost2010PropOp37
 70
     1
102
RTVSPost2010Prop38
140
0.0
102
RTVSPost2010PropOp38
 70
     1
102
RTVSPost2010Prop39
140
1.0
102
RTVSPost2010PropOp39
 70
     1
102
RTVSPost2010Prop40
 90
        0
102
RTVSPost2010PropOp40
 70
     1
102
RTVSPost2010Prop41ColorIndex
 90
       18
102
RTVSPost2010Prop41ColorRGB
 90
        0
102
RTVSPost2010PropOp41
 70
     1
102
RTVSPost2010Prop42
 90
       50
102
RTVSPost2010PropOp42
 70
     1
102
RTVSPost2010Prop43
 90
        3
102
RTVSPost2010PropOp43
 70
     1
102
RTVSPost2010Prop44ColorIndex
 90
        5
102
RTVSPost2010Prop44ColorRGB
 90
      255
102
RTVSPost2010PropOp44
 70
     1
102
RTVSPost2010Prop45
280
     0
102
RTVSPost2010PropOp45
 70
     1
102
RTVSPost2010Prop46
 90
       50
102
RTVSPost2010PropOp46
 70
     1
102
RTVSPost2010Prop47
 90
       50
102
RTVSPost2010PropOp47
 70
     1
102
RTVSPost2010Prop48
 90
       50
102
RTVSPost2010PropOp48
 70
     1
102
RTVSPost2010Prop49
280
     0
102
RTVSPost2010PropOp49
 70
     1
102
RTVSPost2010Prop50
 90
       50
102
RTVSPost2010PropOp50
 70
     1
102
RTVSPost2010Prop51ColorIndex
 90
      256
102
RTVSPost2010Prop51ColorRGB
 90
-16777216
102
RTVSPost2010PropOp51
 70
     0
102
RTVSPost2010Prop52
140
1.0
102
RTVSPost2010PropOp52
 70
     0
102
RTVSPost2010Prop53
 90
        2
102
RTVSPost2010PropOp53
 70
     1
102
RTVSPost2010Prop54
  1
strokes_ogs.tif
102
RTVSPost2010PropOp54
 70
     1
102
RTVSPost2010Prop55
280
     0
102
RTVSPost2010PropOp55
 70
     1
102
RTVSPost2010Prop56
140
1.0
102
RTVSPost2010PropOp56
 70
     1
102
RTVSPost2010Prop57
140
1.0
102
RTVSPost2010PropOp57
 70
     1
102
RTVSPropertyOp0
 70
     1
102
RTVSPropertyOp1
 70
     1
102
RTVSPropertyOp2
 70
     1
102
RTVSPropertyOp3
 70
     1
102
RTVSPropertyOp4
 70
     1
102
RTVSPropertyOp5
 70
     1
102
RTVSPropertyOp6
 70
     1
102
RTVSPropertyOp7
 70
     1
102
RTVSPropertyOp8
 70
     1
102
RTVSPropertyOp9
 70
     1
102
RTVSPropertyOp10
 70
     1
102
RTVSPropertyOp11
 70
     1
102
RTVSPropertyOp12
 70
     1
102
RTVSPropertyOp13
 70
     1
102
RTVSPropertyOp14
 70
     1
102
RTVSPropertyOp15
 70
     1
102
RTVSPropertyOp16
 70
     1
102
RTVSPropertyOp17
 70
     1
102
RTVSPropertyOp18
 70
     1
102
RTVSPropertyOp19
 70
     1
102
RTVSPropertyOp20
 70
     1
102
RTVSPropertyOp21
 70
     1
102
RTVSPropertyOp22
 70
     1
102
RTVSPropertyOp23
 70
     1
102
RTVSPropertyOp24
 70
     1
102
RTVSPropertyOp25
 70
     1
102
RTVSPropertyOp26
 70
     1
102
RTVSPropertyOp27
 70
     1
102
RTVSPropertyOp28
 70
     1
102
RTVSPropertyOp29
 70
     1
102
RTVSPropertyOp30
 70
     1
102
RTVSPropertyOp31
 70
     1
102
RTVSPropertyOp32
 70
     1
102
RTVSPropertyOp33
 70
     1
102
RTVSPropertyOp34
 70
     1
102
RTVSPropertyOp35
 70
     1
102
RTVSPropertyOp36
 70
     1
102
RTVSPropertyOp37
 70
     1
102
RTVSPropertyOp38
 70
     1
102
RTVSPropertyOp39
 70
     1
102
RTVSPropertyOp40
 70
     1
102
RTVSPropertyOp41
 70
     1
102
RTVSPropertyOp42
 70
     1
102
RTVSPropertyOp43
 70
     1
102
RTVSPropertyOp44
 70
     1
102
RTVSPropertyOp45
 70
     1
102
RTVSPropertyOp46
 70
     1
102
RTVSPropertyOp47
 70
     1
102
RTVSPropertyOp48
 70
     1
102
RTVSPropertyOp49
 70
     1
102
RTVSPropertyOp50
 70
     1
102
RTVSPropertyOp51
 70
     0
102
RTVSPropertyOp52
 70
     0
102
RTVSPropertyOp53
 70
     1
102
RTVSPropertyOp54
 70
     1
102
RTVSPropertyOp55
 70
     1
102
RTVSPropertyOp56
 70
     1
102
RTVSPropertyOp57
 70
     1
102
RTVSPropertyOp58
 70
     1
102
RTVSPropertyOp59
 70
     1
102
RTVSPropertyOp60
 70
     1
102
RTVSPropertyOp61
 70
     1
102
RTVSPropertyOp62
 70
     1
  0
XRECORD
  5
19A4
102
{ACAD_REACTORS
330
19A3
102
}
330
19A3
100
AcDbXrecord
280
     1
102
RTVSPost2010Prop28
280
     0
102
RTVSPost2010PropOp28
 70
     1
102
RTVSPost2010Prop29
280
     1
102
RTVSPost2010PropOp29
 70
     1
102
RTVSPost2010Prop30
280
     1
102
RTVSPost2010PropOp30
 70
     1
102
RTVSPost2010Prop31
280
     0
102
RTVSPost2010PropOp31
 70
     1
102
RTVSPost2010Prop32
280
     0
102
RTVSPost2010PropOp32
 70
     1
102
RTVSPost2010Prop33
280
     0
102
RTVSPost2010PropOp33
 70
     1
102
RTVSPost2010Prop34
280
     0
102
RTVSPost2010PropOp34
 70
     1
102
RTVSPost2010Prop35
280
     0
102
RTVSPost2010PropOp35
 70
     1
102
RTVSPost2010Prop36
280
     0
102
RTVSPost2010PropOp36
 70
     1
102
RTVSPost2010Prop37
 90
       50
102
RTVSPost2010PropOp37
 70
     1
102
RTVSPost2010Prop38
140
0.0
102
RTVSPost2010PropOp38
 70
     1
102
RTVSPost2010Prop39
140
1.0
102
RTVSPost2010PropOp39
 70
     1
102
RTVSPost2010Prop40
 90
        0
102
RTVSPost2010PropOp40
 70
     1
102
RTVSPost2010Prop41ColorIndex
 90
       18
102
RTVSPost2010Prop41ColorRGB
 90
        0
102
RTVSPost2010PropOp41
 70
     1
102
RTVSPost2010Prop42
 90
       50
102
RTVSPost2010PropOp42
 70
     1
102
RTVSPost2010Prop43
 90
        3
102
RTVSPost2010PropOp43
 70
     1
102
RTVSPost2010Prop44ColorIndex
 90
        5
102
RTVSPost2010Prop44ColorRGB
 90
      255
102
RTVSPost2010PropOp44
 70
     1
102
RTVSPost2010Prop45
280
     0
102
RTVSPost2010PropOp45
 70
     1
102
RTVSPost2010Prop46
 90
       50
102
RTVSPost2010PropOp46
 70
     1
102
RTVSPost2010Prop47
 90
       50
102
RTVSPost2010PropOp47
 70
     1
102
RTVSPost2010Prop48
 90
       50
102
RTVSPost2010PropOp48
 70
     1
102
RTVSPost2010Prop49
280
     0
102
RTVSPost2010PropOp49
 70
     1
102
RTVSPost2010Prop50
 90
       50
102
RTVSPost2010PropOp50
 70
     1
102
RTVSPost2010Prop51ColorIndex
 90
      256
102
RTVSPost2010Prop51ColorRGB
 90
-16777216
102
RTVSPost2010PropOp51
 70
     0
102
RTVSPost2010Prop52
140
1.0
102
RTVSPost2010PropOp52
 70
     0
102
RTVSPost2010Prop53
 90
        2
102
RTVSPost2010PropOp53
 70
     1
102
RTVSPost2010Prop54
  1
strokes_ogs.tif
102
RTVSPost2010PropOp54
 70
     1
102
RTVSPost2010Prop55
280
     0
102
RTVSPost2010PropOp55
 70
     1
102
RTVSPost2010Prop56
140
1.0
102
RTVSPost2010PropOp56
 70
     1
102
RTVSPost2010Prop57
140
1.0
102
RTVSPost2010PropOp57
 70
     1
102
RTVSPropertyOp0
 70
     1
102
RTVSPropertyOp1
 70
     1
102
RTVSPropertyOp2
 70
     1
102
RTVSPropertyOp3
 70
     1
102
RTVSPropertyOp4
 70
     1
102
RTVSPropertyOp5
 70
     1
102
RTVSPropertyOp6
 70
     1
102
RTVSPropertyOp7
 70
     1
102
RTVSPropertyOp8
 70
     1
102
RTVSPropertyOp9
 70
     1
102
RTVSPropertyOp10
 70
     1
102
RTVSPropertyOp11
 70
     1
102
RTVSPropertyOp12
 70
     1
102
RTVSPropertyOp13
 70
     1
102
RTVSPropertyOp14
 70
     1
102
RTVSPropertyOp15
 70
     1
102
RTVSPropertyOp16
 70
     1
102
RTVSPropertyOp17
 70
     1
102
RTVSPropertyOp18
 70
     1
102
RTVSPropertyOp19
 70
     1
102
RTVSPropertyOp20
 70
     1
102
RTVSPropertyOp21
 70
     1
102
RTVSPropertyOp22
 70
     1
102
RTVSPropertyOp23
 70
     1
102
RTVSPropertyOp24
 70
     1
102
RTVSPropertyOp25
 70
     1
102
RTVSPropertyOp26
 70
     1
102
RTVSPropertyOp27
 70
     1
102
RTVSPropertyOp28
 70
     1
102
RTVSPropertyOp29
 70
     1
102
RTVSPropertyOp30
 70
     1
102
RTVSPropertyOp31
 70
     1
102
RTVSPropertyOp32
 70
     1
102
RTVSPropertyOp33
 70
     1
102
RTVSPropertyOp34
 70
     1
102
RTVSPropertyOp35
 70
     1
102
RTVSPropertyOp36
 70
     1
102
RTVSPropertyOp37
 70
     1
102
RTVSPropertyOp38
 70
     1
102
RTVSPropertyOp39
 70
     1
102
RTVSPropertyOp40
 70
     1
102
RTVSPropertyOp41
 70
     1
102
RTVSPropertyOp42
 70
     1
102
RTVSPropertyOp43
 70
     1
102
RTVSPropertyOp44
 70
     1
102
RTVSPropertyOp45
 70
     1
102
RTVSPropertyOp46
 70
     1
102
RTVSPropertyOp47
 70
     1
102
RTVSPropertyOp48
 70
     1
102
RTVSPropertyOp49
 70
     1
102
RTVSPropertyOp50
 70
     1
102
RTVSPropertyOp51
 70
     0
102
RTVSPropertyOp52
 70
     0
102
RTVSPropertyOp53
 70
     1
102
RTVSPropertyOp54
 70
     1
102
RTVSPropertyOp55
 70
     1
102
RTVSPropertyOp56
 70
     1
102
RTVSPropertyOp57
 70
     1
102
RTVSPropertyOp58
 70
     1
102
RTVSPropertyOp59
 70
     1
102
RTVSPropertyOp60
 70
     1
102
RTVSPropertyOp61
 70
     1
102
RTVSPropertyOp62
 70
     1
  0
XRECORD
  5
19A8
102
{ACAD_REACTORS
330
19A7
102
}
330
19A7
100
AcDbXrecord
280
     1
102
RTVSPost2010Prop28
280
     0
102
RTVSPost2010PropOp28
 70
     1
102
RTVSPost2010Prop29
280
     1
102
RTVSPost2010PropOp29
 70
     1
102
RTVSPost2010Prop30
280
     1
102
RTVSPost2010PropOp30
 70
     1
102
RTVSPost2010Prop31
280
     0
102
RTVSPost2010PropOp31
 70
     1
102
RTVSPost2010Prop32
280
     0
102
RTVSPost2010PropOp32
 70
     1
102
RTVSPost2010Prop33
280
     0
102
RTVSPost2010PropOp33
 70
     1
102
RTVSPost2010Prop34
280
     0
102
RTVSPost2010PropOp34
 70
     1
102
RTVSPost2010Prop35
280
     0
102
RTVSPost2010PropOp35
 70
     1
102
RTVSPost2010Prop36
280
     0
102
RTVSPost2010PropOp36
 70
     1
102
RTVSPost2010Prop37
 90
       50
102
RTVSPost2010PropOp37
 70
     1
102
RTVSPost2010Prop38
140
0.0
102
RTVSPost2010PropOp38
 70
     1
102
RTVSPost2010Prop39
140
1.0
102
RTVSPost2010PropOp39
 70
     1
102
RTVSPost2010Prop40
 90
        0
102
RTVSPost2010PropOp40
 70
     1
102
RTVSPost2010Prop41ColorIndex
 90
       18
102
RTVSPost2010Prop41ColorRGB
 90
        0
102
RTVSPost2010PropOp41
 70
     1
102
RTVSPost2010Prop42
 90
       50
102
RTVSPost2010PropOp42
 70
     1
102
RTVSPost2010Prop43
 90
        3
102
RTVSPost2010PropOp43
 70
     1
102
RTVSPost2010Prop44ColorIndex
 90
        5
102
RTVSPost2010Prop44ColorRGB
 90
      255
102
RTVSPost2010PropOp44
 70
     1
102
RTVSPost2010Prop45
280
     0
102
RTVSPost2010PropOp45
 70
     1
102
RTVSPost2010Prop46
 90
       50
102
RTVSPost2010PropOp46
 70
     1
102
RTVSPost2010Prop47
 90
       50
102
RTVSPost2010PropOp47
 70
     1
102
RTVSPost2010Prop48
 90
       50
102
RTVSPost2010PropOp48
 70
     1
102
RTVSPost2010Prop49
280
     0
102
RTVSPost2010PropOp49
 70
     1
102
RTVSPost2010Prop50
 90
       50
102
RTVSPost2010PropOp50
 70
     1
102
RTVSPost2010Prop51ColorIndex
 90
      256
102
RTVSPost2010Prop51ColorRGB
 90
-16777216
102
RTVSPost2010PropOp51
 70
     0
102
RTVSPost2010Prop52
140
1.0
102
RTVSPost2010PropOp52
 70
     0
102
RTVSPost2010Prop53
 90
        2
102
RTVSPost2010PropOp53
 70
     1
102
RTVSPost2010Prop54
  1
strokes_ogs.tif
102
RTVSPost2010PropOp54
 70
     1
102
RTVSPost2010Prop55
280
     0
102
RTVSPost2010PropOp55
 70
     1
102
RTVSPost2010Prop56
140
1.0
102
RTVSPost2010PropOp56
 70
     1
102
RTVSPost2010Prop57
140
1.0
102
RTVSPost2010PropOp57
 70
     1
102
RTVSPropertyOp0
 70
     1
102
RTVSPropertyOp1
 70
     1
102
RTVSPropertyOp2
 70
     1
102
RTVSPropertyOp3
 70
     1
102
RTVSPropertyOp4
 70
     1
102
RTVSPropertyOp5
 70
     1
102
RTVSPropertyOp6
 70
     1
102
RTVSPropertyOp7
 70
     1
102
RTVSPropertyOp8
 70
     1
102
RTVSPropertyOp9
 70
     1
102
RTVSPropertyOp10
 70
     1
102
RTVSPropertyOp11
 70
     1
102
RTVSPropertyOp12
 70
     1
102
RTVSPropertyOp13
 70
     1
102
RTVSPropertyOp14
 70
     1
102
RTVSPropertyOp15
 70
     1
102
RTVSPropertyOp16
 70
     1
102
RTVSPropertyOp17
 70
     1
102
RTVSPropertyOp18
 70
     1
102
RTVSPropertyOp19
 70
     1
102
RTVSPropertyOp20
 70
     1
102
RTVSPropertyOp21
 70
     1
102
RTVSPropertyOp22
 70
     1
102
RTVSPropertyOp23
 70
     1
102
RTVSPropertyOp24
 70
     1
102
RTVSPropertyOp25
 70
     1
102
RTVSPropertyOp26
 70
     1
102
RTVSPropertyOp27
 70
     1
102
RTVSPropertyOp28
 70
     1
102
RTVSPropertyOp29
 70
     1
102
RTVSPropertyOp30
 70
     1
102
RTVSPropertyOp31
 70
     1
102
RTVSPropertyOp32
 70
     1
102
RTVSPropertyOp33
 70
     1
102
RTVSPropertyOp34
 70
     1
102
RTVSPropertyOp35
 70
     1
102
RTVSPropertyOp36
 70
     1
102
RTVSPropertyOp37
 70
     1
102
RTVSPropertyOp38
 70
     1
102
RTVSPropertyOp39
 70
     1
102
RTVSPropertyOp40
 70
     1
102
RTVSPropertyOp41
 70
     1
102
RTVSPropertyOp42
 70
     1
102
RTVSPropertyOp43
 70
     1
102
RTVSPropertyOp44
 70
     1
102
RTVSPropertyOp45
 70
     1
102
RTVSPropertyOp46
 70
     1
102
RTVSPropertyOp47
 70
     1
102
RTVSPropertyOp48
 70
     1
102
RTVSPropertyOp49
 70
     1
102
RTVSPropertyOp50
 70
     1
102
RTVSPropertyOp51
 70
     0
102
RTVSPropertyOp52
 70
     0
102
RTVSPropertyOp53
 70
     1
102
RTVSPropertyOp54
 70
     1
102
RTVSPropertyOp55
 70
     1
102
RTVSPropertyOp56
 70
     1
102
RTVSPropertyOp57
 70
     1
102
RTVSPropertyOp58
 70
     1
102
RTVSPropertyOp59
 70
     1
102
RTVSPropertyOp60
 70
     1
102
RTVSPropertyOp61
 70
     1
102
RTVSPropertyOp62
 70
     1
  0
XRECORD
  5
19C2
102
{ACAD_REACTORS
330
19C1
102
}
330
19C1
100
AcDbXrecord
280
     1
102
RTVSPost2010Prop28
280
     0
102
RTVSPost2010PropOp28
 70
     1
102
RTVSPost2010Prop29
280
     1
102
RTVSPost2010PropOp29
 70
     1
102
RTVSPost2010Prop30
280
     1
102
RTVSPost2010PropOp30
 70
     1
102
RTVSPost2010Prop31
280
     0
102
RTVSPost2010PropOp31
 70
     1
102
RTVSPost2010Prop32
280
     0
102
RTVSPost2010PropOp32
 70
     1
102
RTVSPost2010Prop33
280
     0
102
RTVSPost2010PropOp33
 70
     1
102
RTVSPost2010Prop34
280
     0
102
RTVSPost2010PropOp34
 70
     1
102
RTVSPost2010Prop35
280
     0
102
RTVSPost2010PropOp35
 70
     1
102
RTVSPost2010Prop36
280
     0
102
RTVSPost2010PropOp36
 70
     1
102
RTVSPost2010Prop37
 90
       50
102
RTVSPost2010PropOp37
 70
     0
102
RTVSPost2010Prop38
140
0.0
102
RTVSPost2010PropOp38
 70
     0
102
RTVSPost2010Prop39
140
1.0
102
RTVSPost2010PropOp39
 70
     0
102
RTVSPost2010Prop40
 90
        0
102
RTVSPost2010PropOp40
 70
     0
102
RTVSPost2010Prop41ColorIndex
 90
       18
102
RTVSPost2010Prop41ColorRGB
 90
        0
102
RTVSPost2010PropOp41
 70
     0
102
RTVSPost2010Prop42
 90
       50
102
RTVSPost2010PropOp42
 70
     0
102
RTVSPost2010Prop43
 90
        3
102
RTVSPost2010PropOp43
 70
     0
102
RTVSPost2010Prop44ColorIndex
 90
        5
102
RTVSPost2010Prop44ColorRGB
 90
      255
102
RTVSPost2010PropOp44
 70
     0
102
RTVSPost2010Prop45
280
     0
102
RTVSPost2010PropOp45
 70
     1
102
RTVSPost2010Prop46
 90
       50
102
RTVSPost2010PropOp46
 70
     0
102
RTVSPost2010Prop47
 90
       50
102
RTVSPost2010PropOp47
 70
     0
102
RTVSPost2010Prop48
 90
       50
102
RTVSPost2010PropOp48
 70
     0
102
RTVSPost2010Prop49
280
     0
102
RTVSPost2010PropOp49
 70
     1
102
RTVSPost2010Prop50
 90
       50
102
RTVSPost2010PropOp50
 70
     0
102
RTVSPost2010Prop51ColorIndex
 90
      256
102
RTVSPost2010Prop51ColorRGB
 90
-16777216
102
RTVSPost2010PropOp51
 70
     0
102
RTVSPost2010Prop52
140
1.0
102
RTVSPost2010PropOp52
 70
     0
102
RTVSPost2010Prop53
 90
        2
102
RTVSPost2010PropOp53
 70
     0
102
RTVSPost2010Prop54
  1
strokes_ogs.tif
102
RTVSPost2010PropOp54
 70
     0
102
RTVSPost2010Prop55
280
     0
102
RTVSPost2010PropOp55
 70
     1
102
RTVSPost2010Prop56
140
1.0
102
RTVSPost2010PropOp56
 70
     0
102
RTVSPost2010Prop57
140
1.0
102
RTVSPost2010PropOp57
 70
     0
102
RTVSPropertyOp0
 70
     0
102
RTVSPropertyOp1
 70
     0
102
RTVSPropertyOp2
 70
     0
102
RTVSPropertyOp3
 70
     0
102
RTVSPropertyOp4
 70
     0
102
RTVSPropertyOp5
 70
     0
102
RTVSPropertyOp6
 70
     0
102
RTVSPropertyOp7
 70
     0
102
RTVSPropertyOp8
 70
     0
102
RTVSPropertyOp9
 70
     0
102
RTVSPropertyOp10
 70
     0
102
RTVSPropertyOp11
 70
     0
102
RTVSPropertyOp12
 70
     0
102
RTVSPropertyOp13
 70
     0
102
RTVSPropertyOp14
 70
     2
102
RTVSPropertyOp15
 70
     0
102
RTVSPropertyOp16
 70
     0
102
RTVSPropertyOp17
 70
     0
102
RTVSPropertyOp18
 70
     0
102
RTVSPropertyOp19
 70
     0
102
RTVSPropertyOp20
 70
     0
102
RTVSPropertyOp21
 70
     0
102
RTVSPropertyOp22
 70
     0
102
RTVSPropertyOp23
 70
     0
102
RTVSPropertyOp24
 70
     0
102
RTVSPropertyOp25
 70
     0
102
RTVSPropertyOp26
 70
     0
102
RTVSPropertyOp27
 70
     0
102
RTVSPropertyOp28
 70
     1
102
RTVSPropertyOp29
 70
     1
102
RTVSPropertyOp30
 70
     1
102
RTVSPropertyOp31
 70
     1
102
RTVSPropertyOp32
 70
     1
102
RTVSPropertyOp33
 70
     1
102
RTVSPropertyOp34
 70
     1
102
RTVSPropertyOp35
 70
     1
102
RTVSPropertyOp36
 70
     1
102
RTVSPropertyOp37
 70
     0
102
RTVSPropertyOp38
 70
     0
102
RTVSPropertyOp39
 70
     0
102
RTVSPropertyOp40
 70
     0
102
RTVSPropertyOp41
 70
     0
102
RTVSPropertyOp42
 70
     0
102
RTVSPropertyOp43
 70
     0
102
RTVSPropertyOp44
 70
     0
102
RTVSPropertyOp45
 70
     1
102
RTVSPropertyOp46
 70
     0
102
RTVSPropertyOp47
 70
     0
102
RTVSPropertyOp48
 70
     0
102
RTVSPropertyOp49
 70
     1
102
RTVSPropertyOp50
 70
     0
102
RTVSPropertyOp51
 70
     0
102
RTVSPropertyOp52
 70
     0
102
RTVSPropertyOp53
 70
     0
102
RTVSPropertyOp54
 70
     0
102
RTVSPropertyOp55
 70
     1
102
RTVSPropertyOp56
 70
     0
102
RTVSPropertyOp57
 70
     0
102
RTVSPropertyOp58
 70
     1
102
RTVSPropertyOp59
 70
     1
102
RTVSPropertyOp60
 70
     1
102
RTVSPropertyOp61
 70
     1
102
RTVSPropertyOp62
 70
     1
  0
XRECORD
  5
19B0
102
{ACAD_REACTORS
330
19AF
102
}
330
19AF
100
AcDbXrecord
280
     1
102
RTVSPost2010Prop28
280
     0
102
RTVSPost2010PropOp28
 70
     1
102
RTVSPost2010Prop29
280
     1
102
RTVSPost2010PropOp29
 70
     1
102
RTVSPost2010Prop30
280
     1
102
RTVSPost2010PropOp30
 70
     1
102
RTVSPost2010Prop31
280
     0
102
RTVSPost2010PropOp31
 70
     1
102
RTVSPost2010Prop32
280
     0
102
RTVSPost2010PropOp32
 70
     1
102
RTVSPost2010Prop33
280
     0
102
RTVSPost2010PropOp33
 70
     1
102
RTVSPost2010Prop34
280
     0
102
RTVSPost2010PropOp34
 70
     1
102
RTVSPost2010Prop35
280
     0
102
RTVSPost2010PropOp35
 70
     1
102
RTVSPost2010Prop36
280
     0
102
RTVSPost2010PropOp36
 70
     1
102
RTVSPost2010Prop37
 90
       50
102
RTVSPost2010PropOp37
 70
     1
102
RTVSPost2010Prop38
140
0.0
102
RTVSPost2010PropOp38
 70
     1
102
RTVSPost2010Prop39
140
1.0
102
RTVSPost2010PropOp39
 70
     1
102
RTVSPost2010Prop40
 90
        0
102
RTVSPost2010PropOp40
 70
     1
102
RTVSPost2010Prop41ColorIndex
 90
       18
102
RTVSPost2010Prop41ColorRGB
 90
        0
102
RTVSPost2010PropOp41
 70
     1
102
RTVSPost2010Prop42
 90
       50
102
RTVSPost2010PropOp42
 70
     1
102
RTVSPost2010Prop43
 90
        3
102
RTVSPost2010PropOp43
 70
     1
102
RTVSPost2010Prop44ColorIndex
 90
        5
102
RTVSPost2010Prop44ColorRGB
 90
      255
102
RTVSPost2010PropOp44
 70
     1
102
RTVSPost2010Prop45
280
     0
102
RTVSPost2010PropOp45
 70
     1
102
RTVSPost2010Prop46
 90
       50
102
RTVSPost2010PropOp46
 70
     1
102
RTVSPost2010Prop47
 90
       50
102
RTVSPost2010PropOp47
 70
     1
102
RTVSPost2010Prop48
 90
       50
102
RTVSPost2010PropOp48
 70
     1
102
RTVSPost2010Prop49
280
     0
102
RTVSPost2010PropOp49
 70
     1
102
RTVSPost2010Prop50
 90
       50
102
RTVSPost2010PropOp50
 70
     1
102
RTVSPost2010Prop51ColorIndex
 90
      256
102
RTVSPost2010Prop51ColorRGB
 90
-16777216
102
RTVSPost2010PropOp51
 70
     0
102
RTVSPost2010Prop52
140
1.0
102
RTVSPost2010PropOp52
 70
     0
102
RTVSPost2010Prop53
 90
        2
102
RTVSPost2010PropOp53
 70
     1
102
RTVSPost2010Prop54
  1
strokes_ogs.tif
102
RTVSPost2010PropOp54
 70
     1
102
RTVSPost2010Prop55
280
     0
102
RTVSPost2010PropOp55
 70
     1
102
RTVSPost2010Prop56
140
1.0
102
RTVSPost2010PropOp56
 70
     1
102
RTVSPost2010Prop57
140
1.0
102
RTVSPost2010PropOp57
 70
     1
102
RTVSPropertyOp0
 70
     1
102
RTVSPropertyOp1
 70
     1
102
RTVSPropertyOp2
 70
     1
102
RTVSPropertyOp3
 70
     1
102
RTVSPropertyOp4
 70
     1
102
RTVSPropertyOp5
 70
     1
102
RTVSPropertyOp6
 70
     1
102
RTVSPropertyOp7
 70
     1
102
RTVSPropertyOp8
 70
     1
102
RTVSPropertyOp9
 70
     1
102
RTVSPropertyOp10
 70
     1
102
RTVSPropertyOp11
 70
     1
102
RTVSPropertyOp12
 70
     1
102
RTVSPropertyOp13
 70
     1
102
RTVSPropertyOp14
 70
     1
102
RTVSPropertyOp15
 70
     1
102
RTVSPropertyOp16
 70
     1
102
RTVSPropertyOp17
 70
     1
102
RTVSPropertyOp18
 70
     1
102
RTVSPropertyOp19
 70
     1
102
RTVSPropertyOp20
 70
     1
102
RTVSPropertyOp21
 70
     1
102
RTVSPropertyOp22
 70
     1
102
RTVSPropertyOp23
 70
     1
102
RTVSPropertyOp24
 70
     1
102
RTVSPropertyOp25
 70
     1
102
RTVSPropertyOp26
 70
     1
102
RTVSPropertyOp27
 70
     1
102
RTVSPropertyOp28
 70
     1
102
RTVSPropertyOp29
 70
     1
102
RTVSPropertyOp30
 70
     1
102
RTVSPropertyOp31
 70
     1
102
RTVSPropertyOp32
 70
     1
102
RTVSPropertyOp33
 70
     1
102
RTVSPropertyOp34
 70
     1
102
RTVSPropertyOp35
 70
     1
102
RTVSPropertyOp36
 70
     1
102
RTVSPropertyOp37
 70
     1
102
RTVSPropertyOp38
 70
     1
102
RTVSPropertyOp39
 70
     1
102
RTVSPropertyOp40
 70
     1
102
RTVSPropertyOp41
 70
     1
102
RTVSPropertyOp42
 70
     1
102
RTVSPropertyOp43
 70
     1
102
RTVSPropertyOp44
 70
     1
102
RTVSPropertyOp45
 70
     1
102
RTVSPropertyOp46
 70
     1
102
RTVSPropertyOp47
 70
     1
102
RTVSPropertyOp48
 70
     1
102
RTVSPropertyOp49
 70
     1
102
RTVSPropertyOp50
 70
     1
102
RTVSPropertyOp51
 70
     0
102
RTVSPropertyOp52
 70
     0
102
RTVSPropertyOp53
 70
     1
102
RTVSPropertyOp54
 70
     1
102
RTVSPropertyOp55
 70
     1
102
RTVSPropertyOp56
 70
     1
102
RTVSPropertyOp57
 70
     1
102
RTVSPropertyOp58
 70
     1
102
RTVSPropertyOp59
 70
     1
102
RTVSPropertyOp60
 70
     1
102
RTVSPropertyOp61
 70
     1
102
RTVSPropertyOp62
 70
     1
  0
XRECORD
  5
1994
102
{ACAD_REACTORS
330
1993
102
}
330
1993
100
AcDbXrecord
280
     1
102
RTVSPost2010Prop28
280
     0
102
RTVSPost2010PropOp28
 70
     1
102
RTVSPost2010Prop29
280
     1
102
RTVSPost2010PropOp29
 70
     1
102
RTVSPost2010Prop30
280
     1
102
RTVSPost2010PropOp30
 70
     1
102
RTVSPost2010Prop31
280
     0
102
RTVSPost2010PropOp31
 70
     1
102
RTVSPost2010Prop32
280
     0
102
RTVSPost2010PropOp32
 70
     1
102
RTVSPost2010Prop33
280
     0
102
RTVSPost2010PropOp33
 70
     1
102
RTVSPost2010Prop34
280
     0
102
RTVSPost2010PropOp34
 70
     1
102
RTVSPost2010Prop35
280
     0
102
RTVSPost2010PropOp35
 70
     1
102
RTVSPost2010Prop36
280
     0
102
RTVSPost2010PropOp36
 70
     1
102
RTVSPost2010Prop37
 90
       50
102
RTVSPost2010PropOp37
 70
     1
102
RTVSPost2010Prop38
140
0.0
102
RTVSPost2010PropOp38
 70
     1
102
RTVSPost2010Prop39
140
1.0
102
RTVSPost2010PropOp39
 70
     1
102
RTVSPost2010Prop40
 90
        0
102
RTVSPost2010PropOp40
 70
     1
102
RTVSPost2010Prop41ColorIndex
 90
       18
102
RTVSPost2010Prop41ColorRGB
 90
        0
102
RTVSPost2010PropOp41
 70
     1
102
RTVSPost2010Prop42
 90
       50
102
RTVSPost2010PropOp42
 70
     1
102
RTVSPost2010Prop43
 90
        3
102
RTVSPost2010PropOp43
 70
     1
102
RTVSPost2010Prop44ColorIndex
 90
        5
102
RTVSPost2010Prop44ColorRGB
 90
      255
102
RTVSPost2010PropOp44
 70
     1
102
RTVSPost2010Prop45
280
     0
102
RTVSPost2010PropOp45
 70
     1
102
RTVSPost2010Prop46
 90
       50
102
RTVSPost2010PropOp46
 70
     1
102
RTVSPost2010Prop47
 90
       50
102
RTVSPost2010PropOp47
 70
     1
102
RTVSPost2010Prop48
 90
       50
102
RTVSPost2010PropOp48
 70
     1
102
RTVSPost2010Prop49
280
     0
102
RTVSPost2010PropOp49
 70
     1
102
RTVSPost2010Prop50
 90
       50
102
RTVSPost2010PropOp50
 70
     1
102
RTVSPost2010Prop51ColorIndex
 90
      256
102
RTVSPost2010Prop51ColorRGB
 90
-16777216
102
RTVSPost2010PropOp51
 70
     0
102
RTVSPost2010Prop52
140
1.0
102
RTVSPost2010PropOp52
 70
     0
102
RTVSPost2010Prop53
 90
        2
102
RTVSPost2010PropOp53
 70
     1
102
RTVSPost2010Prop54
  1
strokes_ogs.tif
102
RTVSPost2010PropOp54
 70
     1
102
RTVSPost2010Prop55
280
     0
102
RTVSPost2010PropOp55
 70
     1
102
RTVSPost2010Prop56
140
1.0
102
RTVSPost2010PropOp56
 70
     1
102
RTVSPost2010Prop57
140
1.0
102
RTVSPost2010PropOp57
 70
     1
102
RTVSPropertyOp0
 70
     1
102
RTVSPropertyOp1
 70
     1
102
RTVSPropertyOp2
 70
     1
102
RTVSPropertyOp3
 70
     1
102
RTVSPropertyOp4
 70
     1
102
RTVSPropertyOp5
 70
     1
102
RTVSPropertyOp6
 70
     1
102
RTVSPropertyOp7
 70
     1
102
RTVSPropertyOp8
 70
     1
102
RTVSPropertyOp9
 70
     1
102
RTVSPropertyOp10
 70
     1
102
RTVSPropertyOp11
 70
     1
102
RTVSPropertyOp12
 70
     1
102
RTVSPropertyOp13
 70
     1
102
RTVSPropertyOp14
 70
     1
102
RTVSPropertyOp15
 70
     1
102
RTVSPropertyOp16
 70
     1
102
RTVSPropertyOp17
 70
     1
102
RTVSPropertyOp18
 70
     1
102
RTVSPropertyOp19
 70
     1
102
RTVSPropertyOp20
 70
     1
102
RTVSPropertyOp21
 70
     1
102
RTVSPropertyOp22
 70
     1
102
RTVSPropertyOp23
 70
     1
102
RTVSPropertyOp24
 70
     1
102
RTVSPropertyOp25
 70
     1
102
RTVSPropertyOp26
 70
     1
102
RTVSPropertyOp27
 70
     1
102
RTVSPropertyOp28
 70
     1
102
RTVSPropertyOp29
 70
     1
102
RTVSPropertyOp30
 70
     1
102
RTVSPropertyOp31
 70
     1
102
RTVSPropertyOp32
 70
     1
102
RTVSPropertyOp33
 70
     1
102
RTVSPropertyOp34
 70
     1
102
RTVSPropertyOp35
 70
     1
102
RTVSPropertyOp36
 70
     1
102
RTVSPropertyOp37
 70
     1
102
RTVSPropertyOp38
 70
     1
102
RTVSPropertyOp39
 70
     1
102
RTVSPropertyOp40
 70
     1
102
RTVSPropertyOp41
 70
     1
102
RTVSPropertyOp42
 70
     1
102
RTVSPropertyOp43
 70
     1
102
RTVSPropertyOp44
 70
     1
102
RTVSPropertyOp45
 70
     1
102
RTVSPropertyOp46
 70
     1
102
RTVSPropertyOp47
 70
     1
102
RTVSPropertyOp48
 70
     1
102
RTVSPropertyOp49
 70
     1
102
RTVSPropertyOp50
 70
     1
102
RTVSPropertyOp51
 70
     0
102
RTVSPropertyOp52
 70
     0
102
RTVSPropertyOp53
 70
     1
102
RTVSPropertyOp54
 70
     1
102
RTVSPropertyOp55
 70
     1
102
RTVSPropertyOp56
 70
     1
102
RTVSPropertyOp57
 70
     1
102
RTVSPropertyOp58
 70
     1
102
RTVSPropertyOp59
 70
     1
102
RTVSPropertyOp60
 70
     1
102
RTVSPropertyOp61
 70
     1
102
RTVSPropertyOp62
 70
     1
  0
XRECORD
  5
1996
102
{ACAD_REACTORS
330
1995
102
}
330
1995
100
AcDbXrecord
280
     1
102
RTVSPost2010Prop28
280
     0
102
RTVSPost2010PropOp28
 70
     1
102
RTVSPost2010Prop29
280
     1
102
RTVSPost2010PropOp29
 70
     1
102
RTVSPost2010Prop30
280
     1
102
RTVSPost2010PropOp30
 70
     1
102
RTVSPost2010Prop31
280
     0
102
RTVSPost2010PropOp31
 70
     1
102
RTVSPost2010Prop32
280
     0
102
RTVSPost2010PropOp32
 70
     1
102
RTVSPost2010Prop33
280
     0
102
RTVSPost2010PropOp33
 70
     1
102
RTVSPost2010Prop34
280
     0
102
RTVSPost2010PropOp34
 70
     1
102
RTVSPost2010Prop35
280
     0
102
RTVSPost2010PropOp35
 70
     1
102
RTVSPost2010Prop36
280
     0
102
RTVSPost2010PropOp36
 70
     1
102
RTVSPost2010Prop37
 90
       50
102
RTVSPost2010PropOp37
 70
     1
102
RTVSPost2010Prop38
140
0.0
102
RTVSPost2010PropOp38
 70
     1
102
RTVSPost2010Prop39
140
1.0
102
RTVSPost2010PropOp39
 70
     1
102
RTVSPost2010Prop40
 90
        0
102
RTVSPost2010PropOp40
 70
     1
102
RTVSPost2010Prop41ColorIndex
 90
       18
102
RTVSPost2010Prop41ColorRGB
 90
        0
102
RTVSPost2010PropOp41
 70
     1
102
RTVSPost2010Prop42
 90
       50
102
RTVSPost2010PropOp42
 70
     1
102
RTVSPost2010Prop43
 90
        3
102
RTVSPost2010PropOp43
 70
     1
102
RTVSPost2010Prop44ColorIndex
 90
        5
102
RTVSPost2010Prop44ColorRGB
 90
      255
102
RTVSPost2010PropOp44
 70
     1
102
RTVSPost2010Prop45
280
     0
102
RTVSPost2010PropOp45
 70
     1
102
RTVSPost2010Prop46
 90
       50
102
RTVSPost2010PropOp46
 70
     1
102
RTVSPost2010Prop47
 90
       50
102
RTVSPost2010PropOp47
 70
     1
102
RTVSPost2010Prop48
 90
       50
102
RTVSPost2010PropOp48
 70
     1
102
RTVSPost2010Prop49
280
     0
102
RTVSPost2010PropOp49
 70
     1
102
RTVSPost2010Prop50
 90
       50
102
RTVSPost2010PropOp50
 70
     1
102
RTVSPost2010Prop51ColorIndex
 90
      256
102
RTVSPost2010Prop51ColorRGB
 90
-16777216
102
RTVSPost2010PropOp51
 70
     0
102
RTVSPost2010Prop52
140
1.0
102
RTVSPost2010PropOp52
 70
     0
102
RTVSPost2010Prop53
 90
        2
102
RTVSPost2010PropOp53
 70
     1
102
RTVSPost2010Prop54
  1
strokes_ogs.tif
102
RTVSPost2010PropOp54
 70
     1
102
RTVSPost2010Prop55
280
     0
102
RTVSPost2010PropOp55
 70
     1
102
RTVSPost2010Prop56
140
1.0
102
RTVSPost2010PropOp56
 70
     1
102
RTVSPost2010Prop57
140
1.0
102
RTVSPost2010PropOp57
 70
     1
102
RTVSPropertyOp0
 70
     1
102
RTVSPropertyOp1
 70
     1
102
RTVSPropertyOp2
 70
     1
102
RTVSPropertyOp3
 70
     1
102
RTVSPropertyOp4
 70
     1
102
RTVSPropertyOp5
 70
     1
102
RTVSPropertyOp6
 70
     1
102
RTVSPropertyOp7
 70
     1
102
RTVSPropertyOp8
 70
     1
102
RTVSPropertyOp9
 70
     1
102
RTVSPropertyOp10
 70
     1
102
RTVSPropertyOp11
 70
     1
102
RTVSPropertyOp12
 70
     1
102
RTVSPropertyOp13
 70
     1
102
RTVSPropertyOp14
 70
     1
102
RTVSPropertyOp15
 70
     1
102
RTVSPropertyOp16
 70
     1
102
RTVSPropertyOp17
 70
     1
102
RTVSPropertyOp18
 70
     1
102
RTVSPropertyOp19
 70
     1
102
RTVSPropertyOp20
 70
     1
102
RTVSPropertyOp21
 70
     1
102
RTVSPropertyOp22
 70
     1
102
RTVSPropertyOp23
 70
     1
102
RTVSPropertyOp24
 70
     1
102
RTVSPropertyOp25
 70
     1
102
RTVSPropertyOp26
 70
     1
102
RTVSPropertyOp27
 70
     1
102
RTVSPropertyOp28
 70
     1
102
RTVSPropertyOp29
 70
     1
102
RTVSPropertyOp30
 70
     1
102
RTVSPropertyOp31
 70
     1
102
RTVSPropertyOp32
 70
     1
102
RTVSPropertyOp33
 70
     1
102
RTVSPropertyOp34
 70
     1
102
RTVSPropertyOp35
 70
     1
102
RTVSPropertyOp36
 70
     1
102
RTVSPropertyOp37
 70
     1
102
RTVSPropertyOp38
 70
     1
102
RTVSPropertyOp39
 70
     1
102
RTVSPropertyOp40
 70
     1
102
RTVSPropertyOp41
 70
     1
102
RTVSPropertyOp42
 70
     1
102
RTVSPropertyOp43
 70
     1
102
RTVSPropertyOp44
 70
     1
102
RTVSPropertyOp45
 70
     1
102
RTVSPropertyOp46
 70
     1
102
RTVSPropertyOp47
 70
     1
102
RTVSPropertyOp48
 70
     1
102
RTVSPropertyOp49
 70
     1
102
RTVSPropertyOp50
 70
     1
102
RTVSPropertyOp51
 70
     0
102
RTVSPropertyOp52
 70
     0
102
RTVSPropertyOp53
 70
     1
102
RTVSPropertyOp54
 70
     1
102
RTVSPropertyOp55
 70
     1
102
RTVSPropertyOp56
 70
     1
102
RTVSPropertyOp57
 70
     1
102
RTVSPropertyOp58
 70
     1
102
RTVSPropertyOp59
 70
     1
102
RTVSPropertyOp60
 70
     1
102
RTVSPropertyOp61
 70
     1
102
RTVSPropertyOp62
 70
     1
  0
XRECORD
  5
1998
102
{ACAD_REACTORS
330
1997
102
}
330
1997
100
AcDbXrecord
280
     1
102
RTVSPost2010Prop28
280
     0
102
RTVSPost2010PropOp28
 70
     1
102
RTVSPost2010Prop29
280
     1
102
RTVSPost2010PropOp29
 70
     1
102
RTVSPost2010Prop30
280
     1
102
RTVSPost2010PropOp30
 70
     1
102
RTVSPost2010Prop31
280
     0
102
RTVSPost2010PropOp31
 70
     1
102
RTVSPost2010Prop32
280
     0
102
RTVSPost2010PropOp32
 70
     1
102
RTVSPost2010Prop33
280
     0
102
RTVSPost2010PropOp33
 70
     1
102
RTVSPost2010Prop34
280
     0
102
RTVSPost2010PropOp34
 70
     1
102
RTVSPost2010Prop35
280
     0
102
RTVSPost2010PropOp35
 70
     1
102
RTVSPost2010Prop36
280
     0
102
RTVSPost2010PropOp36
 70
     1
102
RTVSPost2010Prop37
 90
       50
102
RTVSPost2010PropOp37
 70
     1
102
RTVSPost2010Prop38
140
0.0
102
RTVSPost2010PropOp38
 70
     1
102
RTVSPost2010Prop39
140
1.0
102
RTVSPost2010PropOp39
 70
     1
102
RTVSPost2010Prop40
 90
        0
102
RTVSPost2010PropOp40
 70
     1
102
RTVSPost2010Prop41ColorIndex
 90
       18
102
RTVSPost2010Prop41ColorRGB
 90
        0
102
RTVSPost2010PropOp41
 70
     1
102
RTVSPost2010Prop42
 90
       50
102
RTVSPost2010PropOp42
 70
     1
102
RTVSPost2010Prop43
 90
        3
102
RTVSPost2010PropOp43
 70
     1
102
RTVSPost2010Prop44ColorIndex
 90
        5
102
RTVSPost2010Prop44ColorRGB
 90
      255
102
RTVSPost2010PropOp44
 70
     1
102
RTVSPost2010Prop45
280
     0
102
RTVSPost2010PropOp45
 70
     1
102
RTVSPost2010Prop46
 90
       50
102
RTVSPost2010PropOp46
 70
     1
102
RTVSPost2010Prop47
 90
       50
102
RTVSPost2010PropOp47
 70
     1
102
RTVSPost2010Prop48
 90
       50
102
RTVSPost2010PropOp48
 70
     1
102
RTVSPost2010Prop49
280
     0
102
RTVSPost2010PropOp49
 70
     1
102
RTVSPost2010Prop50
 90
       50
102
RTVSPost2010PropOp50
 70
     1
102
RTVSPost2010Prop51ColorIndex
 90
      256
102
RTVSPost2010Prop51ColorRGB
 90
-16777216
102
RTVSPost2010PropOp51
 70
     0
102
RTVSPost2010Prop52
140
1.0
102
RTVSPost2010PropOp52
 70
     0
102
RTVSPost2010Prop53
 90
        2
102
RTVSPost2010PropOp53
 70
     1
102
RTVSPost2010Prop54
  1
strokes_ogs.tif
102
RTVSPost2010PropOp54
 70
     1
102
RTVSPost2010Prop55
280
     0
102
RTVSPost2010PropOp55
 70
     1
102
RTVSPost2010Prop56
140
1.0
102
RTVSPost2010PropOp56
 70
     1
102
RTVSPost2010Prop57
140
1.0
102
RTVSPost2010PropOp57
 70
     1
102
RTVSPropertyOp0
 70
     1
102
RTVSPropertyOp1
 70
     1
102
RTVSPropertyOp2
 70
     1
102
RTVSPropertyOp3
 70
     1
102
RTVSPropertyOp4
 70
     1
102
RTVSPropertyOp5
 70
     1
102
RTVSPropertyOp6
 70
     1
102
RTVSPropertyOp7
 70
     1
102
RTVSPropertyOp8
 70
     1
102
RTVSPropertyOp9
 70
     1
102
RTVSPropertyOp10
 70
     1
102
RTVSPropertyOp11
 70
     1
102
RTVSPropertyOp12
 70
     1
102
RTVSPropertyOp13
 70
     1
102
RTVSPropertyOp14
 70
     1
102
RTVSPropertyOp15
 70
     1
102
RTVSPropertyOp16
 70
     1
102
RTVSPropertyOp17
 70
     1
102
RTVSPropertyOp18
 70
     1
102
RTVSPropertyOp19
 70
     1
102
RTVSPropertyOp20
 70
     1
102
RTVSPropertyOp21
 70
     1
102
RTVSPropertyOp22
 70
     1
102
RTVSPropertyOp23
 70
     1
102
RTVSPropertyOp24
 70
     1
102
RTVSPropertyOp25
 70
     1
102
RTVSPropertyOp26
 70
     1
102
RTVSPropertyOp27
 70
     1
102
RTVSPropertyOp28
 70
     1
102
RTVSPropertyOp29
 70
     1
102
RTVSPropertyOp30
 70
     1
102
RTVSPropertyOp31
 70
     1
102
RTVSPropertyOp32
 70
     1
102
RTVSPropertyOp33
 70
     1
102
RTVSPropertyOp34
 70
     1
102
RTVSPropertyOp35
 70
     1
102
RTVSPropertyOp36
 70
     1
102
RTVSPropertyOp37
 70
     1
102
RTVSPropertyOp38
 70
     1
102
RTVSPropertyOp39
 70
     1
102
RTVSPropertyOp40
 70
     1
102
RTVSPropertyOp41
 70
     1
102
RTVSPropertyOp42
 70
     1
102
RTVSPropertyOp43
 70
     1
102
RTVSPropertyOp44
 70
     1
102
RTVSPropertyOp45
 70
     1
102
RTVSPropertyOp46
 70
     1
102
RTVSPropertyOp47
 70
     1
102
RTVSPropertyOp48
 70
     1
102
RTVSPropertyOp49
 70
     1
102
RTVSPropertyOp50
 70
     1
102
RTVSPropertyOp51
 70
     0
102
RTVSPropertyOp52
 70
     0
102
RTVSPropertyOp53
 70
     1
102
RTVSPropertyOp54
 70
     1
102
RTVSPropertyOp55
 70
     1
102
RTVSPropertyOp56
 70
     1
102
RTVSPropertyOp57
 70
     1
102
RTVSPropertyOp58
 70
     1
102
RTVSPropertyOp59
 70
     1
102
RTVSPropertyOp60
 70
     1
102
RTVSPropertyOp61
 70
     1
102
RTVSPropertyOp62
 70
     1
  0
XRECORD
  5
199A
102
{ACAD_REACTORS
330
1999
102
}
330
1999
100
AcDbXrecord
280
     1
102
RTVSPost2010Prop28
280
     0
102
RTVSPost2010PropOp28
 70
     1
102
RTVSPost2010Prop29
280
     1
102
RTVSPost2010PropOp29
 70
     1
102
RTVSPost2010Prop30
280
     1
102
RTVSPost2010PropOp30
 70
     1
102
RTVSPost2010Prop31
280
     0
102
RTVSPost2010PropOp31
 70
     1
102
RTVSPost2010Prop32
280
     0
102
RTVSPost2010PropOp32
 70
     1
102
RTVSPost2010Prop33
280
     0
102
RTVSPost2010PropOp33
 70
     1
102
RTVSPost2010Prop34
280
     0
102
RTVSPost2010PropOp34
 70
     1
102
RTVSPost2010Prop35
280
     0
102
RTVSPost2010PropOp35
 70
     1
102
RTVSPost2010Prop36
280
     0
102
RTVSPost2010PropOp36
 70
     1
102
RTVSPost2010Prop37
 90
       50
102
RTVSPost2010PropOp37
 70
     1
102
RTVSPost2010Prop38
140
0.0
102
RTVSPost2010PropOp38
 70
     1
102
RTVSPost2010Prop39
140
1.0
102
RTVSPost2010PropOp39
 70
     1
102
RTVSPost2010Prop40
 90
        0
102
RTVSPost2010PropOp40
 70
     1
102
RTVSPost2010Prop41ColorIndex
 90
       18
102
RTVSPost2010Prop41ColorRGB
 90
        0
102
RTVSPost2010PropOp41
 70
     1
102
RTVSPost2010Prop42
 90
       50
102
RTVSPost2010PropOp42
 70
     1
102
RTVSPost2010Prop43
 90
        3
102
RTVSPost2010PropOp43
 70
     1
102
RTVSPost2010Prop44ColorIndex
 90
        5
102
RTVSPost2010Prop44ColorRGB
 90
      255
102
RTVSPost2010PropOp44
 70
     1
102
RTVSPost2010Prop45
280
     0
102
RTVSPost2010PropOp45
 70
     1
102
RTVSPost2010Prop46
 90
       50
102
RTVSPost2010PropOp46
 70
     1
102
RTVSPost2010Prop47
 90
       50
102
RTVSPost2010PropOp47
 70
     1
102
RTVSPost2010Prop48
 90
       50
102
RTVSPost2010PropOp48
 70
     1
102
RTVSPost2010Prop49
280
     0
102
RTVSPost2010PropOp49
 70
     1
102
RTVSPost2010Prop50
 90
       50
102
RTVSPost2010PropOp50
 70
     1
102
RTVSPost2010Prop51ColorIndex
 90
      256
102
RTVSPost2010Prop51ColorRGB
 90
-16777216
102
RTVSPost2010PropOp51
 70
     0
102
RTVSPost2010Prop52
140
1.0
102
RTVSPost2010PropOp52
 70
     0
102
RTVSPost2010Prop53
 90
        2
102
RTVSPost2010PropOp53
 70
     1
102
RTVSPost2010Prop54
  1
strokes_ogs.tif
102
RTVSPost2010PropOp54
 70
     1
102
RTVSPost2010Prop55
280
     0
102
RTVSPost2010PropOp55
 70
     1
102
RTVSPost2010Prop56
140
1.0
102
RTVSPost2010PropOp56
 70
     1
102
RTVSPost2010Prop57
140
1.0
102
RTVSPost2010PropOp57
 70
     1
102
RTVSPropertyOp0
 70
     1
102
RTVSPropertyOp1
 70
     1
102
RTVSPropertyOp2
 70
     1
102
RTVSPropertyOp3
 70
     1
102
RTVSPropertyOp4
 70
     1
102
RTVSPropertyOp5
 70
     1
102
RTVSPropertyOp6
 70
     1
102
RTVSPropertyOp7
 70
     1
102
RTVSPropertyOp8
 70
     1
102
RTVSPropertyOp9
 70
     1
102
RTVSPropertyOp10
 70
     1
102
RTVSPropertyOp11
 70
     1
102
RTVSPropertyOp12
 70
     1
102
RTVSPropertyOp13
 70
     1
102
RTVSPropertyOp14
 70
     1
102
RTVSPropertyOp15
 70
     1
102
RTVSPropertyOp16
 70
     1
102
RTVSPropertyOp17
 70
     1
102
RTVSPropertyOp18
 70
     1
102
RTVSPropertyOp19
 70
     1
102
RTVSPropertyOp20
 70
     1
102
RTVSPropertyOp21
 70
     1
102
RTVSPropertyOp22
 70
     1
102
RTVSPropertyOp23
 70
     1
102
RTVSPropertyOp24
 70
     1
102
RTVSPropertyOp25
 70
     1
102
RTVSPropertyOp26
 70
     1
102
RTVSPropertyOp27
 70
     1
102
RTVSPropertyOp28
 70
     1
102
RTVSPropertyOp29
 70
     1
102
RTVSPropertyOp30
 70
     1
102
RTVSPropertyOp31
 70
     1
102
RTVSPropertyOp32
 70
     1
102
RTVSPropertyOp33
 70
     1
102
RTVSPropertyOp34
 70
     1
102
RTVSPropertyOp35
 70
     1
102
RTVSPropertyOp36
 70
     1
102
RTVSPropertyOp37
 70
     1
102
RTVSPropertyOp38
 70
     1
102
RTVSPropertyOp39
 70
     1
102
RTVSPropertyOp40
 70
     1
102
RTVSPropertyOp41
 70
     1
102
RTVSPropertyOp42
 70
     1
102
RTVSPropertyOp43
 70
     1
102
RTVSPropertyOp44
 70
     1
102
RTVSPropertyOp45
 70
     1
102
RTVSPropertyOp46
 70
     1
102
RTVSPropertyOp47
 70
     1
102
RTVSPropertyOp48
 70
     1
102
RTVSPropertyOp49
 70
     1
102
RTVSPropertyOp50
 70
     1
102
RTVSPropertyOp51
 70
     0
102
RTVSPropertyOp52
 70
     0
102
RTVSPropertyOp53
 70
     1
102
RTVSPropertyOp54
 70
     1
102
RTVSPropertyOp55
 70
     1
102
RTVSPropertyOp56
 70
     1
102
RTVSPropertyOp57
 70
     1
102
RTVSPropertyOp58
 70
     1
102
RTVSPropertyOp59
 70
     1
102
RTVSPropertyOp60
 70
     1
102
RTVSPropertyOp61
 70
     1
102
RTVSPropertyOp62
 70
     1
  0
XRECORD
  5
19A2
102
{ACAD_REACTORS
330
19A1
102
}
330
19A1
100
AcDbXrecord
280
     1
102
RTVSPost2010Prop28
280
     0
102
RTVSPost2010PropOp28
 70
     1
102
RTVSPost2010Prop29
280
     1
102
RTVSPost2010PropOp29
 70
     1
102
RTVSPost2010Prop30
280
     1
102
RTVSPost2010PropOp30
 70
     1
102
RTVSPost2010Prop31
280
     0
102
RTVSPost2010PropOp31
 70
     1
102
RTVSPost2010Prop32
280
     0
102
RTVSPost2010PropOp32
 70
     1
102
RTVSPost2010Prop33
280
     0
102
RTVSPost2010PropOp33
 70
     1
102
RTVSPost2010Prop34
280
     0
102
RTVSPost2010PropOp34
 70
     1
102
RTVSPost2010Prop35
280
     0
102
RTVSPost2010PropOp35
 70
     1
102
RTVSPost2010Prop36
280
     0
102
RTVSPost2010PropOp36
 70
     1
102
RTVSPost2010Prop37
 90
       50
102
RTVSPost2010PropOp37
 70
     1
102
RTVSPost2010Prop38
140
0.0
102
RTVSPost2010PropOp38
 70
     1
102
RTVSPost2010Prop39
140
1.0
102
RTVSPost2010PropOp39
 70
     1
102
RTVSPost2010Prop40
 90
        0
102
RTVSPost2010PropOp40
 70
     1
102
RTVSPost2010Prop41ColorIndex
 90
       18
102
RTVSPost2010Prop41ColorRGB
 90
        0
102
RTVSPost2010PropOp41
 70
     1
102
RTVSPost2010Prop42
 90
       50
102
RTVSPost2010PropOp42
 70
     1
102
RTVSPost2010Prop43
 90
        3
102
RTVSPost2010PropOp43
 70
     1
102
RTVSPost2010Prop44ColorIndex
 90
        5
102
RTVSPost2010Prop44ColorRGB
 90
      255
102
RTVSPost2010PropOp44
 70
     1
102
RTVSPost2010Prop45
280
     0
102
RTVSPost2010PropOp45
 70
     1
102
RTVSPost2010Prop46
 90
       50
102
RTVSPost2010PropOp46
 70
     1
102
RTVSPost2010Prop47
 90
       50
102
RTVSPost2010PropOp47
 70
     1
102
RTVSPost2010Prop48
 90
       50
102
RTVSPost2010PropOp48
 70
     1
102
RTVSPost2010Prop49
280
     0
102
RTVSPost2010PropOp49
 70
     1
102
RTVSPost2010Prop50
 90
       50
102
RTVSPost2010PropOp50
 70
     1
102
RTVSPost2010Prop51ColorIndex
 90
      256
102
RTVSPost2010Prop51ColorRGB
 90
-16777216
102
RTVSPost2010PropOp51
 70
     0
102
RTVSPost2010Prop52
140
1.0
102
RTVSPost2010PropOp52
 70
     0
102
RTVSPost2010Prop53
 90
        2
102
RTVSPost2010PropOp53
 70
     1
102
RTVSPost2010Prop54
  1
strokes_ogs.tif
102
RTVSPost2010PropOp54
 70
     1
102
RTVSPost2010Prop55
280
     0
102
RTVSPost2010PropOp55
 70
     1
102
RTVSPost2010Prop56
140
1.0
102
RTVSPost2010PropOp56
 70
     1
102
RTVSPost2010Prop57
140
1.0
102
RTVSPost2010PropOp57
 70
     1
102
RTVSPropertyOp0
 70
     1
102
RTVSPropertyOp1
 70
     1
102
RTVSPropertyOp2
 70
     1
102
RTVSPropertyOp3
 70
     1
102
RTVSPropertyOp4
 70
     1
102
RTVSPropertyOp5
 70
     1
102
RTVSPropertyOp6
 70
     1
102
RTVSPropertyOp7
 70
     1
102
RTVSPropertyOp8
 70
     1
102
RTVSPropertyOp9
 70
     1
102
RTVSPropertyOp10
 70
     1
102
RTVSPropertyOp11
 70
     1
102
RTVSPropertyOp12
 70
     1
102
RTVSPropertyOp13
 70
     1
102
RTVSPropertyOp14
 70
     1
102
RTVSPropertyOp15
 70
     1
102
RTVSPropertyOp16
 70
     1
102
RTVSPropertyOp17
 70
     1
102
RTVSPropertyOp18
 70
     1
102
RTVSPropertyOp19
 70
     1
102
RTVSPropertyOp20
 70
     1
102
RTVSPropertyOp21
 70
     1
102
RTVSPropertyOp22
 70
     1
102
RTVSPropertyOp23
 70
     1
102
RTVSPropertyOp24
 70
     1
102
RTVSPropertyOp25
 70
     1
102
RTVSPropertyOp26
 70
     1
102
RTVSPropertyOp27
 70
     1
102
RTVSPropertyOp28
 70
     1
102
RTVSPropertyOp29
 70
     1
102
RTVSPropertyOp30
 70
     1
102
RTVSPropertyOp31
 70
     1
102
RTVSPropertyOp32
 70
     1
102
RTVSPropertyOp33
 70
     1
102
RTVSPropertyOp34
 70
     1
102
RTVSPropertyOp35
 70
     1
102
RTVSPropertyOp36
 70
     1
102
RTVSPropertyOp37
 70
     1
102
RTVSPropertyOp38
 70
     1
102
RTVSPropertyOp39
 70
     1
102
RTVSPropertyOp40
 70
     1
102
RTVSPropertyOp41
 70
     1
102
RTVSPropertyOp42
 70
     1
102
RTVSPropertyOp43
 70
     1
102
RTVSPropertyOp44
 70
     1
102
RTVSPropertyOp45
 70
     1
102
RTVSPropertyOp46
 70
     1
102
RTVSPropertyOp47
 70
     1
102
RTVSPropertyOp48
 70
     1
102
RTVSPropertyOp49
 70
     1
102
RTVSPropertyOp50
 70
     1
102
RTVSPropertyOp51
 70
     0
102
RTVSPropertyOp52
 70
     0
102
RTVSPropertyOp53
 70
     1
102
RTVSPropertyOp54
 70
     1
102
RTVSPropertyOp55
 70
     1
102
RTVSPropertyOp56
 70
     1
102
RTVSPropertyOp57
 70
     1
102
RTVSPropertyOp58
 70
     1
102
RTVSPropertyOp59
 70
     1
102
RTVSPropertyOp60
 70
     1
102
RTVSPropertyOp61
 70
     1
102
RTVSPropertyOp62
 70
     1
  0
XRECORD
  5
19BE
102
{ACAD_REACTORS
330
19BD
102
}
330
19BD
100
AcDbXrecord
280
     1
102
RTVSPost2010Prop28
280
     0
102
RTVSPost2010PropOp28
 70
     1
102
RTVSPost2010Prop29
280
     1
102
RTVSPost2010PropOp29
 70
     1
102
RTVSPost2010Prop30
280
     1
102
RTVSPost2010PropOp30
 70
     1
102
RTVSPost2010Prop31
280
     0
102
RTVSPost2010PropOp31
 70
     1
102
RTVSPost2010Prop32
280
     0
102
RTVSPost2010PropOp32
 70
     1
102
RTVSPost2010Prop33
280
     0
102
RTVSPost2010PropOp33
 70
     1
102
RTVSPost2010Prop34
280
     0
102
RTVSPost2010PropOp34
 70
     1
102
RTVSPost2010Prop35
280
     0
102
RTVSPost2010PropOp35
 70
     1
102
RTVSPost2010Prop36
280
     0
102
RTVSPost2010PropOp36
 70
     1
102
RTVSPost2010Prop37
 90
       50
102
RTVSPost2010PropOp37
 70
     0
102
RTVSPost2010Prop38
140
0.0
102
RTVSPost2010PropOp38
 70
     0
102
RTVSPost2010Prop39
140
1.0
102
RTVSPost2010PropOp39
 70
     0
102
RTVSPost2010Prop40
 90
        0
102
RTVSPost2010PropOp40
 70
     0
102
RTVSPost2010Prop41ColorIndex
 90
       18
102
RTVSPost2010Prop41ColorRGB
 90
        0
102
RTVSPost2010PropOp41
 70
     0
102
RTVSPost2010Prop42
 90
       50
102
RTVSPost2010PropOp42
 70
     0
102
RTVSPost2010Prop43
 90
        3
102
RTVSPost2010PropOp43
 70
     0
102
RTVSPost2010Prop44ColorIndex
 90
        5
102
RTVSPost2010Prop44ColorRGB
 90
      255
102
RTVSPost2010PropOp44
 70
     0
102
RTVSPost2010Prop45
280
     0
102
RTVSPost2010PropOp45
 70
     1
102
RTVSPost2010Prop46
 90
       50
102
RTVSPost2010PropOp46
 70
     0
102
RTVSPost2010Prop47
 90
       50
102
RTVSPost2010PropOp47
 70
     0
102
RTVSPost2010Prop48
 90
       50
102
RTVSPost2010PropOp48
 70
     0
102
RTVSPost2010Prop49
280
     0
102
RTVSPost2010PropOp49
 70
     1
102
RTVSPost2010Prop50
 90
       50
102
RTVSPost2010PropOp50
 70
     0
102
RTVSPost2010Prop51ColorIndex
 90
      256
102
RTVSPost2010Prop51ColorRGB
 90
-16777216
102
RTVSPost2010PropOp51
 70
     0
102
RTVSPost2010Prop52
140
1.0
102
RTVSPost2010PropOp52
 70
     0
102
RTVSPost2010Prop53
 90
        2
102
RTVSPost2010PropOp53
 70
     0
102
RTVSPost2010Prop54
  1
strokes_ogs.tif
102
RTVSPost2010PropOp54
 70
     0
102
RTVSPost2010Prop55
280
     0
102
RTVSPost2010PropOp55
 70
     1
102
RTVSPost2010Prop56
140
1.0
102
RTVSPost2010PropOp56
 70
     0
102
RTVSPost2010Prop57
140
1.0
102
RTVSPost2010PropOp57
 70
     0
102
RTVSPropertyOp0
 70
     0
102
RTVSPropertyOp1
 70
     0
102
RTVSPropertyOp2
 70
     0
102
RTVSPropertyOp3
 70
     0
102
RTVSPropertyOp4
 70
     0
102
RTVSPropertyOp5
 70
     0
102
RTVSPropertyOp6
 70
     0
102
RTVSPropertyOp7
 70
     0
102
RTVSPropertyOp8
 70
     0
102
RTVSPropertyOp9
 70
     0
102
RTVSPropertyOp10
 70
     0
102
RTVSPropertyOp11
 70
     0
102
RTVSPropertyOp12
 70
     0
102
RTVSPropertyOp13
 70
     0
102
RTVSPropertyOp14
 70
     2
102
RTVSPropertyOp15
 70
     0
102
RTVSPropertyOp16
 70
     0
102
RTVSPropertyOp17
 70
     0
102
RTVSPropertyOp18
 70
     0
102
RTVSPropertyOp19
 70
     0
102
RTVSPropertyOp20
 70
     0
102
RTVSPropertyOp21
 70
     0
102
RTVSPropertyOp22
 70
     0
102
RTVSPropertyOp23
 70
     0
102
RTVSPropertyOp24
 70
     0
102
RTVSPropertyOp25
 70
     0
102
RTVSPropertyOp26
 70
     0
102
RTVSPropertyOp27
 70
     0
102
RTVSPropertyOp28
 70
     1
102
RTVSPropertyOp29
 70
     1
102
RTVSPropertyOp30
 70
     1
102
RTVSPropertyOp31
 70
     1
102
RTVSPropertyOp32
 70
     1
102
RTVSPropertyOp33
 70
     1
102
RTVSPropertyOp34
 70
     1
102
RTVSPropertyOp35
 70
     1
102
RTVSPropertyOp36
 70
     1
102
RTVSPropertyOp37
 70
     0
102
RTVSPropertyOp38
 70
     0
102
RTVSPropertyOp39
 70
     0
102
RTVSPropertyOp40
 70
     0
102
RTVSPropertyOp41
 70
     0
102
RTVSPropertyOp42
 70
     0
102
RTVSPropertyOp43
 70
     0
102
RTVSPropertyOp44
 70
     0
102
RTVSPropertyOp45
 70
     1
102
RTVSPropertyOp46
 70
     0
102
RTVSPropertyOp47
 70
     0
102
RTVSPropertyOp48
 70
     0
102
RTVSPropertyOp49
 70
     1
102
RTVSPropertyOp50
 70
     0
102
RTVSPropertyOp51
 70
     0
102
RTVSPropertyOp52
 70
     0
102
RTVSPropertyOp53
 70
     0
102
RTVSPropertyOp54
 70
     0
102
RTVSPropertyOp55
 70
     1
102
RTVSPropertyOp56
 70
     0
102
RTVSPropertyOp57
 70
     0
102
RTVSPropertyOp58
 70
     1
102
RTVSPropertyOp59
 70
     1
102
RTVSPropertyOp60
 70
     1
102
RTVSPropertyOp61
 70
     1
102
RTVSPropertyOp62
 70
     1
  0
XRECORD
  5
19AE
102
{ACAD_REACTORS
330
19AD
102
}
330
19AD
100
AcDbXrecord
280
     1
102
RTVSPost2010Prop28
280
     0
102
RTVSPost2010PropOp28
 70
     1
102
RTVSPost2010Prop29
280
     1
102
RTVSPost2010PropOp29
 70
     1
102
RTVSPost2010Prop30
280
     1
102
RTVSPost2010PropOp30
 70
     1
102
RTVSPost2010Prop31
280
     0
102
RTVSPost2010PropOp31
 70
     1
102
RTVSPost2010Prop32
280
     0
102
RTVSPost2010PropOp32
 70
     1
102
RTVSPost2010Prop33
280
     0
102
RTVSPost2010PropOp33
 70
     1
102
RTVSPost2010Prop34
280
     0
102
RTVSPost2010PropOp34
 70
     1
102
RTVSPost2010Prop35
280
     0
102
RTVSPost2010PropOp35
 70
     1
102
RTVSPost2010Prop36
280
     0
102
RTVSPost2010PropOp36
 70
     1
102
RTVSPost2010Prop37
 90
       50
102
RTVSPost2010PropOp37
 70
     1
102
RTVSPost2010Prop38
140
0.0
102
RTVSPost2010PropOp38
 70
     1
102
RTVSPost2010Prop39
140
1.0
102
RTVSPost2010PropOp39
 70
     1
102
RTVSPost2010Prop40
 90
        0
102
RTVSPost2010PropOp40
 70
     1
102
RTVSPost2010Prop41ColorIndex
 90
       18
102
RTVSPost2010Prop41ColorRGB
 90
        0
102
RTVSPost2010PropOp41
 70
     1
102
RTVSPost2010Prop42
 90
       50
102
RTVSPost2010PropOp42
 70
     1
102
RTVSPost2010Prop43
 90
        3
102
RTVSPost2010PropOp43
 70
     1
102
RTVSPost2010Prop44ColorIndex
 90
        5
102
RTVSPost2010Prop44ColorRGB
 90
      255
102
RTVSPost2010PropOp44
 70
     1
102
RTVSPost2010Prop45
280
     0
102
RTVSPost2010PropOp45
 70
     1
102
RTVSPost2010Prop46
 90
       50
102
RTVSPost2010PropOp46
 70
     1
102
RTVSPost2010Prop47
 90
       50
102
RTVSPost2010PropOp47
 70
     1
102
RTVSPost2010Prop48
 90
       50
102
RTVSPost2010PropOp48
 70
     1
102
RTVSPost2010Prop49
280
     0
102
RTVSPost2010PropOp49
 70
     1
102
RTVSPost2010Prop50
 90
       50
102
RTVSPost2010PropOp50
 70
     1
102
RTVSPost2010Prop51ColorIndex
 90
      256
102
RTVSPost2010Prop51ColorRGB
 90
-16777216
102
RTVSPost2010PropOp51
 70
     0
102
RTVSPost2010Prop52
140
1.0
102
RTVSPost2010PropOp52
 70
     0
102
RTVSPost2010Prop53
 90
        2
102
RTVSPost2010PropOp53
 70
     1
102
RTVSPost2010Prop54
  1
strokes_ogs.tif
102
RTVSPost2010PropOp54
 70
     1
102
RTVSPost2010Prop55
280
     0
102
RTVSPost2010PropOp55
 70
     1
102
RTVSPost2010Prop56
140
1.0
102
RTVSPost2010PropOp56
 70
     1
102
RTVSPost2010Prop57
140
1.0
102
RTVSPost2010PropOp57
 70
     1
102
RTVSPropertyOp0
 70
     1
102
RTVSPropertyOp1
 70
     1
102
RTVSPropertyOp2
 70
     1
102
RTVSPropertyOp3
 70
     1
102
RTVSPropertyOp4
 70
     1
102
RTVSPropertyOp5
 70
     1
102
RTVSPropertyOp6
 70
     1
102
RTVSPropertyOp7
 70
     1
102
RTVSPropertyOp8
 70
     1
102
RTVSPropertyOp9
 70
     1
102
RTVSPropertyOp10
 70
     1
102
RTVSPropertyOp11
 70
     1
102
RTVSPropertyOp12
 70
     1
102
RTVSPropertyOp13
 70
     1
102
RTVSPropertyOp14
 70
     1
102
RTVSPropertyOp15
 70
     1
102
RTVSPropertyOp16
 70
     1
102
RTVSPropertyOp17
 70
     1
102
RTVSPropertyOp18
 70
     1
102
RTVSPropertyOp19
 70
     1
102
RTVSPropertyOp20
 70
     1
102
RTVSPropertyOp21
 70
     1
102
RTVSPropertyOp22
 70
     1
102
RTVSPropertyOp23
 70
     1
102
RTVSPropertyOp24
 70
     1
102
RTVSPropertyOp25
 70
     1
102
RTVSPropertyOp26
 70
     1
102
RTVSPropertyOp27
 70
     1
102
RTVSPropertyOp28
 70
     1
102
RTVSPropertyOp29
 70
     1
102
RTVSPropertyOp30
 70
     1
102
RTVSPropertyOp31
 70
     1
102
RTVSPropertyOp32
 70
     1
102
RTVSPropertyOp33
 70
     1
102
RTVSPropertyOp34
 70
     1
102
RTVSPropertyOp35
 70
     1
102
RTVSPropertyOp36
 70
     1
102
RTVSPropertyOp37
 70
     1
102
RTVSPropertyOp38
 70
     1
102
RTVSPropertyOp39
 70
     1
102
RTVSPropertyOp40
 70
     1
102
RTVSPropertyOp41
 70
     1
102
RTVSPropertyOp42
 70
     1
102
RTVSPropertyOp43
 70
     1
102
RTVSPropertyOp44
 70
     1
102
RTVSPropertyOp45
 70
     1
102
RTVSPropertyOp46
 70
     1
102
RTVSPropertyOp47
 70
     1
102
RTVSPropertyOp48
 70
     1
102
RTVSPropertyOp49
 70
     1
102
RTVSPropertyOp50
 70
     1
102
RTVSPropertyOp51
 70
     0
102
RTVSPropertyOp52
 70
     0
102
RTVSPropertyOp53
 70
     1
102
RTVSPropertyOp54
 70
     1
102
RTVSPropertyOp55
 70
     1
102
RTVSPropertyOp56
 70
     1
102
RTVSPropertyOp57
 70
     1
102
RTVSPropertyOp58
 70
     1
102
RTVSPropertyOp59
 70
     1
102
RTVSPropertyOp60
 70
     1
102
RTVSPropertyOp61
 70
     1
102
RTVSPropertyOp62
 70
     1
  0
XRECORD
  5
19C0
102
{ACAD_REACTORS
330
19BF
102
}
330
19BF
100
AcDbXrecord
280
     1
102
RTVSPost2010Prop28
280
     0
102
RTVSPost2010PropOp28
 70
     1
102
RTVSPost2010Prop29
280
     1
102
RTVSPost2010PropOp29
 70
     1
102
RTVSPost2010Prop30
280
     1
102
RTVSPost2010PropOp30
 70
     1
102
RTVSPost2010Prop31
280
     0
102
RTVSPost2010PropOp31
 70
     1
102
RTVSPost2010Prop32
280
     0
102
RTVSPost2010PropOp32
 70
     1
102
RTVSPost2010Prop33
280
     0
102
RTVSPost2010PropOp33
 70
     1
102
RTVSPost2010Prop34
280
     0
102
RTVSPost2010PropOp34
 70
     1
102
RTVSPost2010Prop35
280
     0
102
RTVSPost2010PropOp35
 70
     1
102
RTVSPost2010Prop36
280
     0
102
RTVSPost2010PropOp36
 70
     1
102
RTVSPost2010Prop37
 90
       50
102
RTVSPost2010PropOp37
 70
     0
102
RTVSPost2010Prop38
140
0.0
102
RTVSPost2010PropOp38
 70
     0
102
RTVSPost2010Prop39
140
1.0
102
RTVSPost2010PropOp39
 70
     0
102
RTVSPost2010Prop40
 90
        0
102
RTVSPost2010PropOp40
 70
     0
102
RTVSPost2010Prop41ColorIndex
 90
       18
102
RTVSPost2010Prop41ColorRGB
 90
        0
102
RTVSPost2010PropOp41
 70
     0
102
RTVSPost2010Prop42
 90
       50
102
RTVSPost2010PropOp42
 70
     0
102
RTVSPost2010Prop43
 90
        3
102
RTVSPost2010PropOp43
 70
     0
102
RTVSPost2010Prop44ColorIndex
 90
        5
102
RTVSPost2010Prop44ColorRGB
 90
      255
102
RTVSPost2010PropOp44
 70
     0
102
RTVSPost2010Prop45
280
     0
102
RTVSPost2010PropOp45
 70
     1
102
RTVSPost2010Prop46
 90
       50
102
RTVSPost2010PropOp46
 70
     0
102
RTVSPost2010Prop47
 90
       50
102
RTVSPost2010PropOp47
 70
     0
102
RTVSPost2010Prop48
 90
       50
102
RTVSPost2010PropOp48
 70
     0
102
RTVSPost2010Prop49
280
     0
102
RTVSPost2010PropOp49
 70
     1
102
RTVSPost2010Prop50
 90
       50
102
RTVSPost2010PropOp50
 70
     0
102
RTVSPost2010Prop51ColorIndex
 90
      256
102
RTVSPost2010Prop51ColorRGB
 90
-16777216
102
RTVSPost2010PropOp51
 70
     0
102
RTVSPost2010Prop52
140
1.0
102
RTVSPost2010PropOp52
 70
     0
102
RTVSPost2010Prop53
 90
        2
102
RTVSPost2010PropOp53
 70
     0
102
RTVSPost2010Prop54
  1
strokes_ogs.tif
102
RTVSPost2010PropOp54
 70
     0
102
RTVSPost2010Prop55
280
     0
102
RTVSPost2010PropOp55
 70
     1
102
RTVSPost2010Prop56
140
1.0
102
RTVSPost2010PropOp56
 70
     0
102
RTVSPost2010Prop57
140
1.0
102
RTVSPost2010PropOp57
 70
     0
102
RTVSPropertyOp0
 70
     0
102
RTVSPropertyOp1
 70
     0
102
RTVSPropertyOp2
 70
     0
102
RTVSPropertyOp3
 70
     0
102
RTVSPropertyOp4
 70
     0
102
RTVSPropertyOp5
 70
     0
102
RTVSPropertyOp6
 70
     0
102
RTVSPropertyOp7
 70
     0
102
RTVSPropertyOp8
 70
     0
102
RTVSPropertyOp9
 70
     0
102
RTVSPropertyOp10
 70
     0
102
RTVSPropertyOp11
 70
     0
102
RTVSPropertyOp12
 70
     0
102
RTVSPropertyOp13
 70
     0
102
RTVSPropertyOp14
 70
     2
102
RTVSPropertyOp15
 70
     0
102
RTVSPropertyOp16
 70
     0
102
RTVSPropertyOp17
 70
     0
102
RTVSPropertyOp18
 70
     0
102
RTVSPropertyOp19
 70
     0
102
RTVSPropertyOp20
 70
     0
102
RTVSPropertyOp21
 70
     0
102
RTVSPropertyOp22
 70
     0
102
RTVSPropertyOp23
 70
     0
102
RTVSPropertyOp24
 70
     0
102
RTVSPropertyOp25
 70
     0
102
RTVSPropertyOp26
 70
     0
102
RTVSPropertyOp27
 70
     0
102
RTVSPropertyOp28
 70
     1
102
RTVSPropertyOp29
 70
     1
102
RTVSPropertyOp30
 70
     1
102
RTVSPropertyOp31
 70
     1
102
RTVSPropertyOp32
 70
     1
102
RTVSPropertyOp33
 70
     1
102
RTVSPropertyOp34
 70
     1
102
RTVSPropertyOp35
 70
     1
102
RTVSPropertyOp36
 70
     1
102
RTVSPropertyOp37
 70
     0
102
RTVSPropertyOp38
 70
     0
102
RTVSPropertyOp39
 70
     0
102
RTVSPropertyOp40
 70
     0
102
RTVSPropertyOp41
 70
     0
102
RTVSPropertyOp42
 70
     0
102
RTVSPropertyOp43
 70
     0
102
RTVSPropertyOp44
 70
     0
102
RTVSPropertyOp45
 70
     1
102
RTVSPropertyOp46
 70
     0
102
RTVSPropertyOp47
 70
     0
102
RTVSPropertyOp48
 70
     0
102
RTVSPropertyOp49
 70
     1
102
RTVSPropertyOp50
 70
     0
102
RTVSPropertyOp51
 70
     0
102
RTVSPropertyOp52
 70
     0
102
RTVSPropertyOp53
 70
     0
102
RTVSPropertyOp54
 70
     0
102
RTVSPropertyOp55
 70
     1
102
RTVSPropertyOp56
 70
     0
102
RTVSPropertyOp57
 70
     0
102
RTVSPropertyOp58
 70
     1
102
RTVSPropertyOp59
 70
     1
102
RTVSPropertyOp60
 70
     1
102
RTVSPropertyOp61
 70
     1
102
RTVSPropertyOp62
 70
     1
  0
XRECORD
  5
19A6
102
{ACAD_REACTORS
330
19A5
102
}
330
19A5
100
AcDbXrecord
280
     1
102
RTVSPost2010Prop28
280
     0
102
RTVSPost2010PropOp28
 70
     1
102
RTVSPost2010Prop29
280
     1
102
RTVSPost2010PropOp29
 70
     1
102
RTVSPost2010Prop30
280
     1
102
RTVSPost2010PropOp30
 70
     1
102
RTVSPost2010Prop31
280
     0
102
RTVSPost2010PropOp31
 70
     1
102
RTVSPost2010Prop32
280
     0
102
RTVSPost2010PropOp32
 70
     1
102
RTVSPost2010Prop33
280
     0
102
RTVSPost2010PropOp33
 70
     1
102
RTVSPost2010Prop34
280
     0
102
RTVSPost2010PropOp34
 70
     1
102
RTVSPost2010Prop35
280
     0
102
RTVSPost2010PropOp35
 70
     1
102
RTVSPost2010Prop36
280
     0
102
RTVSPost2010PropOp36
 70
     1
102
RTVSPost2010Prop37
 90
       50
102
RTVSPost2010PropOp37
 70
     1
102
RTVSPost2010Prop38
140
0.0
102
RTVSPost2010PropOp38
 70
     1
102
RTVSPost2010Prop39
140
1.0
102
RTVSPost2010PropOp39
 70
     1
102
RTVSPost2010Prop40
 90
        0
102
RTVSPost2010PropOp40
 70
     1
102
RTVSPost2010Prop41ColorIndex
 90
       18
102
RTVSPost2010Prop41ColorRGB
 90
        0
102
RTVSPost2010PropOp41
 70
     1
102
RTVSPost2010Prop42
 90
       50
102
RTVSPost2010PropOp42
 70
     1
102
RTVSPost2010Prop43
 90
        3
102
RTVSPost2010PropOp43
 70
     1
102
RTVSPost2010Prop44ColorIndex
 90
        5
102
RTVSPost2010Prop44ColorRGB
 90
      255
102
RTVSPost2010PropOp44
 70
     1
102
RTVSPost2010Prop45
280
     0
102
RTVSPost2010PropOp45
 70
     1
102
RTVSPost2010Prop46
 90
       50
102
RTVSPost2010PropOp46
 70
     1
102
RTVSPost2010Prop47
 90
       50
102
RTVSPost2010PropOp47
 70
     1
102
RTVSPost2010Prop48
 90
       50
102
RTVSPost2010PropOp48
 70
     1
102
RTVSPost2010Prop49
280
     0
102
RTVSPost2010PropOp49
 70
     1
102
RTVSPost2010Prop50
 90
       50
102
RTVSPost2010PropOp50
 70
     1
102
RTVSPost2010Prop51ColorIndex
 90
      256
102
RTVSPost2010Prop51ColorRGB
 90
-16777216
102
RTVSPost2010PropOp51
 70
     0
102
RTVSPost2010Prop52
140
1.0
102
RTVSPost2010PropOp52
 70
     0
102
RTVSPost2010Prop53
 90
        2
102
RTVSPost2010PropOp53
 70
     1
102
RTVSPost2010Prop54
  1
strokes_ogs.tif
102
RTVSPost2010PropOp54
 70
     1
102
RTVSPost2010Prop55
280
     0
102
RTVSPost2010PropOp55
 70
     1
102
RTVSPost2010Prop56
140
1.0
102
RTVSPost2010PropOp56
 70
     1
102
RTVSPost2010Prop57
140
1.0
102
RTVSPost2010PropOp57
 70
     1
102
RTVSPropertyOp0
 70
     1
102
RTVSPropertyOp1
 70
     1
102
RTVSPropertyOp2
 70
     1
102
RTVSPropertyOp3
 70
     1
102
RTVSPropertyOp4
 70
     1
102
RTVSPropertyOp5
 70
     1
102
RTVSPropertyOp6
 70
     1
102
RTVSPropertyOp7
 70
     1
102
RTVSPropertyOp8
 70
     1
102
RTVSPropertyOp9
 70
     1
102
RTVSPropertyOp10
 70
     1
102
RTVSPropertyOp11
 70
     1
102
RTVSPropertyOp12
 70
     1
102
RTVSPropertyOp13
 70
     1
102
RTVSPropertyOp14
 70
     1
102
RTVSPropertyOp15
 70
     1
102
RTVSPropertyOp16
 70
     1
102
RTVSPropertyOp17
 70
     1
102
RTVSPropertyOp18
 70
     1
102
RTVSPropertyOp19
 70
     1
102
RTVSPropertyOp20
 70
     1
102
RTVSPropertyOp21
 70
     1
102
RTVSPropertyOp22
 70
     1
102
RTVSPropertyOp23
 70
     1
102
RTVSPropertyOp24
 70
     1
102
RTVSPropertyOp25
 70
     1
102
RTVSPropertyOp26
 70
     1
102
RTVSPropertyOp27
 70
     1
102
RTVSPropertyOp28
 70
     1
102
RTVSPropertyOp29
 70
     1
102
RTVSPropertyOp30
 70
     1
102
RTVSPropertyOp31
 70
     1
102
RTVSPropertyOp32
 70
     1
102
RTVSPropertyOp33
 70
     1
102
RTVSPropertyOp34
 70
     1
102
RTVSPropertyOp35
 70
     1
102
RTVSPropertyOp36
 70
     1
102
RTVSPropertyOp37
 70
     1
102
RTVSPropertyOp38
 70
     1
102
RTVSPropertyOp39
 70
     1
102
RTVSPropertyOp40
 70
     1
102
RTVSPropertyOp41
 70
     1
102
RTVSPropertyOp42
 70
     1
102
RTVSPropertyOp43
 70
     1
102
RTVSPropertyOp44
 70
     1
102
RTVSPropertyOp45
 70
     1
102
RTVSPropertyOp46
 70
     1
102
RTVSPropertyOp47
 70
     1
102
RTVSPropertyOp48
 70
     1
102
RTVSPropertyOp49
 70
     1
102
RTVSPropertyOp50
 70
     1
102
RTVSPropertyOp51
 70
     0
102
RTVSPropertyOp52
 70
     0
102
RTVSPropertyOp53
 70
     1
102
RTVSPropertyOp54
 70
     1
102
RTVSPropertyOp55
 70
     1
102
RTVSPropertyOp56
 70
     1
102
RTVSPropertyOp57
 70
     1
102
RTVSPropertyOp58
 70
     1
102
RTVSPropertyOp59
 70
     1
102
RTVSPropertyOp60
 70
     1
102
RTVSPropertyOp61
 70
     1
102
RTVSPropertyOp62
 70
     1
  0
XRECORD
  5
19BC
102
{ACAD_REACTORS
330
19BB
102
}
330
19BB
100
AcDbXrecord
280
     1
102
RTVSPost2010Prop28
280
     0
102
RTVSPost2010PropOp28
 70
     1
102
RTVSPost2010Prop29
280
     1
102
RTVSPost2010PropOp29
 70
     1
102
RTVSPost2010Prop30
280
     1
102
RTVSPost2010PropOp30
 70
     1
102
RTVSPost2010Prop31
280
     0
102
RTVSPost2010PropOp31
 70
     1
102
RTVSPost2010Prop32
280
     0
102
RTVSPost2010PropOp32
 70
     1
102
RTVSPost2010Prop33
280
     0
102
RTVSPost2010PropOp33
 70
     1
102
RTVSPost2010Prop34
280
     0
102
RTVSPost2010PropOp34
 70
     1
102
RTVSPost2010Prop35
280
     0
102
RTVSPost2010PropOp35
 70
     1
102
RTVSPost2010Prop36
280
     0
102
RTVSPost2010PropOp36
 70
     1
102
RTVSPost2010Prop37
 90
       50
102
RTVSPost2010PropOp37
 70
     1
102
RTVSPost2010Prop38
140
0.0
102
RTVSPost2010PropOp38
 70
     1
102
RTVSPost2010Prop39
140
1.0
102
RTVSPost2010PropOp39
 70
     1
102
RTVSPost2010Prop40
 90
        0
102
RTVSPost2010PropOp40
 70
     1
102
RTVSPost2010Prop41ColorIndex
 90
       18
102
RTVSPost2010Prop41ColorRGB
 90
        0
102
RTVSPost2010PropOp41
 70
     1
102
RTVSPost2010Prop42
 90
       50
102
RTVSPost2010PropOp42
 70
     1
102
RTVSPost2010Prop43
 90
        3
102
RTVSPost2010PropOp43
 70
     1
102
RTVSPost2010Prop44ColorIndex
 90
        5
102
RTVSPost2010Prop44ColorRGB
 90
      255
102
RTVSPost2010PropOp44
 70
     1
102
RTVSPost2010Prop45
280
     0
102
RTVSPost2010PropOp45
 70
     1
102
RTVSPost2010Prop46
 90
       50
102
RTVSPost2010PropOp46
 70
     1
102
RTVSPost2010Prop47
 90
       50
102
RTVSPost2010PropOp47
 70
     1
102
RTVSPost2010Prop48
 90
       50
102
RTVSPost2010PropOp48
 70
     1
102
RTVSPost2010Prop49
280
     0
102
RTVSPost2010PropOp49
 70
     1
102
RTVSPost2010Prop50
 90
       50
102
RTVSPost2010PropOp50
 70
     1
102
RTVSPost2010Prop51ColorIndex
 90
      256
102
RTVSPost2010Prop51ColorRGB
 90
-16777216
102
RTVSPost2010PropOp51
 70
     0
102
RTVSPost2010Prop52
140
1.0
102
RTVSPost2010PropOp52
 70
     0
102
RTVSPost2010Prop53
 90
        2
102
RTVSPost2010PropOp53
 70
     1
102
RTVSPost2010Prop54
  1
strokes_ogs.tif
102
RTVSPost2010PropOp54
 70
     1
102
RTVSPost2010Prop55
280
     0
102
RTVSPost2010PropOp55
 70
     1
102
RTVSPost2010Prop56
140
1.0
102
RTVSPost2010PropOp56
 70
     1
102
RTVSPost2010Prop57
140
1.0
102
RTVSPost2010PropOp57
 70
     1
102
RTVSPropertyOp0
 70
     1
102
RTVSPropertyOp1
 70
     1
102
RTVSPropertyOp2
 70
     1
102
RTVSPropertyOp3
 70
     1
102
RTVSPropertyOp4
 70
     1
102
RTVSPropertyOp5
 70
     1
102
RTVSPropertyOp6
 70
     1
102
RTVSPropertyOp7
 70
     1
102
RTVSPropertyOp8
 70
     1
102
RTVSPropertyOp9
 70
     1
102
RTVSPropertyOp10
 70
     1
102
RTVSPropertyOp11
 70
     1
102
RTVSPropertyOp12
 70
     1
102
RTVSPropertyOp13
 70
     1
102
RTVSPropertyOp14
 70
     1
102
RTVSPropertyOp15
 70
     1
102
RTVSPropertyOp16
 70
     1
102
RTVSPropertyOp17
 70
     1
102
RTVSPropertyOp18
 70
     1
102
RTVSPropertyOp19
 70
     1
102
RTVSPropertyOp20
 70
     1
102
RTVSPropertyOp21
 70
     1
102
RTVSPropertyOp22
 70
     1
102
RTVSPropertyOp23
 70
     1
102
RTVSPropertyOp24
 70
     1
102
RTVSPropertyOp25
 70
     1
102
RTVSPropertyOp26
 70
     1
102
RTVSPropertyOp27
 70
     1
102
RTVSPropertyOp28
 70
     1
102
RTVSPropertyOp29
 70
     1
102
RTVSPropertyOp30
 70
     1
102
RTVSPropertyOp31
 70
     1
102
RTVSPropertyOp32
 70
     1
102
RTVSPropertyOp33
 70
     1
102
RTVSPropertyOp34
 70
     1
102
RTVSPropertyOp35
 70
     1
102
RTVSPropertyOp36
 70
     1
102
RTVSPropertyOp37
 70
     1
102
RTVSPropertyOp38
 70
     1
102
RTVSPropertyOp39
 70
     1
102
RTVSPropertyOp40
 70
     1
102
RTVSPropertyOp41
 70
     1
102
RTVSPropertyOp42
 70
     1
102
RTVSPropertyOp43
 70
     1
102
RTVSPropertyOp44
 70
     1
102
RTVSPropertyOp45
 70
     1
102
RTVSPropertyOp46
 70
     1
102
RTVSPropertyOp47
 70
     1
102
RTVSPropertyOp48
 70
     1
102
RTVSPropertyOp49
 70
     1
102
RTVSPropertyOp50
 70
     1
102
RTVSPropertyOp51
 70
     0
102
RTVSPropertyOp52
 70
     0
102
RTVSPropertyOp53
 70
     1
102
RTVSPropertyOp54
 70
     1
102
RTVSPropertyOp55
 70
     1
102
RTVSPropertyOp56
 70
     1
102
RTVSPropertyOp57
 70
     1
102
RTVSPropertyOp58
 70
     1
102
RTVSPropertyOp59
 70
     1
102
RTVSPropertyOp60
 70
     1
102
RTVSPropertyOp61
 70
     1
102
RTVSPropertyOp62
 70
     1
  0
XRECORD
  5
19BA
102
{ACAD_REACTORS
330
19B9
102
}
330
19B9
100
AcDbXrecord
280
     1
102
RTVSPost2010Prop28
280
     0
102
RTVSPost2010PropOp28
 70
     1
102
RTVSPost2010Prop29
280
     1
102
RTVSPost2010PropOp29
 70
     1
102
RTVSPost2010Prop30
280
     1
102
RTVSPost2010PropOp30
 70
     1
102
RTVSPost2010Prop31
280
     0
102
RTVSPost2010PropOp31
 70
     1
102
RTVSPost2010Prop32
280
     0
102
RTVSPost2010PropOp32
 70
     1
102
RTVSPost2010Prop33
280
     0
102
RTVSPost2010PropOp33
 70
     1
102
RTVSPost2010Prop34
280
     0
102
RTVSPost2010PropOp34
 70
     1
102
RTVSPost2010Prop35
280
     0
102
RTVSPost2010PropOp35
 70
     1
102
RTVSPost2010Prop36
280
     0
102
RTVSPost2010PropOp36
 70
     1
102
RTVSPost2010Prop37
 90
       50
102
RTVSPost2010PropOp37
 70
     1
102
RTVSPost2010Prop38
140
0.0
102
RTVSPost2010PropOp38
 70
     1
102
RTVSPost2010Prop39
140
1.0
102
RTVSPost2010PropOp39
 70
     1
102
RTVSPost2010Prop40
 90
        0
102
RTVSPost2010PropOp40
 70
     1
102
RTVSPost2010Prop41ColorIndex
 90
       18
102
RTVSPost2010Prop41ColorRGB
 90
        0
102
RTVSPost2010PropOp41
 70
     1
102
RTVSPost2010Prop42
 90
       50
102
RTVSPost2010PropOp42
 70
     1
102
RTVSPost2010Prop43
 90
        3
102
RTVSPost2010PropOp43
 70
     1
102
RTVSPost2010Prop44ColorIndex
 90
        5
102
RTVSPost2010Prop44ColorRGB
 90
      255
102
RTVSPost2010PropOp44
 70
     1
102
RTVSPost2010Prop45
280
     0
102
RTVSPost2010PropOp45
 70
     1
102
RTVSPost2010Prop46
 90
       50
102
RTVSPost2010PropOp46
 70
     1
102
RTVSPost2010Prop47
 90
       50
102
RTVSPost2010PropOp47
 70
     1
102
RTVSPost2010Prop48
 90
       50
102
RTVSPost2010PropOp48
 70
     1
102
RTVSPost2010Prop49
280
     0
102
RTVSPost2010PropOp49
 70
     1
102
RTVSPost2010Prop50
 90
       50
102
RTVSPost2010PropOp50
 70
     1
102
RTVSPost2010Prop51ColorIndex
 90
      256
102
RTVSPost2010Prop51ColorRGB
 90
-16777216
102
RTVSPost2010PropOp51
 70
     0
102
RTVSPost2010Prop52
140
1.0
102
RTVSPost2010PropOp52
 70
     0
102
RTVSPost2010Prop53
 90
        2
102
RTVSPost2010PropOp53
 70
     1
102
RTVSPost2010Prop54
  1
strokes_ogs.tif
102
RTVSPost2010PropOp54
 70
     1
102
RTVSPost2010Prop55
280
     0
102
RTVSPost2010PropOp55
 70
     1
102
RTVSPost2010Prop56
140
1.0
102
RTVSPost2010PropOp56
 70
     1
102
RTVSPost2010Prop57
140
1.0
102
RTVSPost2010PropOp57
 70
     1
102
RTVSPropertyOp0
 70
     1
102
RTVSPropertyOp1
 70
     1
102
RTVSPropertyOp2
 70
     1
102
RTVSPropertyOp3
 70
     1
102
RTVSPropertyOp4
 70
     1
102
RTVSPropertyOp5
 70
     1
102
RTVSPropertyOp6
 70
     1
102
RTVSPropertyOp7
 70
     1
102
RTVSPropertyOp8
 70
     1
102
RTVSPropertyOp9
 70
     1
102
RTVSPropertyOp10
 70
     1
102
RTVSPropertyOp11
 70
     1
102
RTVSPropertyOp12
 70
     1
102
RTVSPropertyOp13
 70
     1
102
RTVSPropertyOp14
 70
     1
102
RTVSPropertyOp15
 70
     1
102
RTVSPropertyOp16
 70
     1
102
RTVSPropertyOp17
 70
     1
102
RTVSPropertyOp18
 70
     1
102
RTVSPropertyOp19
 70
     1
102
RTVSPropertyOp20
 70
     1
102
RTVSPropertyOp21
 70
     1
102
RTVSPropertyOp22
 70
     1
102
RTVSPropertyOp23
 70
     1
102
RTVSPropertyOp24
 70
     1
102
RTVSPropertyOp25
 70
     1
102
RTVSPropertyOp26
 70
     1
102
RTVSPropertyOp27
 70
     1
102
RTVSPropertyOp28
 70
     1
102
RTVSPropertyOp29
 70
     1
102
RTVSPropertyOp30
 70
     1
102
RTVSPropertyOp31
 70
     1
102
RTVSPropertyOp32
 70
     1
102
RTVSPropertyOp33
 70
     1
102
RTVSPropertyOp34
 70
     1
102
RTVSPropertyOp35
 70
     1
102
RTVSPropertyOp36
 70
     1
102
RTVSPropertyOp37
 70
     1
102
RTVSPropertyOp38
 70
     1
102
RTVSPropertyOp39
 70
     1
102
RTVSPropertyOp40
 70
     1
102
RTVSPropertyOp41
 70
     1
102
RTVSPropertyOp42
 70
     1
102
RTVSPropertyOp43
 70
     1
102
RTVSPropertyOp44
 70
     1
102
RTVSPropertyOp45
 70
     1
102
RTVSPropertyOp46
 70
     1
102
RTVSPropertyOp47
 70
     1
102
RTVSPropertyOp48
 70
     1
102
RTVSPropertyOp49
 70
     1
102
RTVSPropertyOp50
 70
     1
102
RTVSPropertyOp51
 70
     0
102
RTVSPropertyOp52
 70
     0
102
RTVSPropertyOp53
 70
     1
102
RTVSPropertyOp54
 70
     1
102
RTVSPropertyOp55
 70
     1
102
RTVSPropertyOp56
 70
     1
102
RTVSPropertyOp57
 70
     1
102
RTVSPropertyOp58
 70
     1
102
RTVSPropertyOp59
 70
     1
102
RTVSPropertyOp60
 70
     1
102
RTVSPropertyOp61
 70
     1
102
RTVSPropertyOp62
 70
     1
  0
XRECORD
  5
19B4
102
{ACAD_REACTORS
330
19B3
102
}
330
19B3
100
AcDbXrecord
280
     1
102
RTVSPost2010Prop28
280
     0
102
RTVSPost2010PropOp28
 70
     1
102
RTVSPost2010Prop29
280
     1
102
RTVSPost2010PropOp29
 70
     1
102
RTVSPost2010Prop30
280
     1
102
RTVSPost2010PropOp30
 70
     1
102
RTVSPost2010Prop31
280
     0
102
RTVSPost2010PropOp31
 70
     1
102
RTVSPost2010Prop32
280
     0
102
RTVSPost2010PropOp32
 70
     1
102
RTVSPost2010Prop33
280
     0
102
RTVSPost2010PropOp33
 70
     1
102
RTVSPost2010Prop34
280
     0
102
RTVSPost2010PropOp34
 70
     1
102
RTVSPost2010Prop35
280
     0
102
RTVSPost2010PropOp35
 70
     1
102
RTVSPost2010Prop36
280
     0
102
RTVSPost2010PropOp36
 70
     1
102
RTVSPost2010Prop37
 90
       50
102
RTVSPost2010PropOp37
 70
     1
102
RTVSPost2010Prop38
140
0.0
102
RTVSPost2010PropOp38
 70
     1
102
RTVSPost2010Prop39
140
1.0
102
RTVSPost2010PropOp39
 70
     1
102
RTVSPost2010Prop40
 90
        0
102
RTVSPost2010PropOp40
 70
     1
102
RTVSPost2010Prop41ColorIndex
 90
       18
102
RTVSPost2010Prop41ColorRGB
 90
        0
102
RTVSPost2010PropOp41
 70
     1
102
RTVSPost2010Prop42
 90
       50
102
RTVSPost2010PropOp42
 70
     1
102
RTVSPost2010Prop43
 90
        3
102
RTVSPost2010PropOp43
 70
     1
102
RTVSPost2010Prop44ColorIndex
 90
        5
102
RTVSPost2010Prop44ColorRGB
 90
      255
102
RTVSPost2010PropOp44
 70
     1
102
RTVSPost2010Prop45
280
     0
102
RTVSPost2010PropOp45
 70
     1
102
RTVSPost2010Prop46
 90
       50
102
RTVSPost2010PropOp46
 70
     1
102
RTVSPost2010Prop47
 90
       50
102
RTVSPost2010PropOp47
 70
     1
102
RTVSPost2010Prop48
 90
       50
102
RTVSPost2010PropOp48
 70
     1
102
RTVSPost2010Prop49
280
     0
102
RTVSPost2010PropOp49
 70
     1
102
RTVSPost2010Prop50
 90
       50
102
RTVSPost2010PropOp50
 70
     1
102
RTVSPost2010Prop51ColorIndex
 90
      256
102
RTVSPost2010Prop51ColorRGB
 90
-16777216
102
RTVSPost2010PropOp51
 70
     0
102
RTVSPost2010Prop52
140
1.0
102
RTVSPost2010PropOp52
 70
     0
102
RTVSPost2010Prop53
 90
        2
102
RTVSPost2010PropOp53
 70
     1
102
RTVSPost2010Prop54
  1
strokes_ogs.tif
102
RTVSPost2010PropOp54
 70
     1
102
RTVSPost2010Prop55
280
     0
102
RTVSPost2010PropOp55
 70
     1
102
RTVSPost2010Prop56
140
1.0
102
RTVSPost2010PropOp56
 70
     1
102
RTVSPost2010Prop57
140
1.0
102
RTVSPost2010PropOp57
 70
     1
102
RTVSPropertyOp0
 70
     1
102
RTVSPropertyOp1
 70
     1
102
RTVSPropertyOp2
 70
     1
102
RTVSPropertyOp3
 70
     1
102
RTVSPropertyOp4
 70
     1
102
RTVSPropertyOp5
 70
     1
102
RTVSPropertyOp6
 70
     1
102
RTVSPropertyOp7
 70
     1
102
RTVSPropertyOp8
 70
     1
102
RTVSPropertyOp9
 70
     1
102
RTVSPropertyOp10
 70
     1
102
RTVSPropertyOp11
 70
     1
102
RTVSPropertyOp12
 70
     1
102
RTVSPropertyOp13
 70
     1
102
RTVSPropertyOp14
 70
     1
102
RTVSPropertyOp15
 70
     1
102
RTVSPropertyOp16
 70
     1
102
RTVSPropertyOp17
 70
     1
102
RTVSPropertyOp18
 70
     1
102
RTVSPropertyOp19
 70
     1
102
RTVSPropertyOp20
 70
     1
102
RTVSPropertyOp21
 70
     1
102
RTVSPropertyOp22
 70
     1
102
RTVSPropertyOp23
 70
     1
102
RTVSPropertyOp24
 70
     1
102
RTVSPropertyOp25
 70
     1
102
RTVSPropertyOp26
 70
     1
102
RTVSPropertyOp27
 70
     1
102
RTVSPropertyOp28
 70
     1
102
RTVSPropertyOp29
 70
     1
102
RTVSPropertyOp30
 70
     1
102
RTVSPropertyOp31
 70
     1
102
RTVSPropertyOp32
 70
     1
102
RTVSPropertyOp33
 70
     1
102
RTVSPropertyOp34
 70
     1
102
RTVSPropertyOp35
 70
     1
102
RTVSPropertyOp36
 70
     1
102
RTVSPropertyOp37
 70
     1
102
RTVSPropertyOp38
 70
     1
102
RTVSPropertyOp39
 70
     1
102
RTVSPropertyOp40
 70
     1
102
RTVSPropertyOp41
 70
     1
102
RTVSPropertyOp42
 70
     1
102
RTVSPropertyOp43
 70
     1
102
RTVSPropertyOp44
 70
     1
102
RTVSPropertyOp45
 70
     1
102
RTVSPropertyOp46
 70
     1
102
RTVSPropertyOp47
 70
     1
102
RTVSPropertyOp48
 70
     1
102
RTVSPropertyOp49
 70
     1
102
RTVSPropertyOp50
 70
     1
102
RTVSPropertyOp51
 70
     0
102
RTVSPropertyOp52
 70
     0
102
RTVSPropertyOp53
 70
     1
102
RTVSPropertyOp54
 70
     1
102
RTVSPropertyOp55
 70
     1
102
RTVSPropertyOp56
 70
     1
102
RTVSPropertyOp57
 70
     1
102
RTVSPropertyOp58
 70
     1
102
RTVSPropertyOp59
 70
     1
102
RTVSPropertyOp60
 70
     1
102
RTVSPropertyOp61
 70
     1
102
RTVSPropertyOp62
 70
     1
  0
XRECORD
  5
19B6
102
{ACAD_REACTORS
330
19B5
102
}
330
19B5
100
AcDbXrecord
280
     1
102
RTVSPost2010Prop28
280
     0
102
RTVSPost2010PropOp28
 70
     1
102
RTVSPost2010Prop29
280
     1
102
RTVSPost2010PropOp29
 70
     1
102
RTVSPost2010Prop30
280
     1
102
RTVSPost2010PropOp30
 70
     1
102
RTVSPost2010Prop31
280
     0
102
RTVSPost2010PropOp31
 70
     1
102
RTVSPost2010Prop32
280
     0
102
RTVSPost2010PropOp32
 70
     1
102
RTVSPost2010Prop33
280
     0
102
RTVSPost2010PropOp33
 70
     1
102
RTVSPost2010Prop34
280
     0
102
RTVSPost2010PropOp34
 70
     1
102
RTVSPost2010Prop35
280
     0
102
RTVSPost2010PropOp35
 70
     1
102
RTVSPost2010Prop36
280
     0
102
RTVSPost2010PropOp36
 70
     1
102
RTVSPost2010Prop37
 90
       50
102
RTVSPost2010PropOp37
 70
     1
102
RTVSPost2010Prop38
140
0.0
102
RTVSPost2010PropOp38
 70
     1
102
RTVSPost2010Prop39
140
1.0
102
RTVSPost2010PropOp39
 70
     1
102
RTVSPost2010Prop40
 90
        0
102
RTVSPost2010PropOp40
 70
     1
102
RTVSPost2010Prop41ColorIndex
 90
       18
102
RTVSPost2010Prop41ColorRGB
 90
        0
102
RTVSPost2010PropOp41
 70
     1
102
RTVSPost2010Prop42
 90
       50
102
RTVSPost2010PropOp42
 70
     1
102
RTVSPost2010Prop43
 90
        3
102
RTVSPost2010PropOp43
 70
     1
102
RTVSPost2010Prop44ColorIndex
 90
        5
102
RTVSPost2010Prop44ColorRGB
 90
      255
102
RTVSPost2010PropOp44
 70
     1
102
RTVSPost2010Prop45
280
     0
102
RTVSPost2010PropOp45
 70
     1
102
RTVSPost2010Prop46
 90
       50
102
RTVSPost2010PropOp46
 70
     1
102
RTVSPost2010Prop47
 90
       50
102
RTVSPost2010PropOp47
 70
     1
102
RTVSPost2010Prop48
 90
       50
102
RTVSPost2010PropOp48
 70
     1
102
RTVSPost2010Prop49
280
     0
102
RTVSPost2010PropOp49
 70
     1
102
RTVSPost2010Prop50
 90
       50
102
RTVSPost2010PropOp50
 70
     1
102
RTVSPost2010Prop51ColorIndex
 90
      256
102
RTVSPost2010Prop51ColorRGB
 90
-16777216
102
RTVSPost2010PropOp51
 70
     0
102
RTVSPost2010Prop52
140
1.0
102
RTVSPost2010PropOp52
 70
     0
102
RTVSPost2010Prop53
 90
        2
102
RTVSPost2010PropOp53
 70
     1
102
RTVSPost2010Prop54
  1
strokes_ogs.tif
102
RTVSPost2010PropOp54
 70
     1
102
RTVSPost2010Prop55
280
     0
102
RTVSPost2010PropOp55
 70
     1
102
RTVSPost2010Prop56
140
1.0
102
RTVSPost2010PropOp56
 70
     1
102
RTVSPost2010Prop57
140
1.0
102
RTVSPost2010PropOp57
 70
     1
102
RTVSPropertyOp0
 70
     1
102
RTVSPropertyOp1
 70
     1
102
RTVSPropertyOp2
 70
     1
102
RTVSPropertyOp3
 70
     1
102
RTVSPropertyOp4
 70
     1
102
RTVSPropertyOp5
 70
     1
102
RTVSPropertyOp6
 70
     1
102
RTVSPropertyOp7
 70
     1
102
RTVSPropertyOp8
 70
     1
102
RTVSPropertyOp9
 70
     1
102
RTVSPropertyOp10
 70
     1
102
RTVSPropertyOp11
 70
     1
102
RTVSPropertyOp12
 70
     1
102
RTVSPropertyOp13
 70
     1
102
RTVSPropertyOp14
 70
     1
102
RTVSPropertyOp15
 70
     1
102
RTVSPropertyOp16
 70
     1
102
RTVSPropertyOp17
 70
     1
102
RTVSPropertyOp18
 70
     1
102
RTVSPropertyOp19
 70
     1
102
RTVSPropertyOp20
 70
     1
102
RTVSPropertyOp21
 70
     1
102
RTVSPropertyOp22
 70
     1
102
RTVSPropertyOp23
 70
     1
102
RTVSPropertyOp24
 70
     1
102
RTVSPropertyOp25
 70
     1
102
RTVSPropertyOp26
 70
     1
102
RTVSPropertyOp27
 70
     1
102
RTVSPropertyOp28
 70
     1
102
RTVSPropertyOp29
 70
     1
102
RTVSPropertyOp30
 70
     1
102
RTVSPropertyOp31
 70
     1
102
RTVSPropertyOp32
 70
     1
102
RTVSPropertyOp33
 70
     1
102
RTVSPropertyOp34
 70
     1
102
RTVSPropertyOp35
 70
     1
102
RTVSPropertyOp36
 70
     1
102
RTVSPropertyOp37
 70
     1
102
RTVSPropertyOp38
 70
     1
102
RTVSPropertyOp39
 70
     1
102
RTVSPropertyOp40
 70
     1
102
RTVSPropertyOp41
 70
     1
102
RTVSPropertyOp42
 70
     1
102
RTVSPropertyOp43
 70
     1
102
RTVSPropertyOp44
 70
     1
102
RTVSPropertyOp45
 70
     1
102
RTVSPropertyOp46
 70
     1
102
RTVSPropertyOp47
 70
     1
102
RTVSPropertyOp48
 70
     1
102
RTVSPropertyOp49
 70
     1
102
RTVSPropertyOp50
 70
     1
102
RTVSPropertyOp51
 70
     0
102
RTVSPropertyOp52
 70
     0
102
RTVSPropertyOp53
 70
     1
102
RTVSPropertyOp54
 70
     1
102
RTVSPropertyOp55
 70
     1
102
RTVSPropertyOp56
 70
     1
102
RTVSPropertyOp57
 70
     1
102
RTVSPropertyOp58
 70
     1
102
RTVSPropertyOp59
 70
     1
102
RTVSPropertyOp60
 70
     1
102
RTVSPropertyOp61
 70
     1
102
RTVSPropertyOp62
 70
     1
  0
XRECORD
  5
19AC
102
{ACAD_REACTORS
330
19AB
102
}
330
19AB
100
AcDbXrecord
280
     1
102
RTVSPost2010Prop28
280
     0
102
RTVSPost2010PropOp28
 70
     1
102
RTVSPost2010Prop29
280
     1
102
RTVSPost2010PropOp29
 70
     1
102
RTVSPost2010Prop30
280
     1
102
RTVSPost2010PropOp30
 70
     1
102
RTVSPost2010Prop31
280
     0
102
RTVSPost2010PropOp31
 70
     1
102
RTVSPost2010Prop32
280
     0
102
RTVSPost2010PropOp32
 70
     1
102
RTVSPost2010Prop33
280
     0
102
RTVSPost2010PropOp33
 70
     1
102
RTVSPost2010Prop34
280
     0
102
RTVSPost2010PropOp34
 70
     1
102
RTVSPost2010Prop35
280
     0
102
RTVSPost2010PropOp35
 70
     1
102
RTVSPost2010Prop36
280
     0
102
RTVSPost2010PropOp36
 70
     1
102
RTVSPost2010Prop37
 90
       50
102
RTVSPost2010PropOp37
 70
     1
102
RTVSPost2010Prop38
140
0.0
102
RTVSPost2010PropOp38
 70
     1
102
RTVSPost2010Prop39
140
1.0
102
RTVSPost2010PropOp39
 70
     1
102
RTVSPost2010Prop40
 90
        0
102
RTVSPost2010PropOp40
 70
     1
102
RTVSPost2010Prop41ColorIndex
 90
       18
102
RTVSPost2010Prop41ColorRGB
 90
        0
102
RTVSPost2010PropOp41
 70
     1
102
RTVSPost2010Prop42
 90
       50
102
RTVSPost2010PropOp42
 70
     1
102
RTVSPost2010Prop43
 90
        3
102
RTVSPost2010PropOp43
 70
     1
102
RTVSPost2010Prop44ColorIndex
 90
        5
102
RTVSPost2010Prop44ColorRGB
 90
      255
102
RTVSPost2010PropOp44
 70
     1
102
RTVSPost2010Prop45
280
     0
102
RTVSPost2010PropOp45
 70
     1
102
RTVSPost2010Prop46
 90
       50
102
RTVSPost2010PropOp46
 70
     1
102
RTVSPost2010Prop47
 90
       50
102
RTVSPost2010PropOp47
 70
     1
102
RTVSPost2010Prop48
 90
       50
102
RTVSPost2010PropOp48
 70
     1
102
RTVSPost2010Prop49
280
     0
102
RTVSPost2010PropOp49
 70
     1
102
RTVSPost2010Prop50
 90
       50
102
RTVSPost2010PropOp50
 70
     1
102
RTVSPost2010Prop51ColorIndex
 90
      256
102
RTVSPost2010Prop51ColorRGB
 90
-16777216
102
RTVSPost2010PropOp51
 70
     0
102
RTVSPost2010Prop52
140
1.0
102
RTVSPost2010PropOp52
 70
     0
102
RTVSPost2010Prop53
 90
        2
102
RTVSPost2010PropOp53
 70
     1
102
RTVSPost2010Prop54
  1
strokes_ogs.tif
102
RTVSPost2010PropOp54
 70
     1
102
RTVSPost2010Prop55
280
     0
102
RTVSPost2010PropOp55
 70
     1
102
RTVSPost2010Prop56
140
1.0
102
RTVSPost2010PropOp56
 70
     1
102
RTVSPost2010Prop57
140
1.0
102
RTVSPost2010PropOp57
 70
     1
102
RTVSPropertyOp0
 70
     1
102
RTVSPropertyOp1
 70
     1
102
RTVSPropertyOp2
 70
     1
102
RTVSPropertyOp3
 70
     1
102
RTVSPropertyOp4
 70
     1
102
RTVSPropertyOp5
 70
     1
102
RTVSPropertyOp6
 70
     1
102
RTVSPropertyOp7
 70
     1
102
RTVSPropertyOp8
 70
     1
102
RTVSPropertyOp9
 70
     1
102
RTVSPropertyOp10
 70
     1
102
RTVSPropertyOp11
 70
     1
102
RTVSPropertyOp12
 70
     1
102
RTVSPropertyOp13
 70
     1
102
RTVSPropertyOp14
 70
     1
102
RTVSPropertyOp15
 70
     1
102
RTVSPropertyOp16
 70
     1
102
RTVSPropertyOp17
 70
     1
102
RTVSPropertyOp18
 70
     1
102
RTVSPropertyOp19
 70
     1
102
RTVSPropertyOp20
 70
     1
102
RTVSPropertyOp21
 70
     1
102
RTVSPropertyOp22
 70
     1
102
RTVSPropertyOp23
 70
     1
102
RTVSPropertyOp24
 70
     1
102
RTVSPropertyOp25
 70
     1
102
RTVSPropertyOp26
 70
     1
102
RTVSPropertyOp27
 70
     1
102
RTVSPropertyOp28
 70
     1
102
RTVSPropertyOp29
 70
     1
102
RTVSPropertyOp30
 70
     1
102
RTVSPropertyOp31
 70
     1
102
RTVSPropertyOp32
 70
     1
102
RTVSPropertyOp33
 70
     1
102
RTVSPropertyOp34
 70
     1
102
RTVSPropertyOp35
 70
     1
102
RTVSPropertyOp36
 70
     1
102
RTVSPropertyOp37
 70
     1
102
RTVSPropertyOp38
 70
     1
102
RTVSPropertyOp39
 70
     1
102
RTVSPropertyOp40
 70
     1
102
RTVSPropertyOp41
 70
     1
102
RTVSPropertyOp42
 70
     1
102
RTVSPropertyOp43
 70
     1
102
RTVSPropertyOp44
 70
     1
102
RTVSPropertyOp45
 70
     1
102
RTVSPropertyOp46
 70
     1
102
RTVSPropertyOp47
 70
     1
102
RTVSPropertyOp48
 70
     1
102
RTVSPropertyOp49
 70
     1
102
RTVSPropertyOp50
 70
     1
102
RTVSPropertyOp51
 70
     0
102
RTVSPropertyOp52
 70
     0
102
RTVSPropertyOp53
 70
     1
102
RTVSPropertyOp54
 70
     1
102
RTVSPropertyOp55
 70
     1
102
RTVSPropertyOp56
 70
     1
102
RTVSPropertyOp57
 70
     1
102
RTVSPropertyOp58
 70
     1
102
RTVSPropertyOp59
 70
     1
102
RTVSPropertyOp60
 70
     1
102
RTVSPropertyOp61
 70
     1
102
RTVSPropertyOp62
 70
     1
  0
XRECORD
  5
19A0
102
{ACAD_REACTORS
330
199F
102
}
330
199F
100
AcDbXrecord
280
     1
102
RTVSPost2010Prop28
280
     0
102
RTVSPost2010PropOp28
 70
     1
102
RTVSPost2010Prop29
280
     1
102
RTVSPost2010PropOp29
 70
     1
102
RTVSPost2010Prop30
280
     1
102
RTVSPost2010PropOp30
 70
     1
102
RTVSPost2010Prop31
280
     0
102
RTVSPost2010PropOp31
 70
     1
102
RTVSPost2010Prop32
280
     0
102
RTVSPost2010PropOp32
 70
     1
102
RTVSPost2010Prop33
280
     0
102
RTVSPost2010PropOp33
 70
     1
102
RTVSPost2010Prop34
280
     0
102
RTVSPost2010PropOp34
 70
     1
102
RTVSPost2010Prop35
280
     0
102
RTVSPost2010PropOp35
 70
     1
102
RTVSPost2010Prop36
280
     0
102
RTVSPost2010PropOp36
 70
     1
102
RTVSPost2010Prop37
 90
       50
102
RTVSPost2010PropOp37
 70
     1
102
RTVSPost2010Prop38
140
0.0
102
RTVSPost2010PropOp38
 70
     1
102
RTVSPost2010Prop39
140
1.0
102
RTVSPost2010PropOp39
 70
     1
102
RTVSPost2010Prop40
 90
        0
102
RTVSPost2010PropOp40
 70
     1
102
RTVSPost2010Prop41ColorIndex
 90
       18
102
RTVSPost2010Prop41ColorRGB
 90
        0
102
RTVSPost2010PropOp41
 70
     1
102
RTVSPost2010Prop42
 90
       50
102
RTVSPost2010PropOp42
 70
     1
102
RTVSPost2010Prop43
 90
        3
102
RTVSPost2010PropOp43
 70
     1
102
RTVSPost2010Prop44ColorIndex
 90
        5
102
RTVSPost2010Prop44ColorRGB
 90
      255
102
RTVSPost2010PropOp44
 70
     1
102
RTVSPost2010Prop45
280
     0
102
RTVSPost2010PropOp45
 70
     1
102
RTVSPost2010Prop46
 90
       50
102
RTVSPost2010PropOp46
 70
     1
102
RTVSPost2010Prop47
 90
       50
102
RTVSPost2010PropOp47
 70
     1
102
RTVSPost2010Prop48
 90
       50
102
RTVSPost2010PropOp48
 70
     1
102
RTVSPost2010Prop49
280
     0
102
RTVSPost2010PropOp49
 70
     1
102
RTVSPost2010Prop50
 90
       50
102
RTVSPost2010PropOp50
 70
     1
102
RTVSPost2010Prop51ColorIndex
 90
      256
102
RTVSPost2010Prop51ColorRGB
 90
-16777216
102
RTVSPost2010PropOp51
 70
     0
102
RTVSPost2010Prop52
140
1.0
102
RTVSPost2010PropOp52
 70
     0
102
RTVSPost2010Prop53
 90
        2
102
RTVSPost2010PropOp53
 70
     1
102
RTVSPost2010Prop54
  1
strokes_ogs.tif
102
RTVSPost2010PropOp54
 70
     1
102
RTVSPost2010Prop55
280
     0
102
RTVSPost2010PropOp55
 70
     1
102
RTVSPost2010Prop56
140
1.0
102
RTVSPost2010PropOp56
 70
     1
102
RTVSPost2010Prop57
140
1.0
102
RTVSPost2010PropOp57
 70
     1
102
RTVSPropertyOp0
 70
     1
102
RTVSPropertyOp1
 70
     1
102
RTVSPropertyOp2
 70
     1
102
RTVSPropertyOp3
 70
     1
102
RTVSPropertyOp4
 70
     1
102
RTVSPropertyOp5
 70
     1
102
RTVSPropertyOp6
 70
     1
102
RTVSPropertyOp7
 70
     1
102
RTVSPropertyOp8
 70
     1
102
RTVSPropertyOp9
 70
     1
102
RTVSPropertyOp10
 70
     1
102
RTVSPropertyOp11
 70
     1
102
RTVSPropertyOp12
 70
     1
102
RTVSPropertyOp13
 70
     1
102
RTVSPropertyOp14
 70
     1
102
RTVSPropertyOp15
 70
     1
102
RTVSPropertyOp16
 70
     1
102
RTVSPropertyOp17
 70
     1
102
RTVSPropertyOp18
 70
     1
102
RTVSPropertyOp19
 70
     1
102
RTVSPropertyOp20
 70
     1
102
RTVSPropertyOp21
 70
     1
102
RTVSPropertyOp22
 70
     1
102
RTVSPropertyOp23
 70
     1
102
RTVSPropertyOp24
 70
     1
102
RTVSPropertyOp25
 70
     1
102
RTVSPropertyOp26
 70
     1
102
RTVSPropertyOp27
 70
     1
102
RTVSPropertyOp28
 70
     1
102
RTVSPropertyOp29
 70
     1
102
RTVSPropertyOp30
 70
     1
102
RTVSPropertyOp31
 70
     1
102
RTVSPropertyOp32
 70
     1
102
RTVSPropertyOp33
 70
     1
102
RTVSPropertyOp34
 70
     1
102
RTVSPropertyOp35
 70
     1
102
RTVSPropertyOp36
 70
     1
102
RTVSPropertyOp37
 70
     1
102
RTVSPropertyOp38
 70
     1
102
RTVSPropertyOp39
 70
     1
102
RTVSPropertyOp40
 70
     1
102
RTVSPropertyOp41
 70
     1
102
RTVSPropertyOp42
 70
     1
102
RTVSPropertyOp43
 70
     1
102
RTVSPropertyOp44
 70
     1
102
RTVSPropertyOp45
 70
     1
102
RTVSPropertyOp46
 70
     1
102
RTVSPropertyOp47
 70
     1
102
RTVSPropertyOp48
 70
     1
102
RTVSPropertyOp49
 70
     1
102
RTVSPropertyOp50
 70
     1
102
RTVSPropertyOp51
 70
     0
102
RTVSPropertyOp52
 70
     0
102
RTVSPropertyOp53
 70
     1
102
RTVSPropertyOp54
 70
     1
102
RTVSPropertyOp55
 70
     1
102
RTVSPropertyOp56
 70
     1
102
RTVSPropertyOp57
 70
     1
102
RTVSPropertyOp58
 70
     1
102
RTVSPropertyOp59
 70
     1
102
RTVSPropertyOp60
 70
     1
102
RTVSPropertyOp61
 70
     1
102
RTVSPropertyOp62
 70
     1
  0
XRECORD
  5
19B8
102
{ACAD_REACTORS
330
19B7
102
}
330
19B7
100
AcDbXrecord
280
     1
102
RTVSPost2010Prop28
280
     0
102
RTVSPost2010PropOp28
 70
     1
102
RTVSPost2010Prop29
280
     1
102
RTVSPost2010PropOp29
 70
     1
102
RTVSPost2010Prop30
280
     1
102
RTVSPost2010PropOp30
 70
     1
102
RTVSPost2010Prop31
280
     0
102
RTVSPost2010PropOp31
 70
     1
102
RTVSPost2010Prop32
280
     0
102
RTVSPost2010PropOp32
 70
     1
102
RTVSPost2010Prop33
280
     0
102
RTVSPost2010PropOp33
 70
     1
102
RTVSPost2010Prop34
280
     0
102
RTVSPost2010PropOp34
 70
     1
102
RTVSPost2010Prop35
280
     0
102
RTVSPost2010PropOp35
 70
     1
102
RTVSPost2010Prop36
280
     0
102
RTVSPost2010PropOp36
 70
     1
102
RTVSPost2010Prop37
 90
       50
102
RTVSPost2010PropOp37
 70
     1
102
RTVSPost2010Prop38
140
0.0
102
RTVSPost2010PropOp38
 70
     1
102
RTVSPost2010Prop39
140
1.0
102
RTVSPost2010PropOp39
 70
     1
102
RTVSPost2010Prop40
 90
        0
102
RTVSPost2010PropOp40
 70
     1
102
RTVSPost2010Prop41ColorIndex
 90
       18
102
RTVSPost2010Prop41ColorRGB
 90
        0
102
RTVSPost2010PropOp41
 70
     1
102
RTVSPost2010Prop42
 90
       50
102
RTVSPost2010PropOp42
 70
     1
102
RTVSPost2010Prop43
 90
        3
102
RTVSPost2010PropOp43
 70
     1
102
RTVSPost2010Prop44ColorIndex
 90
        5
102
RTVSPost2010Prop44ColorRGB
 90
      255
102
RTVSPost2010PropOp44
 70
     1
102
RTVSPost2010Prop45
280
     0
102
RTVSPost2010PropOp45
 70
     1
102
RTVSPost2010Prop46
 90
       50
102
RTVSPost2010PropOp46
 70
     1
102
RTVSPost2010Prop47
 90
       50
102
RTVSPost2010PropOp47
 70
     1
102
RTVSPost2010Prop48
 90
       50
102
RTVSPost2010PropOp48
 70
     1
102
RTVSPost2010Prop49
280
     0
102
RTVSPost2010PropOp49
 70
     1
102
RTVSPost2010Prop50
 90
       50
102
RTVSPost2010PropOp50
 70
     1
102
RTVSPost2010Prop51ColorIndex
 90
      256
102
RTVSPost2010Prop51ColorRGB
 90
-16777216
102
RTVSPost2010PropOp51
 70
     0
102
RTVSPost2010Prop52
140
1.0
102
RTVSPost2010PropOp52
 70
     0
102
RTVSPost2010Prop53
 90
        2
102
RTVSPost2010PropOp53
 70
     1
102
RTVSPost2010Prop54
  1
strokes_ogs.tif
102
RTVSPost2010PropOp54
 70
     1
102
RTVSPost2010Prop55
280
     0
102
RTVSPost2010PropOp55
 70
     1
102
RTVSPost2010Prop56
140
1.0
102
RTVSPost2010PropOp56
 70
     1
102
RTVSPost2010Prop57
140
1.0
102
RTVSPost2010PropOp57
 70
     1
102
RTVSPropertyOp0
 70
     1
102
RTVSPropertyOp1
 70
     1
102
RTVSPropertyOp2
 70
     1
102
RTVSPropertyOp3
 70
     1
102
RTVSPropertyOp4
 70
     1
102
RTVSPropertyOp5
 70
     1
102
RTVSPropertyOp6
 70
     1
102
RTVSPropertyOp7
 70
     1
102
RTVSPropertyOp8
 70
     1
102
RTVSPropertyOp9
 70
     1
102
RTVSPropertyOp10
 70
     1
102
RTVSPropertyOp11
 70
     1
102
RTVSPropertyOp12
 70
     1
102
RTVSPropertyOp13
 70
     1
102
RTVSPropertyOp14
 70
     1
102
RTVSPropertyOp15
 70
     1
102
RTVSPropertyOp16
 70
     1
102
RTVSPropertyOp17
 70
     1
102
RTVSPropertyOp18
 70
     1
102
RTVSPropertyOp19
 70
     1
102
RTVSPropertyOp20
 70
     1
102
RTVSPropertyOp21
 70
     1
102
RTVSPropertyOp22
 70
     1
102
RTVSPropertyOp23
 70
     1
102
RTVSPropertyOp24
 70
     1
102
RTVSPropertyOp25
 70
     1
102
RTVSPropertyOp26
 70
     1
102
RTVSPropertyOp27
 70
     1
102
RTVSPropertyOp28
 70
     1
102
RTVSPropertyOp29
 70
     1
102
RTVSPropertyOp30
 70
     1
102
RTVSPropertyOp31
 70
     1
102
RTVSPropertyOp32
 70
     1
102
RTVSPropertyOp33
 70
     1
102
RTVSPropertyOp34
 70
     1
102
RTVSPropertyOp35
 70
     1
102
RTVSPropertyOp36
 70
     1
102
RTVSPropertyOp37
 70
     1
102
RTVSPropertyOp38
 70
     1
102
RTVSPropertyOp39
 70
     1
102
RTVSPropertyOp40
 70
     1
102
RTVSPropertyOp41
 70
     1
102
RTVSPropertyOp42
 70
     1
102
RTVSPropertyOp43
 70
     1
102
RTVSPropertyOp44
 70
     1
102
RTVSPropertyOp45
 70
     1
102
RTVSPropertyOp46
 70
     1
102
RTVSPropertyOp47
 70
     1
102
RTVSPropertyOp48
 70
     1
102
RTVSPropertyOp49
 70
     1
102
RTVSPropertyOp50
 70
     1
102
RTVSPropertyOp51
 70
     0
102
RTVSPropertyOp52
 70
     0
102
RTVSPropertyOp53
 70
     1
102
RTVSPropertyOp54
 70
     1
102
RTVSPropertyOp55
 70
     1
102
RTVSPropertyOp56
 70
     1
102
RTVSPropertyOp57
 70
     1
102
RTVSPropertyOp58
 70
     1
102
RTVSPropertyOp59
 70
     1
102
RTVSPropertyOp60
 70
     1
102
RTVSPropertyOp61
 70
     1
102
RTVSPropertyOp62
 70
     1
  0
ENDSEC
  0
EOF
