  0
SECTION
  2
HEADER
  9
$ACADVER
  1
AC1009
  9
$INSBASE
 10
0.0
 20
0.0
 30
0.0
  9
$EXTMIN
 10
117758.67714374499
 20
-117277.879880546
 30
-0.0000000000000058
  9
$EXTMAX
 10
118463.73218065441
 20
-116901.14095212449
 30
0.0000000000000104
  9
$LIMMIN
 10
0.0
 20
0.0
  9
$LIMMAX
 10
420.0
 20
297.0
  9
$ORTHOMODE
 70
     0
  9
$REGENMODE
 70
     1
  9
$FILLMODE
 70
     1
  9
$QTEXTMODE
 70
     0
  9
$MIRRTEXT
 70
     1
  9
$DRAGMODE
 70
     2
  9
$LTSCALE
 40
1.0
  9
$OSMODE
 70
   943
  9
$ATTMODE
 70
     1
  9
$TEXTSIZE
 40
2.5
  9
$TRACEWID
 40
1.0
  9
$TEXTSTYLE
  7
STANDARD
  9
$CLAYER
  8
ér
  9
$CELTYPE
  6
BYLAYER
  9
$CECOLOR
 62
   256
  9
$DIMSCALE
 40
1.0
  9
$DIMASZ
 40
1.1000000000000001
  9
$DIMEXO
 40
5.0
  9
$DIMDLI
 40
10.0
  9
$DIMRND
 40
0.0
  9
$DIMDLE
 40
0.0
  9
$DIMEXE
 40
0.0
  9
$DIMTP
 40
0.0
  9
$DIMTM
 40
0.0
  9
$DIMTXT
 40
3.25
  9
$DIMCEN
 40
3.0
  9
$DIMTSZ
 40
0.0
  9
$DIMTOL
 70
     0
  9
$DIMLIM
 70
     0
  9
$DIMTIH
 70
     0
  9
$DIMTOH
 70
     0
  9
$DIMSE1
 70
     0
  9
$DIMSE2
 70
     0
  9
$DIMTAD
 70
     1
  9
$DIMZIN
 70
     8
  9
$DIMBLK
  1
ORIGIN
  9
$DIMASO
 70
     1
  9
$DIMSHO
 70
     1
  9
$DIMPOST
  1

  9
$DIMAPOST
  1

  9
$DIMALT
 70
     0
  9
$DIMALTD
 70
     3
  9
$DIMALTF
 40
0.03937007874016
  9
$DIMLFAC
 40
1.0
  9
$DIMTOFL
 70
     1
  9
$DIMTVP
 40
0.0
  9
$DIMTIX
 70
     1
  9
$DIMSOXD
 70
     0
  9
$DIMSAH
 70
     0
  9
$DIMBLK1
  1

  9
$DIMBLK2
  1

  9
$DIMSTYLE
  2
Éíû@_1-1
  9
$DIMCLRD
 70
   256
  9
$DIMCLRE
 70
   256
  9
$DIMCLRT
 70
     7
  9
$DIMTFAC
 40
1.0
  9
$DIMGAP
 40
1.0
  9
$LUNITS
 70
     2
  9
$LUPREC
 70
     4
  9
$SKETCHINC
 40
1.0
  9
$FILLETRAD
 40
0.0
  9
$AUNITS
 70
     0
  9
$AUPREC
 70
     0
  9
$MENU
  1
.
  9
$ELEVATION
 40
0.0
  9
$PELEVATION
 40
0.0
  9
$THICKNESS
 40
0.0
  9
$LIMCHECK
 70
     0
  9
$BLIPMODE
 70
     0
  9
$CHAMFERA
 40
10.0
  9
$CHAMFERB
 40
10.0
  9
$SKPOLY
 70
     0
  9
$TDCREATE
 40
2453020.4858881249
  9
$TDUPDATE
 40
2458698.8462334839
  9
$TDINDWG
 40
3.6163529050999998
  9
$TDUSRTIMER
 40
3.6163509143999999
  9
$USRTIMER
 70
     1
  9
$ANGBASE
 50
0.0
  9
$ANGDIR
 70
     0
  9
$PDMODE
 70
     0
  9
$PDSIZE
 40
0.0
  9
$PLINEWID
 40
0.0
  9
$COORDS
 70
     2
  9
$SPLFRAME
 70
     0
  9
$SPLINETYPE
 70
     6
  9
$SPLINESEGS
 70
     8
  9
$ATTDIA
 70
     1
  9
$ATTREQ
 70
     1
  9
$HANDLING
 70
     1
  9
$HANDSEED
  5
19C8B
  9
$SURFTAB1
 70
     6
  9
$SURFTAB2
 70
     6
  9
$SURFTYPE
 70
     6
  9
$SURFU
 70
     6
  9
$SURFV
 70
     6
  9
$UCSNAME
  2

  9
$UCSORG
 10
0.0
 20
0.0
 30
0.0
  9
$UCSXDIR
 10
1.0
 20
0.0
 30
0.0
  9
$UCSYDIR
 10
0.0
 20
1.0
 30
0.0
  9
$PUCSNAME
  2

  9
$PUCSORG
 10
0.0
 20
0.0
 30
0.0
  9
$PUCSXDIR
 10
1.0
 20
0.0
 30
0.0
  9
$PUCSYDIR
 10
0.0
 20
1.0
 30
0.0
  9
$USERI1
 70
     0
  9
$USERI2
 70
     0
  9
$USERI3
 70
     0
  9
$USERI4
 70
     0
  9
$USERI5
 70
     0
  9
$USERR1
 40
0.0
  9
$USERR2
 40
0.0
  9
$USERR3
 40
0.0
  9
$USERR4
 40
0.0
  9
$USERR5
 40
0.0
  9
$WORLDVIEW
 70
     1
  9
$SHADEDGE
 70
     3
  9
$SHADEDIF
 70
    70
  9
$TILEMODE
 70
     1
  9
$MAXACTVP
 70
    64
  9
$PLIMCHECK
 70
     0
  9
$PEXTMIN
 10
1.0000000000000000E+020
 20
1.0000000000000000E+020
 30
1.0000000000000000E+020
  9
$PEXTMAX
 10
-1.0000000000000000E+020
 20
-1.0000000000000000E+020
 30
-1.0000000000000000E+020
  9
$PLIMMIN
 10
0.0
 20
0.0
  9
$PLIMMAX
 10
420.0
 20
297.0
  9
$UNITMODE
 70
     0
  9
$VISRETAIN
 70
     1
  9
$PLINEGEN
 70
     0
  9
$PSLTSCALE
 70
     1
  0
ENDSEC
  0
SECTION
  2
TABLES
  0
TABLE
  2
VPORT
 70
     1
  0
VPORT
  2
*ACTIVE
 70
     0
 10
0.0
 20
0.0
 11
1.0
 21
1.0
 12
118111.2046621997
 22
-117089.5104163353
 13
0.0
 23
0.0
 14
10.0
 24
10.0
 15
10.0
 25
10.0
 16
0.0
 26
0.0
 36
1.0
 17
0.0
 27
0.0
 37
0.0
 40
431.91818643745131
 41
1.6401564537157749
 42
50.0
 43
0.0
 44
0.0
 50
0.0
 51
0.0
 71
     0
 72
   100
 73
     1
 74
     3
 75
     0
 76
     0
 77
     0
 78
     0
  0
ENDTAB
  0
TABLE
  2
LTYPE
 70
     9
  0
LTYPE
  2
CONTINUOUS
 70
     0
  3
Solid line
 72
    65
 73
     0
 40
0.0
  0
LTYPE
  2
CENTERX2
 70
     0
  3
Center (2x) ________  __  ________  __  _____
 72
    65
 73
     4
 40
101.59999999999999
 49
63.5
 49
-12.699999999999999
 49
12.699999999999999
 49
-12.699999999999999
  0
LTYPE
  2
CENTER2
 70
     0
  3
Center (.5x) ___ _ ___ _ ___ _ ___ _ ___ _ ___
 72
    65
 73
     4
 40
28.574999999999999
 49
19.050000000000001
 49
-3.174999999999998
 49
3.174999999999998
 49
-3.174999999999998
  0
LTYPE
  2
DASHED
 70
     0
  3
Dashed __ __ __ __ __ __ __ __ __ __ __ __ __ _
 72
    65
 73
     2
 40
19.050000000000001
 49
12.699999999999999
 49
-6.349999999999997
  0
LTYPE
  2
DASHED3
 70
     0
  3
------  ------  ------  ------  
 72
    65
 73
     2
 40
5.0
 49
3.75
 49
-1.25
  0
LTYPE
  2
DASHDOT2
 70
     0
  3
Dash dot (.5x) _._._._._._._._._._._._._._._.
 72
    65
 73
     4
 40
12.699999999999999
 49
6.349999999999997
 49
-3.174999999999998
 49
0.0
 49
-3.174999999999998
  0
LTYPE
  2
HIDDEN2
 70
     0
  3
Hidden (.5x) _ _ _ _ _ _ _ _ _ _ _ _ _ _ _ _ _
 72
    65
 73
     2
 40
4.7624999999999984
 49
3.174999999999998
 49
-1.587499999999999
  0
ENDTAB
  0
TABLE
  2
LAYER
 70
     4
  0
LAYER
  2
0
 70
     0
 62
     7
  6
CONTINUOUS
  0
LAYER
  2
DEFPOINTS
 70
     0
 62
     7
  6
CONTINUOUS
  0
LAYER
  2
ér
 70
     0
 62
     4
  6
CONTINUOUS
  0
LAYER
  2
ôVêõìÌ
 70
     0
 62
     2
  6
CONTINUOUS
  0
ENDTAB
  0
TABLE
  2
STYLE
 70
     9
  0
STYLE
  2
STANDARD
 70
     0
 40
0.0
 41
1.0
 50
0.0
 71
     0
 42
2.5
  3
txt.shx
  4
@extfont2.shx
  0
STYLE
  2
KANJIY
 70
     0
 40
0.0
 41
1.0
 50
0.0
 71
     0
 42
600.0
  3
MONOTXT
  4
KELF1-K
  0
STYLE
  2
SUNPOU
 70
     0
 40
0.0
 41
0.8
 50
0.0
 71
     0
 42
0.4
  3
ROMANS.shx
  4
KELF1-K.shx
  0
STYLE
  2

 70
     1
 40
0.0
 41
1.0
 50
0.0
 71
     0
 42
2.5
  3
ltypeshp.shx
  4

  0
STYLE
  2
MORISON
 70
     0
 40
3.5
 41
1.0
 50
0.0
 71
     0
 42
3.0
  3
txt
  4

  0
STYLE
  2
Éíû@ùp_BIGFONT
 70
     0
 40
0.0
 41
0.75
 50
0.0
 71
     0
 42
2.5
  3
romand.shx
  4
bigfont.shx
  0
STYLE
  2
òÂÄÜùp_BIGHONT
 70
     0
 40
0.0
 41
1.0
 50
0.0
 71
     0
 42
2.5
  3
romans.shx
  4
bigfont.shx
  0
STYLE
  2
âXâ^âCâï2
 70
     0
 40
0.0
 41
1.0
 50
0.0
 71
     0
 42
2.5
  3
txt
  4

  0
ENDTAB
  0
TABLE
  2
VIEW
 70
     1
  0
ENDTAB
  0
TABLE
  2
UCS
 70
     0
  0
ENDTAB
  0
TABLE
  2
APPID
 70
    11
  0
APPID
  2
ACAD
 70
     0
  0
APPID
  2
ACAD_NAV_VCDISPLAY
 70
     0
  0
APPID
  2
ACAD_EXEMPT_FROM_CAD_STANDARDS
 70
     0
  0
APPID
  2
ACAD_PSEXT
 70
     0
  0
APPID
  2
ACAECLAYERSTANDARD
 70
     0
  0
APPID
  2
ACAD_DSTYLE_DIMJAG
 70
     0
  0
APPID
  2
ACAD_DSTYLE_DIMTALN
 70
     0
  0
APPID
  2
ACADANNOPO
 70
     0
  0
APPID
  2
ACAD_MLEADERVER
 70
     0
  0
APPID
  2
ACADANNOMONITORALERTICONDI
 70
     0
  0
APPID
  2
ACAD_DSTYLE_DIMBREAK
 70
     0
  0
ENDTAB
  0
TABLE
  2
DIMSTYLE
 70
     3
  0
DIMSTYLE
  2
Éíû@_1-1
 70
     0
  3

  4

  5
ORIGIN
  6

  7

 40
1.0
 41
1.1000000000000001
 42
5.0
 43
10.0
 44
0.0
 45
0.0
 46
0.0
 47
0.0
 48
0.0
140
3.25
141
3.0
142
0.0
143
0.03937007874016
144
1.0
145
0.0
146
1.0
147
1.0
 71
     0
 72
     0
 73
     0
 74
     0
 75
     0
 76
     0
 77
     1
 78
     8
170
     0
171
     3
172
     1
173
     0
174
     1
175
     0
176
   256
177
   256
178
     7
  0
ENDTAB
  0
ENDSEC
  0
SECTION
  2
BLOCKS
  0
BLOCK
  8
0
  2
$MODEL_SPACE
 70
     0
 10
0.0
 20
0.0
 30
0.0
  3
$MODEL_SPACE
  1

  0
ENDBLK
  5
21
  8
0
  0
BLOCK
 67
     1
  8
0
  2
$PAPER_SPACE
 70
     0
 10
0.0
 20
0.0
 30
0.0
  3
$PAPER_SPACE
  1

  0
ENDBLK
  5
1D
 67
     1
  8
0
  0
BLOCK
  8
0
  2
_DOT
 70
     0
 10
0.0
 20
0.0
 30
0.0
  3
_DOT
  1

  0
POLYLINE
  5
2C
  8
0
  6
BYBLOCK
 62
     0
 66
     1
 10
0.0
 20
0.0
 30
0.0
 70
     1
 40
0.5
 41
0.5
  0
VERTEX
  5
19AE5
  8
0
  6
BYBLOCK
 62
     0
 10
-0.25
 20
0.0
 30
0.0
 42
1.0
  0
VERTEX
  5
19AE6
  8
0
  6
BYBLOCK
 62
     0
 10
0.25
 20
0.0
 30
0.0
 42
1.0
  0
SEQEND
  5
19AE7
  8
0
  6
BYBLOCK
 62
     0
  0
LINE
  5
2D
  8
0
  6
BYBLOCK
 62
     0
 10
-0.5
 20
0.0
 30
0.0
 11
-1.0
 21
0.0
 31
0.0
  0
ENDBLK
  5
2F
  8
0
  0
BLOCK
  8
0
  2
_OPEN30
 70
     0
 10
0.0
 20
0.0
 30
0.0
  3
_OPEN30
  1

  0
LINE
  5
31
  8
0
  6
BYBLOCK
 62
     0
 10
-1.0
 20
0.26794919
 30
0.0
 11
0.0
 21
0.0
 31
0.0
  0
LINE
  5
32
  8
0
  6
BYBLOCK
 62
     0
 10
0.0
 20
0.0
 30
0.0
 11
-1.0
 21
-0.26794919
 31
0.0
  0
LINE
  5
33
  8
0
  6
BYBLOCK
 62
     0
 10
0.0
 20
0.0
 30
0.0
 11
-1.0
 21
0.0
 31
0.0
  0
ENDBLK
  5
35
  8
0
  0
BLOCK
  8
0
  2
_ORIGIN
 70
     0
 10
0.0
 20
0.0
 30
0.0
  3
_ORIGIN
  1

  0
CIRCLE
  5
29B7
  8
0
  6
BYBLOCK
 62
     0
 10
0.0
 20
0.0
 30
0.0
 40
0.5
  0
LINE
  5
29B8
  8
0
  6
BYBLOCK
 62
     0
 10
0.0
 20
0.0
 30
0.0
 11
-1.0
 21
0.0
 31
0.0
  0
ENDBLK
  5
29BA
  8
0
  0
BLOCK
  8
0
  2
_NONE
 70
     0
 10
0.0
 20
0.0
 30
0.0
  3
_NONE
  1

  0
ENDBLK
  5
44F4
  8
0
  0
BLOCK
  8
0
  2
_ORIGIN2
 70
     0
 10
0.0
 20
0.0
 30
0.0
  3
_ORIGIN2
  1

  0
CIRCLE
  5
D046
  8
0
  6
BYBLOCK
 62
     0
 10
0.0
 20
0.0
 30
0.0
 40
0.5
  0
CIRCLE
  5
D047
  8
0
  6
BYBLOCK
 62
     0
 10
0.0
 20
0.0
 30
0.0
 40
0.25
  0
LINE
  5
D048
  8
0
  6
BYBLOCK
 62
     0
 10
-0.5
 20
0.0
 30
0.0
 11
-1.0
 21
0.0
 31
0.0
  0
ENDBLK
  5
D04A
  8
0
  0
BLOCK
  8
0
  2
_OPEN90
 70
     0
 10
0.0
 20
0.0
 30
0.0
  3
_OPEN90
  1

  0
LINE
  5
D16B
  8
0
  6
BYBLOCK
 62
     0
 10
-0.5
 20
0.5
 30
0.0
 11
0.0
 21
0.0
 31
0.0
  0
LINE
  5
D16C
  8
0
  6
BYBLOCK
 62
     0
 10
0.0
 20
0.0
 30
0.0
 11
-0.5
 21
-0.5
 31
0.0
  0
LINE
  5
D16D
  8
0
  6
BYBLOCK
 62
     0
 10
0.0
 20
0.0
 30
0.0
 11
-1.0
 21
0.0
 31
0.0
  0
ENDBLK
  5
D16F
  8
0
  0
BLOCK
  8
0
  2
_DOTBLANK
 70
     0
 10
0.0
 20
0.0
 30
0.0
  3
_DOTBLANK
  1

  0
CIRCLE
  5
D9C6
  8
0
  6
BYBLOCK
 62
     0
 10
0.0
 20
0.0
 30
0.0
 40
0.5
  0
LINE
  5
D9C7
  8
0
  6
BYBLOCK
 62
     0
 10
-0.5
 20
0.0
 30
0.0
 11
-1.0
 21
0.0
 31
0.0
  0
ENDBLK
  5
D9C9
  8
0
  0
BLOCK
  8
0
  2
É}û╩ÿg_1-6
 70
     0
 10
0.0
 20
0.0
 30
0.0
  3
É}û╩ÿg_1-6
  1

  0
ENDBLK
  5
134A0
  8
0
  0
BLOCK
  8
0
  2
_DOTSMALL
 70
     0
 10
0.0
 20
0.0
 30
0.0
  3
_DOTSMALL
  1

  0
POLYLINE
  5
180FC
  8
0
  6
BYBLOCK
 62
     0
 66
     1
 10
0.0
 20
0.0
 30
0.0
 70
     1
 40
0.5
 41
0.5
  0
VERTEX
  5
19B1B
  8
0
  6
BYBLOCK
 62
     0
 10
-0.0625
 20
0.0
 30
0.0
 42
1.0
  0
VERTEX
  5
19B1C
  8
0
  6
BYBLOCK
 62
     0
 10
0.0625
 20
0.0
 30
0.0
 42
1.0
  0
SEQEND
  5
19B1D
  8
0
  6
BYBLOCK
 62
     0
  0
ENDBLK
  5
180FD
  8
0
  0
BLOCK
  8
0
  2
*D10
 70
     1
 10
0.0
 20
0.0
 30
0.0
  3
*D10
  1

  0
LINE
  5
18682
  8
ér
 10
117808.3468501137
 20
-116956.2195735226
 30
0.0
 11
117808.3468501137
 21
-116938.9865277952
 31
0.0
  0
LINE
  5
18683
  8
ér
 10
117838.34674200611
 20
-116956.2195735226
 30
0.0
 11
117838.34674200611
 21
-116938.9865277952
 31
0.0
  0
LINE
  5
18684
  8
ér
 10
117809.4468501137
 20
-116938.9865277952
 30
0.0
 11
117837.2467420061
 21
-116938.9865277952
 31
0.0
  0
INSERT
  5
18685
  8
ér
  2
_ORIGIN
 10
117808.3468501137
 20
-116938.9865277952
 30
0.0
 41
1.1000000000000001
 42
1.1000000000000001
 43
1.1000000000000001
 50
180.0
  0
INSERT
  5
18686
  8
ér
  2
_ORIGIN
 10
117838.34674200611
 20
-116938.9865277952
 30
0.0
 41
1.1000000000000001
 42
1.1000000000000001
 43
1.1000000000000001
  0
INSERT
  5
18687
  8
ér
  2
*U88
 10
0.0
 20
0.0
 30
0.0
  0
POINT
  5
18688
  8
DEFPOINTS
 62
     0
 10
117808.3468501137
 20
-116961.2195735226
 30
0.0
  0
POINT
  5
18689
  8
DEFPOINTS
 62
     0
 10
117838.34674200611
 20
-116961.2195735226
 30
0.0
  0
POINT
  5
1868A
  8
DEFPOINTS
 62
     0
 10
117838.34674200611
 20
-116938.9865277952
 30
0.0
  0
ENDBLK
  5
18664
  8
0
  0
BLOCK
  8
0
  2
*D11
 70
     1
 10
0.0
 20
0.0
 30
0.0
  3
*D11
  1

  0
LINE
  5
186E0
  8
ér
 10
117803.346742006
 20
-116962.2195735226
 30
0.0
 11
117787.89597425979
 21
-116962.2195735226
 31
0.0
  0
LINE
  5
186E1
  8
ér
 10
117818.346742006
 20
-116976.71972914461
 30
0.0
 11
117787.89597425979
 21
-116976.71972914461
 31
0.0
  0
LINE
  5
186E2
  8
ér
 10
117787.89597425979
 20
-116963.3195735226
 30
0.0
 11
117787.89597425979
 21
-116975.6197291446
 31
0.0
  0
INSERT
  5
186E3
  8
ér
  2
_ORIGIN
 10
117787.89597425979
 20
-116962.2195735226
 30
0.0
 41
1.1000000000000001
 42
1.1000000000000001
 43
1.1000000000000001
 50
90.0
  0
INSERT
  5
186E4
  8
ér
  2
_ORIGIN
 10
117787.89597425979
 20
-116976.71972914461
 30
0.0
 41
1.1000000000000001
 42
1.1000000000000001
 43
1.1000000000000001
 50
270.0
  0
INSERT
  5
186E5
  8
ér
  2
*U90
 10
0.0
 20
0.0
 30
0.0
  0
POINT
  5
186E6
  8
DEFPOINTS
 62
     0
 10
117808.346742006
 20
-116962.2195735226
 30
0.0
  0
POINT
  5
186E7
  8
DEFPOINTS
 62
     0
 10
117823.346742006
 20
-116976.71972914461
 30
0.0
  0
POINT
  5
186E8
  8
DEFPOINTS
 62
     0
 10
117787.89597425979
 20
-116976.71972914461
 30
0.0
  0
ENDBLK
  5
1868E
  8
0
  0
BLOCK
  8
0
  2
*D12
 70
     1
 10
0.0
 20
0.0
 30
0.0
  3
*D12
  1

  0
LINE
  5
186E9
  8
ér
 10
117818.346742006
 20
-116979.7197926541
 30
0.0
 11
117787.89597425979
 21
-116979.7197926541
 31
0.0
  0
LINE
  5
186EA
  8
ér
 10
117818.346742006
 20
-116976.71972914461
 30
0.0
 11
117787.89597425979
 21
-116976.71972914461
 31
0.0
  0
LINE
  5
186EB
  8
ér
 10
117787.89597425979
 20
-116980.8197926541
 30
0.0
 11
117787.89597425979
 21
-116981.91979265409
 31
0.0
  0
LINE
  5
186EC
  8
ér
 10
117787.89597425979
 20
-116975.6197291446
 30
0.0
 11
117787.89597425979
 21
-116974.51972914459
 31
0.0
  0
LINE
  5
186ED
  8
ér
 10
117787.89597425979
 20
-116979.7197926541
 30
0.0
 11
117787.89597425979
 21
-116976.71972914461
 31
0.0
  0
INSERT
  5
186EE
  8
ér
  2
_ORIGIN
 10
117787.89597425979
 20
-116979.7197926541
 30
0.0
 41
1.1000000000000001
 42
1.1000000000000001
 43
1.1000000000000001
 50
90.0
  0
INSERT
  5
186EF
  8
ér
  2
_ORIGIN
 10
117787.89597425979
 20
-116976.71972914461
 30
0.0
 41
1.1000000000000001
 42
1.1000000000000001
 43
1.1000000000000001
 50
270.0
  0
INSERT
  5
186F0
  8
ér
  2
*U91
 10
0.0
 20
0.0
 30
0.0
  0
POINT
  5
186F1
  8
DEFPOINTS
 62
     0
 10
117823.346742006
 20
-116979.7197926541
 30
0.0
  0
POINT
  5
186F2
  8
DEFPOINTS
 62
     0
 10
117823.346742006
 20
-116976.71972914461
 30
0.0
  0
POINT
  5
186F3
  8
DEFPOINTS
 62
     0
 10
117787.89597425979
 20
-116976.71972914461
 30
0.0
  0
ENDBLK
  5
186A6
  8
0
  0
BLOCK
  8
0
  2
*D13
 70
     1
 10
0.0
 20
0.0
 30
0.0
  3
*D13
  1

  0
LINE
  5
186CD
  8
ér
 10
117823.346742006
 20
-116984.7197926541
 30
0.0
 11
117823.346742006
 21
-116999.70040333
 31
0.0
  0
LINE
  5
186CE
  8
ér
 10
117838.34674200611
 20
-116984.7197926541
 30
0.0
 11
117838.34674200611
 21
-116999.70040333
 31
0.0
  0
LINE
  5
186CF
  8
ér
 10
117824.446742006
 20
-116999.70040333
 30
0.0
 11
117837.2467420061
 21
-116999.70040333
 31
0.0
  0
INSERT
  5
186D0
  8
ér
  2
_ORIGIN
 10
117823.346742006
 20
-116999.70040333
 30
0.0
 41
1.1000000000000001
 42
1.1000000000000001
 43
1.1000000000000001
 50
180.0
  0
INSERT
  5
186D1
  8
ér
  2
_ORIGIN
 10
117838.34674200611
 20
-116999.70040333
 30
0.0
 41
1.1000000000000001
 42
1.1000000000000001
 43
1.1000000000000001
  0
INSERT
  5
186D2
  8
ér
  2
*U89
 10
0.0
 20
0.0
 30
0.0
  0
POINT
  5
186D3
  8
DEFPOINTS
 62
     0
 10
117823.346742006
 20
-116979.7197926541
 30
0.0
  0
POINT
  5
186D4
  8
DEFPOINTS
 62
     0
 10
117838.34674200611
 20
-116979.7197926541
 30
0.0
  0
POINT
  5
186D5
  8
DEFPOINTS
 62
     0
 10
117838.34674200611
 20
-116999.70040333
 30
0.0
  0
ENDBLK
  5
186C2
  8
0
  0
BLOCK
  8
0
  2
*D14
 70
     1
 10
0.0
 20
0.0
 30
0.0
  3
*D14
  1

  0
LINE
  5
193AC
  8
ér
 10
117957.7914895748
 20
-116955.4013513152
 30
0.0
 11
117949.8279561322
 21
-116955.4013513152
 31
0.0
  0
LINE
  5
193AD
  8
ér
 10
117958.8914895748
 20
-116985.4013513152
 30
0.0
 11
117949.8279561322
 21
-116985.4013513152
 31
0.0
  0
LINE
  5
193AE
  8
ér
 10
117949.8279561322
 20
-116956.50135131519
 30
0.0
 11
117949.8279561322
 21
-116984.3013513152
 31
0.0
  0
INSERT
  5
193AF
  8
ér
  2
_ORIGIN
 10
117949.8279561322
 20
-116955.4013513152
 30
0.0
 41
1.1000000000000001
 42
1.1000000000000001
 43
1.1000000000000001
 50
90.0
  0
INSERT
  5
193B0
  8
ér
  2
_ORIGIN
 10
117949.8279561322
 20
-116985.4013513152
 30
0.0
 41
1.1000000000000001
 42
1.1000000000000001
 43
1.1000000000000001
 50
270.0
  0
INSERT
  5
193B1
  8
ér
  2
*U100
 10
0.0
 20
0.0
 30
0.0
  0
POINT
  5
193B2
  8
DEFPOINTS
 62
     0
 10
117962.7914895748
 20
-116955.4013513152
 30
0.0
  0
POINT
  5
193B3
  8
DEFPOINTS
 62
     0
 10
117963.8914895748
 20
-116985.4013513152
 30
0.0
  0
POINT
  5
193B4
  8
DEFPOINTS
 62
     0
 10
117949.8279561322
 20
-116985.4013513152
 30
0.0
  0
ENDBLK
  5
186F7
  8
0
  0
BLOCK
  8
0
  2
*D15
 70
     1
 10
0.0
 20
0.0
 30
0.0
  3
*D15
  1

  0
LINE
  5
193B5
  8
ér
 10
117970.5914895748
 20
-116990.8013513152
 30
0.0
 11
117964.0474294649
 21
-116990.8013513152
 31
0.0
  0
LINE
  5
193B6
  8
ér
 10
117971.69148957481
 20
-116999.8008832324
 30
0.0
 11
117964.0474294649
 21
-116999.8008832324
 31
0.0
  0
LINE
  5
193B7
  8
ér
 10
117964.0474294649
 20
-116991.9013513152
 30
0.0
 11
117964.0474294649
 21
-116998.70088323241
 31
0.0
  0
INSERT
  5
193B8
  8
ér
  2
_ORIGIN
 10
117964.0474294649
 20
-116990.8013513152
 30
0.0
 41
1.1000000000000001
 42
1.1000000000000001
 43
1.1000000000000001
 50
90.0
  0
INSERT
  5
193B9
  8
ér
  2
_ORIGIN
 10
117964.0474294649
 20
-116999.8008832324
 30
0.0
 41
1.1000000000000001
 42
1.1000000000000001
 43
1.1000000000000001
 50
270.0
  0
INSERT
  5
193BA
  8
ér
  2
*U101
 10
0.0
 20
0.0
 30
0.0
  0
POINT
  5
193BB
  8
DEFPOINTS
 62
     0
 10
117975.5914895748
 20
-116990.8013513152
 30
0.0
  0
POINT
  5
193BC
  8
DEFPOINTS
 62
     0
 10
117976.69148957481
 20
-116999.8008832324
 30
0.0
  0
POINT
  5
193BD
  8
DEFPOINTS
 62
     0
 10
117964.0474294649
 20
-116999.8008832324
 30
0.0
  0
ENDBLK
  5
18718
  8
0
  0
BLOCK
  8
0
  2
*D16
 70
     1
 10
0.0
 20
0.0
 30
0.0
  3
*D16
  1

  0
LINE
  5
193BE
  8
ér
 10
117962.7914895748
 20
-116950.4013513152
 30
0.0
 11
117962.7914895748
 21
-116941.60197214071
 31
0.0
  0
LINE
  5
193BF
  8
ér
 10
117977.7914895748
 20
-116980.8013513152
 30
0.0
 11
117977.7914895748
 21
-116941.60197214071
 31
0.0
  0
LINE
  5
193C0
  8
ér
 10
117963.8914895748
 20
-116941.60197214071
 30
0.0
 11
117976.69148957481
 21
-116941.60197214071
 31
0.0
  0
INSERT
  5
193C1
  8
ér
  2
_ORIGIN
 10
117962.7914895748
 20
-116941.60197214071
 30
0.0
 41
1.1000000000000001
 42
1.1000000000000001
 43
1.1000000000000001
 50
180.0
  0
INSERT
  5
193C2
  8
ér
  2
_ORIGIN
 10
117977.7914895748
 20
-116941.60197214071
 30
0.0
 41
1.1000000000000001
 42
1.1000000000000001
 43
1.1000000000000001
  0
INSERT
  5
193C3
  8
ér
  2
*U102
 10
0.0
 20
0.0
 30
0.0
  0
POINT
  5
193C4
  8
DEFPOINTS
 62
     0
 10
117962.7914895748
 20
-116955.4013513152
 30
0.0
  0
POINT
  5
193C5
  8
DEFPOINTS
 62
     0
 10
117977.7914895748
 20
-116985.8013513152
 30
0.0
  0
POINT
  5
193C6
  8
DEFPOINTS
 62
     0
 10
117977.7914895748
 20
-116941.60197214071
 30
0.0
  0
ENDBLK
  5
18730
  8
0
  0
BLOCK
  8
0
  2
*D17
 70
     1
 10
0.0
 20
0.0
 30
0.0
  3
*D17
  1

  0
LINE
  5
193C7
  8
ér
 10
117981.7914895748
 20
-116984.8013513152
 30
0.0
 11
117996.4601870301
 21
-116984.8013513152
 31
0.0
  0
LINE
  5
193C8
  8
ér
 10
117981.69148957481
 20
-116999.8008832324
 30
0.0
 11
117996.4601870301
 21
-116999.8008832324
 31
0.0
  0
LINE
  5
193C9
  8
ér
 10
117996.4601870301
 20
-116985.9013513152
 30
0.0
 11
117996.4601870301
 21
-116998.70088323241
 31
0.0
  0
INSERT
  5
193CA
  8
ér
  2
_ORIGIN
 10
117996.4601870301
 20
-116984.8013513152
 30
0.0
 41
1.1000000000000001
 42
1.1000000000000001
 43
1.1000000000000001
 50
90.0
  0
INSERT
  5
193CB
  8
ér
  2
_ORIGIN
 10
117996.4601870301
 20
-116999.8008832324
 30
0.0
 41
1.1000000000000001
 42
1.1000000000000001
 43
1.1000000000000001
 50
270.0
  0
INSERT
  5
193CC
  8
ér
  2
*U103
 10
0.0
 20
0.0
 30
0.0
  0
POINT
  5
193CD
  8
DEFPOINTS
 62
     0
 10
117976.7914895748
 20
-116984.8013513152
 30
0.0
  0
POINT
  5
193CE
  8
DEFPOINTS
 62
     0
 10
117976.69148957481
 20
-116999.8008832324
 30
0.0
  0
POINT
  5
193CF
  8
DEFPOINTS
 62
     0
 10
117996.4601870301
 20
-116999.8008832324
 30
0.0
  0
ENDBLK
  5
18748
  8
0
  0
BLOCK
  8
0
  2
*D18
 70
     1
 10
0.0
 20
0.0
 30
0.0
  3
*D18
  1

  0
LINE
  5
19435
  8
ér
 10
118114.5037613368
 20
-116934.3059400912
 30
0.0
 11
118114.5037613368
 21
-116924.07669748311
 31
0.0
  0
LINE
  5
19436
  8
ér
 10
118094.5037613366
 20
-116960.40594009111
 30
0.0
 11
118094.5037613366
 21
-116924.07669748311
 31
0.0
  0
LINE
  5
19437
  8
ér
 10
118113.4037613368
 20
-116924.07669748311
 30
0.0
 11
118095.60376133661
 21
-116924.07669748311
 31
0.0
  0
INSERT
  5
19438
  8
ér
  2
_ORIGIN
 10
118114.5037613368
 20
-116924.07669748311
 30
0.0
 41
1.1000000000000001
 42
1.1000000000000001
 43
1.1000000000000001
  0
INSERT
  5
19439
  8
ér
  2
_ORIGIN
 10
118094.5037613366
 20
-116924.07669748311
 30
0.0
 41
1.1000000000000001
 42
1.1000000000000001
 43
1.1000000000000001
 50
180.0
  0
INSERT
  5
1943A
  8
ér
  2
*U110
 10
0.0
 20
0.0
 30
0.0
  0
POINT
  5
1943B
  8
DEFPOINTS
 62
     0
 10
118114.5037613368
 20
-116939.3059400912
 30
0.0
  0
POINT
  5
1943C
  8
DEFPOINTS
 62
     0
 10
118094.5037613366
 20
-116965.40594009111
 30
0.0
  0
POINT
  5
1943D
  8
DEFPOINTS
 62
     0
 10
118094.5037613366
 20
-116924.07669748311
 30
0.0
  0
ENDBLK
  5
18760
  8
0
  0
BLOCK
  8
0
  2
*D19
 70
     1
 10
0.0
 20
0.0
 30
0.0
  3
*D19
  1

  0
LINE
  5
187B7
  8
ér
 10
117843.34674200611
 20
-116961.2195735226
 30
0.0
 11
117855.5798000686
 21
-116961.2195735226
 31
0.0
  0
LINE
  5
187B8
  8
ér
 10
117843.34674200611
 20
-116979.7197926541
 30
0.0
 11
117855.5798000686
 21
-116979.7197926541
 31
0.0
  0
LINE
  5
187B9
  8
ér
 10
117855.5798000686
 20
-116962.3195735226
 30
0.0
 11
117855.5798000686
 21
-116978.61979265411
 31
0.0
  0
INSERT
  5
187BA
  8
ér
  2
_ORIGIN
 10
117855.5798000686
 20
-116961.2195735226
 30
0.0
 41
1.1000000000000001
 42
1.1000000000000001
 43
1.1000000000000001
 50
90.0
  0
INSERT
  5
187BB
  8
ér
  2
_ORIGIN
 10
117855.5798000686
 20
-116979.7197926541
 30
0.0
 41
1.1000000000000001
 42
1.1000000000000001
 43
1.1000000000000001
 50
270.0
  0
INSERT
  5
187BC
  8
ér
  2
*U92
 10
0.0
 20
0.0
 30
0.0
  0
POINT
  5
187BD
  8
DEFPOINTS
 62
     0
 10
117838.34674200611
 20
-116961.2195735226
 30
0.0
  0
POINT
  5
187BE
  8
DEFPOINTS
 62
     0
 10
117838.34674200611
 20
-116979.7197926541
 30
0.0
  0
POINT
  5
187BF
  8
DEFPOINTS
 62
     0
 10
117855.5798000686
 20
-116979.7197926541
 30
0.0
  0
ENDBLK
  5
187AC
  8
0
  0
BLOCK
  8
0
  2
*D20
 70
     1
 10
0.0
 20
0.0
 30
0.0
  3
*D20
  1

  0
LINE
  5
1943E
  8
ér
 10
118090.60376133661
 20
-116964.3059400911
 30
0.0
 11
118079.14675341221
 21
-116964.3059400911
 31
0.0
  0
LINE
  5
1943F
  8
ér
 10
118090.60376133669
 20
-116994.3059400912
 30
0.0
 11
118079.14675341221
 21
-116994.3059400912
 31
0.0
  0
LINE
  5
19440
  8
ér
 10
118079.14675341221
 20
-116965.40594009111
 30
0.0
 11
118079.14675341221
 21
-116993.2059400912
 31
0.0
  0
INSERT
  5
19441
  8
ér
  2
_ORIGIN
 10
118079.14675341221
 20
-116964.3059400911
 30
0.0
 41
1.1000000000000001
 42
1.1000000000000001
 43
1.1000000000000001
 50
90.0
  0
INSERT
  5
19442
  8
ér
  2
_ORIGIN
 10
118079.14675341221
 20
-116994.3059400912
 30
0.0
 41
1.1000000000000001
 42
1.1000000000000001
 43
1.1000000000000001
 50
270.0
  0
INSERT
  5
19443
  8
ér
  2
*U111
 10
0.0
 20
0.0
 30
0.0
  0
POINT
  5
19444
  8
DEFPOINTS
 62
     0
 10
118095.60376133661
 20
-116964.3059400911
 30
0.0
  0
POINT
  5
19445
  8
DEFPOINTS
 62
     0
 10
118095.60376133669
 20
-116994.3059400912
 30
0.0
  0
POINT
  5
19446
  8
DEFPOINTS
 62
     0
 10
118079.14675341221
 20
-116994.3059400912
 30
0.0
  0
ENDBLK
  5
187CD
  8
0
  0
BLOCK
  8
0
  2
*D21
 70
     1
 10
0.0
 20
0.0
 30
0.0
  3
*D21
  1

  0
LINE
  5
19447
  8
ér
 10
118094.5037613366
 20
-116998.2059400912
 30
0.0
 11
118094.5037613366
 21
-117007.296142311
 31
0.0
  0
LINE
  5
19448
  8
ér
 10
118124.5037613367
 20
-116998.20594009099
 30
0.0
 11
118124.5037613367
 21
-117007.296142311
 31
0.0
  0
LINE
  5
19449
  8
ér
 10
118095.60376133661
 20
-117007.296142311
 30
0.0
 11
118123.4037613367
 21
-117007.296142311
 31
0.0
  0
INSERT
  5
1944A
  8
ér
  2
_ORIGIN
 10
118094.5037613366
 20
-117007.296142311
 30
0.0
 41
1.1000000000000001
 42
1.1000000000000001
 43
1.1000000000000001
 50
180.0
  0
INSERT
  5
1944B
  8
ér
  2
_ORIGIN
 10
118124.5037613367
 20
-117007.296142311
 30
0.0
 41
1.1000000000000001
 42
1.1000000000000001
 43
1.1000000000000001
  0
INSERT
  5
1944C
  8
ér
  2
*U112
 10
0.0
 20
0.0
 30
0.0
  0
POINT
  5
1944D
  8
DEFPOINTS
 62
     0
 10
118094.5037613366
 20
-116993.2059400912
 30
0.0
  0
POINT
  5
1944E
  8
DEFPOINTS
 62
     0
 10
118124.5037613367
 20
-116993.20594009099
 30
0.0
  0
POINT
  5
1944F
  8
DEFPOINTS
 62
     0
 10
118124.5037613367
 20
-117007.296142311
 30
0.0
  0
ENDBLK
  5
187E5
  8
0
  0
BLOCK
  8
0
  2
*D22
 70
     1
 10
0.0
 20
0.0
 30
0.0
  3
*D22
  1

  0
LINE
  5
19450
  8
ér
 10
118128.4037613367
 20
-116994.3059400911
 30
0.0
 11
118164.9023296307
 21
-116994.3059400911
 31
0.0
  0
LINE
  5
19451
  8
ér
 10
118154.5037613366
 20
-116974.305940091
 30
0.0
 11
118164.9023296307
 21
-116974.305940091
 31
0.0
  0
LINE
  5
19452
  8
ér
 10
118164.9023296307
 20
-116993.20594009109
 30
0.0
 11
118164.9023296307
 21
-116975.405940091
 31
0.0
  0
INSERT
  5
19453
  8
ér
  2
_ORIGIN
 10
118164.9023296307
 20
-116994.3059400911
 30
0.0
 41
1.1000000000000001
 42
1.1000000000000001
 43
1.1000000000000001
 50
270.0
  0
INSERT
  5
19454
  8
ér
  2
_ORIGIN
 10
118164.9023296307
 20
-116974.305940091
 30
0.0
 41
1.1000000000000001
 42
1.1000000000000001
 43
1.1000000000000001
 50
90.0
  0
INSERT
  5
19455
  8
ér
  2
*U113
 10
0.0
 20
0.0
 30
0.0
  0
POINT
  5
19456
  8
DEFPOINTS
 62
     0
 10
118123.4037613367
 20
-116994.3059400911
 30
0.0
  0
POINT
  5
19457
  8
DEFPOINTS
 62
     0
 10
118149.5037613366
 20
-116974.305940091
 30
0.0
  0
POINT
  5
19458
  8
DEFPOINTS
 62
     0
 10
118164.9023296307
 20
-116974.305940091
 30
0.0
  0
ENDBLK
  5
187FD
  8
0
  0
BLOCK
  8
0
  2
*D23
 70
     1
 10
0.0
 20
0.0
 30
0.0
  3
*D23
  1

  0
LINE
  5
19459
  8
ér
 10
118109.5037613368
 20
-116939.3059400912
 30
0.0
 11
118079.14675341221
 21
-116939.3059400912
 31
0.0
  0
LINE
  5
1945A
  8
ér
 10
118090.60376133661
 20
-116964.3059400911
 30
0.0
 11
118079.14675341221
 21
-116964.3059400911
 31
0.0
  0
LINE
  5
1945B
  8
ér
 10
118079.14675341221
 20
-116940.40594009119
 30
0.0
 11
118079.14675341221
 21
-116963.20594009109
 31
0.0
  0
INSERT
  5
1945C
  8
ér
  2
_ORIGIN
 10
118079.14675341221
 20
-116939.3059400912
 30
0.0
 41
1.1000000000000001
 42
1.1000000000000001
 43
1.1000000000000001
 50
90.0
  0
INSERT
  5
1945D
  8
ér
  2
_ORIGIN
 10
118079.14675341221
 20
-116964.3059400911
 30
0.0
 41
1.1000000000000001
 42
1.1000000000000001
 43
1.1000000000000001
 50
270.0
  0
INSERT
  5
1945E
  8
ér
  2
*U114
 10
0.0
 20
0.0
 30
0.0
  0
POINT
  5
1945F
  8
DEFPOINTS
 62
     0
 10
118114.5037613368
 20
-116939.3059400912
 30
0.0
  0
POINT
  5
19460
  8
DEFPOINTS
 62
     0
 10
118095.60376133661
 20
-116964.3059400911
 30
0.0
  0
POINT
  5
19461
  8
DEFPOINTS
 62
     0
 10
118079.14675341221
 20
-116964.3059400911
 30
0.0
  0
ENDBLK
  5
1881E
  8
0
  0
BLOCK
  8
0
  2
*D24
 70
     1
 10
0.0
 20
0.0
 30
0.0
  3
*D24
  1

  0
LINE
  5
19462
  8
ér
 10
118149.5037613366
 20
-116979.305940091
 30
0.0
 11
118149.5037613366
 21
-117007.296142311
 31
0.0
  0
LINE
  5
19463
  8
ér
 10
118124.5037613367
 20
-116998.20594009099
 30
0.0
 11
118124.5037613367
 21
-117007.296142311
 31
0.0
  0
LINE
  5
19464
  8
ér
 10
118148.40376133659
 20
-117007.296142311
 30
0.0
 11
118125.60376133669
 21
-117007.296142311
 31
0.0
  0
INSERT
  5
19465
  8
ér
  2
_ORIGIN
 10
118149.5037613366
 20
-117007.296142311
 30
0.0
 41
1.1000000000000001
 42
1.1000000000000001
 43
1.1000000000000001
  0
INSERT
  5
19466
  8
ér
  2
_ORIGIN
 10
118124.5037613367
 20
-117007.296142311
 30
0.0
 41
1.1000000000000001
 42
1.1000000000000001
 43
1.1000000000000001
 50
180.0
  0
INSERT
  5
19467
  8
ér
  2
*U115
 10
0.0
 20
0.0
 30
0.0
  0
POINT
  5
19468
  8
DEFPOINTS
 62
     0
 10
118149.5037613366
 20
-116974.305940091
 30
0.0
  0
POINT
  5
19469
  8
DEFPOINTS
 62
     0
 10
118124.5037613367
 20
-116993.20594009099
 30
0.0
  0
POINT
  5
1946A
  8
DEFPOINTS
 62
     0
 10
118124.5037613367
 20
-117007.296142311
 30
0.0
  0
ENDBLK
  5
1882B
  8
0
  0
BLOCK
  8
0
  2
*D25
 70
     1
 10
0.0
 20
0.0
 30
0.0
  3
*D25
  1

  0
LINE
  5
19516
  8
ér
 10
118262.6498501843
 20
-116937.70734260741
 30
0.0
 11
118253.6468395025
 21
-116937.70734260741
 31
0.0
  0
LINE
  5
19517
  8
ér
 10
118263.74985018429
 20
-116977.70734260749
 30
0.0
 11
118253.6468395025
 21
-116977.70734260749
 31
0.0
  0
LINE
  5
19518
  8
ér
 10
118253.6468395025
 20
-116938.8073426074
 30
0.0
 11
118253.6468395025
 21
-116976.6073426075
 31
0.0
  0
INSERT
  5
19519
  8
ér
  2
_ORIGIN
 10
118253.6468395025
 20
-116937.70734260741
 30
0.0
 41
1.1000000000000001
 42
1.1000000000000001
 43
1.1000000000000001
 50
90.0
  0
INSERT
  5
1951A
  8
ér
  2
_ORIGIN
 10
118253.6468395025
 20
-116977.70734260749
 30
0.0
 41
1.1000000000000001
 42
1.1000000000000001
 43
1.1000000000000001
 50
270.0
  0
INSERT
  5
1951B
  8
ér
  2
*U120
 10
0.0
 20
0.0
 30
0.0
  0
POINT
  5
1951C
  8
DEFPOINTS
 62
     0
 10
118267.6498501843
 20
-116937.70734260741
 30
0.0
  0
POINT
  5
1951D
  8
DEFPOINTS
 62
     0
 10
118268.74985018429
 20
-116977.70734260749
 30
0.0
  0
POINT
  5
1951E
  8
DEFPOINTS
 62
     0
 10
118253.6468395025
 20
-116977.70734260749
 30
0.0
  0
ENDBLK
  5
18838
  8
0
  0
BLOCK
  8
0
  2
*D26
 70
     1
 10
0.0
 20
0.0
 30
0.0
  3
*D26
  1

  0
LINE
  5
1951F
  8
ér
 10
118287.6498501843
 20
-116973.20734260741
 30
0.0
 11
118287.6498501843
 21
-116928.5372869728
 31
0.0
  0
LINE
  5
19520
  8
ér
 10
118267.6498501843
 20
-116932.70734260741
 30
0.0
 11
118267.6498501843
 21
-116928.5372869728
 31
0.0
  0
LINE
  5
19521
  8
ér
 10
118286.5498501843
 20
-116928.5372869728
 30
0.0
 11
118268.74985018429
 21
-116928.5372869728
 31
0.0
  0
INSERT
  5
19522
  8
ér
  2
_ORIGIN
 10
118287.6498501843
 20
-116928.5372869728
 30
0.0
 41
1.1000000000000001
 42
1.1000000000000001
 43
1.1000000000000001
  0
INSERT
  5
19523
  8
ér
  2
_ORIGIN
 10
118267.6498501843
 20
-116928.5372869728
 30
0.0
 41
1.1000000000000001
 42
1.1000000000000001
 43
1.1000000000000001
 50
180.0
  0
INSERT
  5
19524
  8
ér
  2
*U121
 10
0.0
 20
0.0
 30
0.0
  0
POINT
  5
19525
  8
DEFPOINTS
 62
     0
 10
118287.6498501843
 20
-116978.20734260741
 30
0.0
  0
POINT
  5
19526
  8
DEFPOINTS
 62
     0
 10
118267.6498501843
 20
-116937.70734260741
 30
0.0
  0
POINT
  5
19527
  8
DEFPOINTS
 62
     0
 10
118267.6498501843
 20
-116928.5372869728
 30
0.0
  0
ENDBLK
  5
18859
  8
0
  0
BLOCK
  8
0
  2
*D27
 70
     1
 10
0.0
 20
0.0
 30
0.0
  3
*D27
  1

  0
LINE
  5
19528
  8
ér
 10
118267.6498501843
 20
-117002.00734260739
 30
0.0
 11
118267.6498501843
 21
-117008.3717225107
 31
0.0
  0
LINE
  5
19529
  8
ér
 10
118287.6498501843
 20
-117002.00734260739
 30
0.0
 11
118287.6498501843
 21
-117008.3717225107
 31
0.0
  0
LINE
  5
1952A
  8
ér
 10
118268.74985018429
 20
-117008.3717225107
 30
0.0
 11
118286.5498501843
 21
-117008.3717225107
 31
0.0
  0
INSERT
  5
1952B
  8
ér
  2
_ORIGIN
 10
118267.6498501843
 20
-117008.3717225107
 30
0.0
 41
1.1000000000000001
 42
1.1000000000000001
 43
1.1000000000000001
 50
180.0
  0
INSERT
  5
1952C
  8
ér
  2
_ORIGIN
 10
118287.6498501843
 20
-117008.3717225107
 30
0.0
 41
1.1000000000000001
 42
1.1000000000000001
 43
1.1000000000000001
  0
INSERT
  5
1952D
  8
ér
  2
*U122
 10
0.0
 20
0.0
 30
0.0
  0
POINT
  5
1952E
  8
DEFPOINTS
 62
     0
 10
118267.6498501843
 20
-116997.00734260739
 30
0.0
  0
POINT
  5
1952F
  8
DEFPOINTS
 62
     0
 10
118287.6498501843
 20
-116997.00734260739
 30
0.0
  0
POINT
  5
19530
  8
DEFPOINTS
 62
     0
 10
118287.6498501843
 20
-117008.3717225107
 30
0.0
  0
ENDBLK
  5
1889B
  8
0
  0
BLOCK
  8
0
  2
*D28
 70
     1
 10
0.0
 20
0.0
 30
0.0
  3
*D28
  1

  0
LINE
  5
19531
  8
ér
 10
118262.6498501843
 20
-116992.1073426074
 30
0.0
 11
118253.6468395025
 21
-116992.1073426074
 31
0.0
  0
LINE
  5
19532
  8
ér
 10
118263.74985018429
 20
-116998.1073426074
 30
0.0
 11
118253.6468395025
 21
-116998.1073426074
 31
0.0
  0
LINE
  5
19533
  8
ér
 10
118253.6468395025
 20
-116993.20734260741
 30
0.0
 11
118253.6468395025
 21
-116997.00734260739
 31
0.0
  0
INSERT
  5
19534
  8
ér
  2
_ORIGIN
 10
118253.6468395025
 20
-116992.1073426074
 30
0.0
 41
1.1000000000000001
 42
1.1000000000000001
 43
1.1000000000000001
 50
90.0
  0
INSERT
  5
19535
  8
ér
  2
_ORIGIN
 10
118253.6468395025
 20
-116998.1073426074
 30
0.0
 41
1.1000000000000001
 42
1.1000000000000001
 43
1.1000000000000001
 50
270.0
  0
INSERT
  5
19536
  8
ér
  2
*U123
 10
0.0
 20
0.0
 30
0.0
  0
POINT
  5
19537
  8
DEFPOINTS
 62
     0
 10
118267.6498501843
 20
-116992.1073426074
 30
0.0
  0
POINT
  5
19538
  8
DEFPOINTS
 62
     0
 10
118268.74985018429
 20
-116998.1073426074
 30
0.0
  0
POINT
  5
19539
  8
DEFPOINTS
 62
     0
 10
118253.6468395025
 20
-116998.1073426074
 30
0.0
  0
ENDBLK
  5
188E6
  8
0
  0
BLOCK
  8
0
  2
*D29
 70
     1
 10
0.0
 20
0.0
 30
0.0
  3
*D29
  1

  0
LINE
  5
1970F
  8
ér
 10
118397.92855284479
 20
-116954.4765189226
 30
0.0
 11
118397.92855284479
 21
-116943.7675663065
 31
0.0
  0
LINE
  5
19710
  8
ér
 10
118427.92855284479
 20
-116954.4765189226
 30
0.0
 11
118427.92855284479
 21
-116943.7675663065
 31
0.0
  0
LINE
  5
19711
  8
ér
 10
118399.0285528448
 20
-116943.7675663065
 30
0.0
 11
118426.8285528448
 21
-116943.7675663065
 31
0.0
  0
INSERT
  5
19712
  8
ér
  2
_ORIGIN
 10
118397.92855284479
 20
-116943.7675663065
 30
0.0
 41
1.1000000000000001
 42
1.1000000000000001
 43
1.1000000000000001
 50
180.0
  0
INSERT
  5
19713
  8
ér
  2
_ORIGIN
 10
118427.92855284479
 20
-116943.7675663065
 30
0.0
 41
1.1000000000000001
 42
1.1000000000000001
 43
1.1000000000000001
  0
INSERT
  5
19714
  8
ér
  2
*U129
 10
0.0
 20
0.0
 30
0.0
  0
POINT
  5
19715
  8
DEFPOINTS
 62
     0
 10
118397.92855284479
 20
-116959.4765189226
 30
0.0
  0
POINT
  5
19716
  8
DEFPOINTS
 62
     0
 10
118427.92855284479
 20
-116959.4765189226
 30
0.0
  0
POINT
  5
19717
  8
DEFPOINTS
 62
     0
 10
118427.92855284479
 20
-116943.7675663065
 30
0.0
  0
ENDBLK
  5
18914
  8
0
  0
BLOCK
  8
0
  2
*D30
 70
     1
 10
0.0
 20
0.0
 30
0.0
  3
*D30
  1

  0
LINE
  5
19718
  8
ér
 10
118427.92855284479
 20
-116954.4765189226
 30
0.0
 11
118427.92855284479
 21
-116943.7675663065
 31
0.0
  0
LINE
  5
19719
  8
ér
 10
118437.9286416035
 20
-116961.77673805421
 30
0.0
 11
118437.9286416035
 21
-116943.7675663065
 31
0.0
  0
LINE
  5
1971A
  8
ér
 10
118429.0285528448
 20
-116943.7675663065
 30
0.0
 11
118436.8286416035
 21
-116943.7675663065
 31
0.0
  0
INSERT
  5
1971B
  8
ér
  2
_ORIGIN
 10
118427.92855284479
 20
-116943.7675663065
 30
0.0
 41
1.1000000000000001
 42
1.1000000000000001
 43
1.1000000000000001
 50
180.0
  0
INSERT
  5
1971C
  8
ér
  2
_ORIGIN
 10
118437.9286416035
 20
-116943.7675663065
 30
0.0
 41
1.1000000000000001
 42
1.1000000000000001
 43
1.1000000000000001
  0
INSERT
  5
1971D
  8
ér
  2
*U130
 10
0.0
 20
0.0
 30
0.0
  0
POINT
  5
1971E
  8
DEFPOINTS
 62
     0
 10
118427.92855284479
 20
-116959.4765189226
 30
0.0
  0
POINT
  5
1971F
  8
DEFPOINTS
 62
     0
 10
118437.9286416035
 20
-116966.77673805421
 30
0.0
  0
POINT
  5
19720
  8
DEFPOINTS
 62
     0
 10
118437.9286416035
 20
-116943.7675663065
 30
0.0
  0
ENDBLK
  5
1892C
  8
0
  0
BLOCK
  8
0
  2
*D31
 70
     1
 10
0.0
 20
0.0
 30
0.0
  3
*D31
  1

  0
LINE
  5
19721
  8
ér
 10
118432.92855284479
 20
-116959.4765189226
 30
0.0
 11
118460.03647804139
 21
-116959.4765189226
 31
0.0
  0
LINE
  5
19722
  8
ér
 10
118442.9286416035
 20
-116968.1767380541
 30
0.0
 11
118460.03647804139
 21
-116968.1767380541
 31
0.0
  0
LINE
  5
19723
  8
ér
 10
118460.03647804139
 20
-116960.57651892259
 30
0.0
 11
118460.03647804139
 21
-116967.07673805401
 31
0.0
  0
INSERT
  5
19724
  8
ér
  2
_ORIGIN
 10
118460.03647804139
 20
-116959.4765189226
 30
0.0
 41
1.1000000000000001
 42
1.1000000000000001
 43
1.1000000000000001
 50
90.0
  0
INSERT
  5
19725
  8
ér
  2
_ORIGIN
 10
118460.03647804139
 20
-116968.1767380541
 30
0.0
 41
1.1000000000000001
 42
1.1000000000000001
 43
1.1000000000000001
 50
270.0
  0
INSERT
  5
19726
  8
ér
  2
*U131
 10
0.0
 20
0.0
 30
0.0
  0
POINT
  5
19727
  8
DEFPOINTS
 62
     0
 10
118427.92855284479
 20
-116959.4765189226
 30
0.0
  0
POINT
  5
19728
  8
DEFPOINTS
 62
     0
 10
118437.9286416035
 20
-116968.1767380541
 30
0.0
  0
POINT
  5
19729
  8
DEFPOINTS
 62
     0
 10
118460.03647804139
 20
-116968.1767380541
 30
0.0
  0
ENDBLK
  5
189B5
  8
0
  0
BLOCK
  8
0
  2
*D32
 70
     1
 10
0.0
 20
0.0
 30
0.0
  3
*D32
  1

  0
LINE
  5
1972A
  8
ér
 10
118442.9286416035
 20
-116968.1767380541
 30
0.0
 11
118460.03647804139
 21
-116968.1767380541
 31
0.0
  0
LINE
  5
1972B
  8
ér
 10
118432.92855284479
 20
-116978.1767380541
 30
0.0
 11
118460.03647804139
 21
-116978.1767380541
 31
0.0
  0
LINE
  5
1972C
  8
ér
 10
118460.03647804139
 20
-116969.2767380541
 30
0.0
 11
118460.03647804139
 21
-116977.07673805409
 31
0.0
  0
INSERT
  5
1972D
  8
ér
  2
_ORIGIN
 10
118460.03647804139
 20
-116968.1767380541
 30
0.0
 41
1.1000000000000001
 42
1.1000000000000001
 43
1.1000000000000001
 50
90.0
  0
INSERT
  5
1972E
  8
ér
  2
_ORIGIN
 10
118460.03647804139
 20
-116978.1767380541
 30
0.0
 41
1.1000000000000001
 42
1.1000000000000001
 43
1.1000000000000001
 50
270.0
  0
INSERT
  5
1972F
  8
ér
  2
*U132
 10
0.0
 20
0.0
 30
0.0
  0
POINT
  5
19730
  8
DEFPOINTS
 62
     0
 10
118437.9286416035
 20
-116968.1767380541
 30
0.0
  0
POINT
  5
19731
  8
DEFPOINTS
 62
     0
 10
118427.92855284479
 20
-116978.1767380541
 30
0.0
  0
POINT
  5
19732
  8
DEFPOINTS
 62
     0
 10
118460.03647804139
 20
-116978.1767380541
 30
0.0
  0
ENDBLK
  5
189DD
  8
0
  0
BLOCK
  8
0
  2
*D33
 70
     1
 10
0.0
 20
0.0
 30
0.0
  3
*D33
  1

  0
LINE
  5
19733
  8
ér
 10
118407.92855284479
 20
-116978.1767380541
 30
0.0
 11
118389.4722708976
 21
-116978.1767380541
 31
0.0
  0
LINE
  5
19734
  8
ér
 10
118407.92855284479
 20
-116975.17667454459
 30
0.0
 11
118389.4722708976
 21
-116975.17667454459
 31
0.0
  0
LINE
  5
19735
  8
ér
 10
118389.4722708976
 20
-116979.2767380541
 30
0.0
 11
118389.4722708976
 21
-116980.3767380541
 31
0.0
  0
LINE
  5
19736
  8
ér
 10
118389.4722708976
 20
-116974.0766745446
 30
0.0
 11
118389.4722708976
 21
-116972.9766745446
 31
0.0
  0
LINE
  5
19737
  8
ér
 10
118389.4722708976
 20
-116978.1767380541
 30
0.0
 11
118389.4722708976
 21
-116975.17667454459
 31
0.0
  0
INSERT
  5
19738
  8
ér
  2
_ORIGIN
 10
118389.4722708976
 20
-116978.1767380541
 30
0.0
 41
1.1000000000000001
 42
1.1000000000000001
 43
1.1000000000000001
 50
90.0
  0
INSERT
  5
19739
  8
ér
  2
_ORIGIN
 10
118389.4722708976
 20
-116975.17667454459
 30
0.0
 41
1.1000000000000001
 42
1.1000000000000001
 43
1.1000000000000001
 50
270.0
  0
INSERT
  5
1973A
  8
ér
  2
*U133
 10
0.0
 20
0.0
 30
0.0
  0
POINT
  5
1973B
  8
DEFPOINTS
 62
     0
 10
118412.92855284479
 20
-116978.1767380541
 30
0.0
  0
POINT
  5
1973C
  8
DEFPOINTS
 62
     0
 10
118412.92855284479
 20
-116975.17667454459
 30
0.0
  0
POINT
  5
1973D
  8
DEFPOINTS
 62
     0
 10
118389.4722708976
 20
-116975.17667454459
 30
0.0
  0
ENDBLK
  5
189FE
  8
0
  0
BLOCK
  8
0
  2
*D34
 70
     1
 10
0.0
 20
0.0
 30
0.0
  3
*D34
  1

  0
LINE
  5
1973E
  8
ér
 10
118392.92855284479
 20
-116960.6765189226
 30
0.0
 11
118389.4722708976
 21
-116960.6765189226
 31
0.0
  0
LINE
  5
1973F
  8
ér
 10
118407.92855284479
 20
-116975.17667454459
 30
0.0
 11
118389.4722708976
 21
-116975.17667454459
 31
0.0
  0
LINE
  5
19740
  8
ér
 10
118389.4722708976
 20
-116961.7765189226
 30
0.0
 11
118389.4722708976
 21
-116974.0766745446
 31
0.0
  0
INSERT
  5
19741
  8
ér
  2
_ORIGIN
 10
118389.4722708976
 20
-116960.6765189226
 30
0.0
 41
1.1000000000000001
 42
1.1000000000000001
 43
1.1000000000000001
 50
90.0
  0
INSERT
  5
19742
  8
ér
  2
_ORIGIN
 10
118389.4722708976
 20
-116975.17667454459
 30
0.0
 41
1.1000000000000001
 42
1.1000000000000001
 43
1.1000000000000001
 50
270.0
  0
INSERT
  5
19743
  8
ér
  2
*U134
 10
0.0
 20
0.0
 30
0.0
  0
POINT
  5
19744
  8
DEFPOINTS
 62
     0
 10
118397.92855284479
 20
-116960.6765189226
 30
0.0
  0
POINT
  5
19745
  8
DEFPOINTS
 62
     0
 10
118412.92855284479
 20
-116975.17667454459
 30
0.0
  0
POINT
  5
19746
  8
DEFPOINTS
 62
     0
 10
118389.4722708976
 20
-116975.17667454459
 30
0.0
  0
ENDBLK
  5
18A25
  8
0
  0
BLOCK
  8
0
  2
*D35
 70
     1
 10
0.0
 20
0.0
 30
0.0
  3
*D35
  1

  0
LINE
  5
19747
  8
ér
 10
118412.92855284479
 20
-116983.1767380541
 30
0.0
 11
118412.92855284479
 21
-116991.91275899509
 31
0.0
  0
LINE
  5
19748
  8
ér
 10
118427.92855284479
 20
-116983.1767380541
 30
0.0
 11
118427.92855284479
 21
-116991.91275899509
 31
0.0
  0
LINE
  5
19749
  8
ér
 10
118414.0285528448
 20
-116991.91275899509
 30
0.0
 11
118426.8285528448
 21
-116991.91275899509
 31
0.0
  0
INSERT
  5
1974A
  8
ér
  2
_ORIGIN
 10
118412.92855284479
 20
-116991.91275899509
 30
0.0
 41
1.1000000000000001
 42
1.1000000000000001
 43
1.1000000000000001
 50
180.0
  0
INSERT
  5
1974B
  8
ér
  2
_ORIGIN
 10
118427.92855284479
 20
-116991.91275899509
 30
0.0
 41
1.1000000000000001
 42
1.1000000000000001
 43
1.1000000000000001
  0
INSERT
  5
1974C
  8
ér
  2
*U135
 10
0.0
 20
0.0
 30
0.0
  0
POINT
  5
1974D
  8
DEFPOINTS
 62
     0
 10
118412.92855284479
 20
-116978.1767380541
 30
0.0
  0
POINT
  5
1974E
  8
DEFPOINTS
 62
     0
 10
118427.92855284479
 20
-116978.1767380541
 30
0.0
  0
POINT
  5
1974F
  8
DEFPOINTS
 62
     0
 10
118427.92855284479
 20
-116991.91275899509
 30
0.0
  0
ENDBLK
  5
18A4F
  8
0
  0
BLOCK
  8
0
  2
*D36
 70
     1
 10
0.0
 20
0.0
 30
0.0
  3
*D36
  1

  0
LINE
  5
19750
  8
ér
 10
117799.570583544
 20
-117089.7197926542
 30
0.0
 11
117799.570583544
 21
-117081.9319886845
 31
0.0
  0
LINE
  5
19751
  8
ér
 10
117839.570583544
 20
-117089.7197926542
 30
0.0
 11
117839.570583544
 21
-117081.9319886845
 31
0.0
  0
LINE
  5
19752
  8
ér
 10
117800.67058354399
 20
-117081.9319886845
 30
0.0
 11
117838.470583544
 21
-117081.9319886845
 31
0.0
  0
INSERT
  5
19753
  8
ér
  2
_ORIGIN
 10
117799.570583544
 20
-117081.9319886845
 30
0.0
 41
1.1000000000000001
 42
1.1000000000000001
 43
1.1000000000000001
 50
180.0
  0
INSERT
  5
19754
  8
ér
  2
_ORIGIN
 10
117839.570583544
 20
-117081.9319886845
 30
0.0
 41
1.1000000000000001
 42
1.1000000000000001
 43
1.1000000000000001
  0
INSERT
  5
19755
  8
ér
  2
*U136
 10
0.0
 20
0.0
 30
0.0
  0
POINT
  5
19756
  8
DEFPOINTS
 62
     0
 10
117799.570583544
 20
-117094.7197926542
 30
0.0
  0
POINT
  5
19757
  8
DEFPOINTS
 62
     0
 10
117839.570583544
 20
-117094.7197926542
 30
0.0
  0
POINT
  5
19758
  8
DEFPOINTS
 62
     0
 10
117839.570583544
 20
-117081.9319886845
 30
0.0
  0
ENDBLK
  5
18A79
  8
0
  0
BLOCK
  8
0
  2
*D37
 70
     1
 10
0.0
 20
0.0
 30
0.0
  3
*D37
  1

  0
LINE
  5
19759
  8
ér
 10
117844.570583544
 20
-117094.7197926542
 30
0.0
 11
117859.53634723451
 21
-117094.7197926542
 31
0.0
  0
LINE
  5
1975A
  8
ér
 10
117834.5705294902
 20
-117112.91979265409
 30
0.0
 11
117859.53634723451
 21
-117112.91979265409
 31
0.0
  0
LINE
  5
1975B
  8
ér
 10
117859.53634723451
 20
-117095.81979265421
 30
0.0
 11
117859.53634723451
 21
-117111.8197926541
 31
0.0
  0
INSERT
  5
1975C
  8
ér
  2
_ORIGIN
 10
117859.53634723451
 20
-117094.7197926542
 30
0.0
 41
1.1000000000000001
 42
1.1000000000000001
 43
1.1000000000000001
 50
90.0
  0
INSERT
  5
1975D
  8
ér
  2
_ORIGIN
 10
117859.53634723451
 20
-117112.91979265409
 30
0.0
 41
1.1000000000000001
 42
1.1000000000000001
 43
1.1000000000000001
 50
270.0
  0
INSERT
  5
1975E
  8
ér
  2
*U137
 10
0.0
 20
0.0
 30
0.0
  0
POINT
  5
1975F
  8
DEFPOINTS
 62
     0
 10
117839.570583544
 20
-117094.7197926542
 30
0.0
  0
POINT
  5
19760
  8
DEFPOINTS
 62
     0
 10
117829.5705294902
 20
-117112.91979265409
 30
0.0
  0
POINT
  5
19761
  8
DEFPOINTS
 62
     0
 10
117859.53634723451
 20
-117112.91979265409
 30
0.0
  0
ENDBLK
  5
18A91
  8
0
  0
BLOCK
  8
0
  2
*D38
 70
     1
 10
0.0
 20
0.0
 30
0.0
  3
*D38
  1

  0
LINE
  5
19762
  8
ér
 10
117844.570583544
 20
-117095.91979265409
 30
0.0
 11
117851.2837026069
 21
-117095.91979265409
 31
0.0
  0
LINE
  5
19763
  8
ér
 10
117834.5705835441
 20
-117110.4197926542
 30
0.0
 11
117851.2837026069
 21
-117110.4197926542
 31
0.0
  0
LINE
  5
19764
  8
ér
 10
117851.2837026069
 20
-117097.0197926541
 30
0.0
 11
117851.2837026069
 21
-117109.31979265421
 31
0.0
  0
INSERT
  5
19765
  8
ér
  2
_ORIGIN
 10
117851.2837026069
 20
-117095.91979265409
 30
0.0
 41
1.1000000000000001
 42
1.1000000000000001
 43
1.1000000000000001
 50
90.0
  0
INSERT
  5
19766
  8
ér
  2
_ORIGIN
 10
117851.2837026069
 20
-117110.4197926542
 30
0.0
 41
1.1000000000000001
 42
1.1000000000000001
 43
1.1000000000000001
 50
270.0
  0
INSERT
  5
19767
  8
ér
  2
*U138
 10
0.0
 20
0.0
 30
0.0
  0
POINT
  5
19768
  8
DEFPOINTS
 62
     0
 10
117839.570583544
 20
-117095.91979265409
 30
0.0
  0
POINT
  5
19769
  8
DEFPOINTS
 62
     0
 10
117829.5705835441
 20
-117110.4197926542
 30
0.0
  0
POINT
  5
1976A
  8
DEFPOINTS
 62
     0
 10
117851.2837026069
 20
-117110.4197926542
 30
0.0
  0
ENDBLK
  5
18AA9
  8
0
  0
BLOCK
  8
0
  2
*D39
 70
     1
 10
0.0
 20
0.0
 30
0.0
  3
*D39
  1

  0
LINE
  5
1976B
  8
ér
 10
117829.5705294902
 20
-117117.91979265409
 30
0.0
 11
117829.5705294902
 21
-117126.8124820511
 31
0.0
  0
LINE
  5
1976C
  8
ér
 10
117809.570583544
 20
-117117.91979265409
 30
0.0
 11
117809.570583544
 21
-117126.8124820511
 31
0.0
  0
LINE
  5
1976D
  8
ér
 10
117828.47052949019
 20
-117126.8124820511
 30
0.0
 11
117810.67058354399
 21
-117126.8124820511
 31
0.0
  0
INSERT
  5
1976E
  8
ér
  2
_ORIGIN
 10
117829.5705294902
 20
-117126.8124820511
 30
0.0
 41
1.1000000000000001
 42
1.1000000000000001
 43
1.1000000000000001
  0
INSERT
  5
1976F
  8
ér
  2
_ORIGIN
 10
117809.570583544
 20
-117126.8124820511
 30
0.0
 41
1.1000000000000001
 42
1.1000000000000001
 43
1.1000000000000001
 50
180.0
  0
INSERT
  5
19770
  8
ér
  2
*U139
 10
0.0
 20
0.0
 30
0.0
  0
POINT
  5
19771
  8
DEFPOINTS
 62
     0
 10
117829.5705294902
 20
-117112.91979265409
 30
0.0
  0
POINT
  5
19772
  8
DEFPOINTS
 62
     0
 10
117809.570583544
 20
-117112.91979265409
 30
0.0
  0
POINT
  5
19773
  8
DEFPOINTS
 62
     0
 10
117809.570583544
 20
-117126.8124820511
 30
0.0
  0
ENDBLK
  5
18AD9
  8
0
  0
BLOCK
  8
0
  2
*D40
 70
     1
 10
0.0
 20
0.0
 30
0.0
  3
*D40
  1

  0
LINE
  5
19774
  8
ér
 10
117834.5705835441
 20
-117110.4197926542
 30
0.0
 11
117851.2837026069
 21
-117110.4197926542
 31
0.0
  0
LINE
  5
19775
  8
ér
 10
117834.5705835441
 20
-117112.91979265409
 30
0.0
 11
117851.2837026069
 21
-117112.91979265409
 31
0.0
  0
LINE
  5
19776
  8
ér
 10
117851.2837026069
 20
-117109.31979265421
 30
0.0
 11
117851.2837026069
 21
-117108.2197926542
 31
0.0
  0
LINE
  5
19777
  8
ér
 10
117851.2837026069
 20
-117114.0197926541
 30
0.0
 11
117851.2837026069
 21
-117115.11979265411
 31
0.0
  0
INSERT
  5
19778
  8
ér
  2
*U140
 10
0.0
 20
0.0
 30
0.0
  0
LINE
  5
19779
  8
ér
 10
117851.2837026069
 20
-117110.4197926542
 30
0.0
 11
117851.2837026069
 21
-117112.91979265409
 31
0.0
  0
INSERT
  5
1977A
  8
ér
  2
_ORIGIN
 10
117851.2837026069
 20
-117110.4197926542
 30
0.0
 41
1.1000000000000001
 42
1.1000000000000001
 43
1.1000000000000001
 50
270.0
  0
INSERT
  5
1977B
  8
ér
  2
_ORIGIN
 10
117851.2837026069
 20
-117112.91979265409
 30
0.0
 41
1.1000000000000001
 42
1.1000000000000001
 43
1.1000000000000001
 50
90.0
  0
POINT
  5
1977C
  8
DEFPOINTS
 62
     0
 10
117829.5705835441
 20
-117110.4197926542
 30
0.0
  0
POINT
  5
1977D
  8
DEFPOINTS
 62
     0
 10
117829.5705835441
 20
-117112.91979265409
 30
0.0
  0
POINT
  5
1977E
  8
DEFPOINTS
 62
     0
 10
117851.2837026069
 20
-117112.91979265409
 30
0.0
  0
ENDBLK
  5
18AFC
  8
0
  0
BLOCK
  8
0
  2
*D41
 70
     1
 10
0.0
 20
0.0
 30
0.0
  3
*D41
  1

  0
LINE
  5
193FF
  8
ér
 10
117936.47186689659
 20
-117201.6825755957
 30
0.0
 11
117936.47186689659
 21
-117194.6114806212
 31
0.0
  0
LINE
  5
19400
  8
ér
 10
117971.47186689659
 20
-117203.2225755957
 30
0.0
 11
117971.47186689659
 21
-117194.6114806212
 31
0.0
  0
LINE
  5
19401
  8
ér
 10
117937.5718668966
 20
-117194.6114806212
 30
0.0
 11
117970.3718668966
 21
-117194.6114806212
 31
0.0
  0
INSERT
  5
19402
  8
ér
  2
_ORIGIN
 10
117936.47186689659
 20
-117194.6114806212
 30
0.0
 41
1.1000000000000001
 42
1.1000000000000001
 43
1.1000000000000001
 50
180.0
  0
INSERT
  5
19403
  8
ér
  2
_ORIGIN
 10
117971.47186689659
 20
-117194.6114806212
 30
0.0
 41
1.1000000000000001
 42
1.1000000000000001
 43
1.1000000000000001
  0
INSERT
  5
19404
  8
ér
  2
*U104
 10
0.0
 20
0.0
 30
0.0
  0
POINT
  5
19405
  8
DEFPOINTS
 62
     0
 10
117936.47186689659
 20
-117206.6825755957
 30
0.0
  0
POINT
  5
19406
  8
DEFPOINTS
 62
     0
 10
117971.47186689659
 20
-117208.2225755957
 30
0.0
  0
POINT
  5
19407
  8
DEFPOINTS
 62
     0
 10
117971.47186689659
 20
-117194.6114806212
 30
0.0
  0
ENDBLK
  5
18B41
  8
0
  0
BLOCK
  8
0
  2
*D42
 70
     1
 10
0.0
 20
0.0
 30
0.0
  3
*D42
  1

  0
LINE
  5
19408
  8
ér
 10
117974.9318668966
 20
-117206.6825755957
 30
0.0
 11
117989.68180113941
 21
-117206.6825755957
 31
0.0
  0
LINE
  5
19409
  8
ér
 10
117974.9318668966
 20
-117252.6825755957
 30
0.0
 11
117989.68180113941
 21
-117252.6825755957
 31
0.0
  0
LINE
  5
1940A
  8
ér
 10
117989.68180113941
 20
-117207.7825755957
 30
0.0
 11
117989.68180113941
 21
-117251.5825755957
 31
0.0
  0
INSERT
  5
1940B
  8
ér
  2
_ORIGIN
 10
117989.68180113941
 20
-117206.6825755957
 30
0.0
 41
1.1000000000000001
 42
1.1000000000000001
 43
1.1000000000000001
 50
90.0
  0
INSERT
  5
1940C
  8
ér
  2
_ORIGIN
 10
117989.68180113941
 20
-117252.6825755957
 30
0.0
 41
1.1000000000000001
 42
1.1000000000000001
 43
1.1000000000000001
 50
270.0
  0
INSERT
  5
1940D
  8
ér
  2
*U105
 10
0.0
 20
0.0
 30
0.0
  0
POINT
  5
1940E
  8
DEFPOINTS
 62
     0
 10
117969.9318668967
 20
-117206.6825755957
 30
0.0
  0
POINT
  5
1940F
  8
DEFPOINTS
 62
     0
 10
117969.9318668967
 20
-117252.6825755957
 30
0.0
  0
POINT
  5
19410
  8
DEFPOINTS
 62
     0
 10
117989.68180113941
 20
-117252.6825755957
 30
0.0
  0
ENDBLK
  5
18B6B
  8
0
  0
BLOCK
  8
0
  2
*D43
 70
     1
 10
0.0
 20
0.0
 30
0.0
  3
*D43
  1

  0
LINE
  5
19411
  8
ér
 10
117948.0118668966
 20
-117242.6825755957
 30
0.0
 11
117938.1645712594
 21
-117242.6825755957
 31
0.0
  0
LINE
  5
19412
  8
ér
 10
117948.0118668966
 20
-117252.6825755957
 30
0.0
 11
117938.1645712594
 21
-117252.6825755957
 31
0.0
  0
LINE
  5
19413
  8
ér
 10
117938.1645712594
 20
-117243.7825755957
 30
0.0
 11
117938.1645712594
 21
-117251.5825755957
 31
0.0
  0
INSERT
  5
19414
  8
ér
  2
_ORIGIN
 10
117938.1645712594
 20
-117242.6825755957
 30
0.0
 41
1.1000000000000001
 42
1.1000000000000001
 43
1.1000000000000001
 50
90.0
  0
INSERT
  5
19415
  8
ér
  2
_ORIGIN
 10
117938.1645712594
 20
-117252.6825755957
 30
0.0
 41
1.1000000000000001
 42
1.1000000000000001
 43
1.1000000000000001
 50
270.0
  0
INSERT
  5
19416
  8
ér
  2
*U106
 10
0.0
 20
0.0
 30
0.0
  0
POINT
  5
19417
  8
DEFPOINTS
 62
     0
 10
117953.0118668966
 20
-117242.6825755957
 30
0.0
  0
POINT
  5
19418
  8
DEFPOINTS
 62
     0
 10
117953.0118668966
 20
-117252.6825755957
 30
0.0
  0
POINT
  5
19419
  8
DEFPOINTS
 62
     0
 10
117938.1645712594
 20
-117252.6825755957
 30
0.0
  0
ENDBLK
  5
18B83
  8
0
  0
BLOCK
  8
0
  2
*D44
 70
     1
 10
0.0
 20
0.0
 30
0.0
  3
*D44
  1

  0
LINE
  5
1941A
  8
ér
 10
117951.47186689659
 20
-117256.1425755957
 30
0.0
 11
117951.47186689659
 21
-117265.6487066429
 31
0.0
  0
LINE
  5
1941B
  8
ér
 10
117971.47186689659
 20
-117256.1425755957
 30
0.0
 11
117971.47186689659
 21
-117265.6487066429
 31
0.0
  0
LINE
  5
1941C
  8
ér
 10
117952.5718668966
 20
-117265.6487066429
 30
0.0
 11
117970.3718668966
 21
-117265.6487066429
 31
0.0
  0
INSERT
  5
1941D
  8
ér
  2
_ORIGIN
 10
117951.47186689659
 20
-117265.6487066429
 30
0.0
 41
1.1000000000000001
 42
1.1000000000000001
 43
1.1000000000000001
 50
180.0
  0
INSERT
  5
1941E
  8
ér
  2
_ORIGIN
 10
117971.47186689659
 20
-117265.6487066429
 30
0.0
 41
1.1000000000000001
 42
1.1000000000000001
 43
1.1000000000000001
  0
INSERT
  5
1941F
  8
ér
  2
*U107
 10
0.0
 20
0.0
 30
0.0
  0
POINT
  5
19420
  8
DEFPOINTS
 62
     0
 10
117951.47186689659
 20
-117251.1425755957
 30
0.0
  0
POINT
  5
19421
  8
DEFPOINTS
 62
     0
 10
117971.47186689659
 20
-117251.1425755957
 30
0.0
  0
POINT
  5
19422
  8
DEFPOINTS
 62
     0
 10
117971.47186689659
 20
-117265.6487066429
 30
0.0
  0
ENDBLK
  5
18B9B
  8
0
  0
BLOCK
  8
0
  2
*D45
 70
     1
 10
0.0
 20
0.0
 30
0.0
  3
*D45
  1

  0
LINE
  5
19423
  8
ér
 10
117941.47186689659
 20
-117207.6825755957
 30
0.0
 11
117938.1645712594
 21
-117207.6825755957
 31
0.0
  0
LINE
  5
19424
  8
ér
 10
117948.0118668966
 20
-117242.6825755957
 30
0.0
 11
117938.1645712594
 21
-117242.6825755957
 31
0.0
  0
LINE
  5
19425
  8
ér
 10
117938.1645712594
 20
-117208.7825755957
 30
0.0
 11
117938.1645712594
 21
-117241.5825755957
 31
0.0
  0
INSERT
  5
19426
  8
ér
  2
_ORIGIN
 10
117938.1645712594
 20
-117207.6825755957
 30
0.0
 41
1.1000000000000001
 42
1.1000000000000001
 43
1.1000000000000001
 50
90.0
  0
INSERT
  5
19427
  8
ér
  2
_ORIGIN
 10
117938.1645712594
 20
-117242.6825755957
 30
0.0
 41
1.1000000000000001
 42
1.1000000000000001
 43
1.1000000000000001
 50
270.0
  0
INSERT
  5
19428
  8
ér
  2
*U108
 10
0.0
 20
0.0
 30
0.0
  0
POINT
  5
19429
  8
DEFPOINTS
 62
     0
 10
117936.47186689659
 20
-117207.6825755957
 30
0.0
  0
POINT
  5
1942A
  8
DEFPOINTS
 62
     0
 10
117953.0118668966
 20
-117242.6825755957
 30
0.0
  0
POINT
  5
1942B
  8
DEFPOINTS
 62
     0
 10
117938.1645712594
 20
-117242.6825755957
 30
0.0
  0
ENDBLK
  5
18BB3
  8
0
  0
BLOCK
  8
0
  2
*D46
 70
     1
 10
0.0
 20
0.0
 30
0.0
  3
*D46
  1

  0
LINE
  5
1942C
  8
ér
 10
117951.47186689659
 20
-117239.2225755957
 30
0.0
 11
117951.47186689659
 21
-117231.02160183431
 31
0.0
  0
LINE
  5
1942D
  8
ér
 10
117958.47186689659
 20
-117237.6825755957
 30
0.0
 11
117958.47186689659
 21
-117231.02160183431
 31
0.0
  0
LINE
  5
1942E
  8
ér
 10
117952.5718668966
 20
-117231.02160183431
 30
0.0
 11
117957.3718668966
 21
-117231.02160183431
 31
0.0
  0
INSERT
  5
1942F
  8
ér
  2
_ORIGIN
 10
117951.47186689659
 20
-117231.02160183431
 30
0.0
 41
1.1000000000000001
 42
1.1000000000000001
 43
1.1000000000000001
 50
180.0
  0
INSERT
  5
19430
  8
ér
  2
_ORIGIN
 10
117958.47186689659
 20
-117231.02160183431
 30
0.0
 41
1.1000000000000001
 42
1.1000000000000001
 43
1.1000000000000001
  0
INSERT
  5
19431
  8
ér
  2
*U109
 10
0.0
 20
0.0
 30
0.0
  0
POINT
  5
19432
  8
DEFPOINTS
 62
     0
 10
117951.47186689659
 20
-117244.2225755957
 30
0.0
  0
POINT
  5
19433
  8
DEFPOINTS
 62
     0
 10
117958.47186689659
 20
-117242.6825755957
 30
0.0
  0
POINT
  5
19434
  8
DEFPOINTS
 62
     0
 10
117958.47186689659
 20
-117231.02160183431
 30
0.0
  0
ENDBLK
  5
18BE8
  8
0
  0
BLOCK
  8
0
  2
*D47
 70
     1
 10
0.0
 20
0.0
 30
0.0
  3
*D47
  1

  0
LINE
  5
1946B
  8
ér
 10
118099.37400967019
 20
-117211.4749671007
 30
0.0
 11
118099.37400967019
 21
-117200.40883673581
 31
0.0
  0
LINE
  5
1946C
  8
ér
 10
118139.37400967019
 20
-117211.4749671007
 30
0.0
 11
118139.37400967019
 21
-117200.40883673581
 31
0.0
  0
LINE
  5
1946D
  8
ér
 10
118100.4740096702
 20
-117200.40883673581
 30
0.0
 11
118138.2740096702
 21
-117200.40883673581
 31
0.0
  0
INSERT
  5
1946E
  8
ér
  2
_ORIGIN
 10
118099.37400967019
 20
-117200.40883673581
 30
0.0
 41
1.1000000000000001
 42
1.1000000000000001
 43
1.1000000000000001
 50
180.0
  0
INSERT
  5
1946F
  8
ér
  2
_ORIGIN
 10
118139.37400967019
 20
-117200.40883673581
 30
0.0
 41
1.1000000000000001
 42
1.1000000000000001
 43
1.1000000000000001
  0
INSERT
  5
19470
  8
ér
  2
*U116
 10
0.0
 20
0.0
 30
0.0
  0
POINT
  5
19471
  8
DEFPOINTS
 62
     0
 10
118099.37400967019
 20
-117216.4749671007
 30
0.0
  0
POINT
  5
19472
  8
DEFPOINTS
 62
     0
 10
118139.37400967019
 20
-117216.4749671007
 30
0.0
  0
POINT
  5
19473
  8
DEFPOINTS
 62
     0
 10
118139.37400967019
 20
-117200.40883673581
 30
0.0
  0
ENDBLK
  5
18C00
  8
0
  0
BLOCK
  8
0
  2
*D48
 70
     1
 10
0.0
 20
0.0
 30
0.0
  3
*D48
  1

  0
LINE
  5
19474
  8
ér
 10
118094.37400967019
 20
-117217.07496710071
 30
0.0
 11
118086.0768447929
 21
-117217.07496710071
 31
0.0
  0
LINE
  5
19475
  8
ér
 10
118102.7740096702
 20
-117252.07496710071
 30
0.0
 11
118086.0768447929
 21
-117252.07496710071
 31
0.0
  0
LINE
  5
19476
  8
ér
 10
118086.0768447929
 20
-117218.1749671007
 30
0.0
 11
118086.0768447929
 21
-117250.9749671007
 31
0.0
  0
INSERT
  5
19477
  8
ér
  2
_ORIGIN
 10
118086.0768447929
 20
-117217.07496710071
 30
0.0
 41
1.1000000000000001
 42
1.1000000000000001
 43
1.1000000000000001
 50
90.0
  0
INSERT
  5
19478
  8
ér
  2
_ORIGIN
 10
118086.0768447929
 20
-117252.07496710071
 30
0.0
 41
1.1000000000000001
 42
1.1000000000000001
 43
1.1000000000000001
 50
270.0
  0
INSERT
  5
19479
  8
ér
  2
*U117
 10
0.0
 20
0.0
 30
0.0
  0
POINT
  5
1947A
  8
DEFPOINTS
 62
     0
 10
118099.37400967019
 20
-117217.07496710071
 30
0.0
  0
POINT
  5
1947B
  8
DEFPOINTS
 62
     0
 10
118107.7740096702
 20
-117252.07496710071
 30
0.0
  0
POINT
  5
1947C
  8
DEFPOINTS
 62
     0
 10
118086.0768447929
 20
-117252.07496710071
 30
0.0
  0
ENDBLK
  5
18C1B
  8
0
  0
BLOCK
  8
0
  2
*D49
 70
     1
 10
0.0
 20
0.0
 30
0.0
  3
*D49
  1

  0
LINE
  5
1947D
  8
ér
 10
118144.37400967019
 20
-117216.4749671007
 30
0.0
 11
118150.0225976416
 21
-117216.4749671007
 31
0.0
  0
LINE
  5
1947E
  8
ér
 10
118135.9740096702
 20
-117253.8749671007
 30
0.0
 11
118150.0225976416
 21
-117253.8749671007
 31
0.0
  0
LINE
  5
1947F
  8
ér
 10
118150.0225976416
 20
-117217.57496710071
 30
0.0
 11
118150.0225976416
 21
-117252.7749671007
 31
0.0
  0
INSERT
  5
19480
  8
ér
  2
_ORIGIN
 10
118150.0225976416
 20
-117216.4749671007
 30
0.0
 41
1.1000000000000001
 42
1.1000000000000001
 43
1.1000000000000001
 50
90.0
  0
INSERT
  5
19481
  8
ér
  2
_ORIGIN
 10
118150.0225976416
 20
-117253.8749671007
 30
0.0
 41
1.1000000000000001
 42
1.1000000000000001
 43
1.1000000000000001
 50
270.0
  0
INSERT
  5
19482
  8
ér
  2
*U118
 10
0.0
 20
0.0
 30
0.0
  0
POINT
  5
19483
  8
DEFPOINTS
 62
     0
 10
118139.37400967019
 20
-117216.4749671007
 30
0.0
  0
POINT
  5
19484
  8
DEFPOINTS
 62
     0
 10
118130.9740096702
 20
-117253.8749671007
 30
0.0
  0
POINT
  5
19485
  8
DEFPOINTS
 62
     0
 10
118150.0225976416
 20
-117253.8749671007
 30
0.0
  0
ENDBLK
  5
18C45
  8
0
  0
BLOCK
  8
0
  2
*D50
 70
     1
 10
0.0
 20
0.0
 30
0.0
  3
*D50
  1

  0
LINE
  5
19486
  8
ér
 10
118106.8740096703
 20
-117257.9749671007
 30
0.0
 11
118106.8740096703
 21
-117273.3365123644
 31
0.0
  0
LINE
  5
19487
  8
ér
 10
118131.87400967019
 20
-117257.9749671007
 30
0.0
 11
118131.87400967019
 21
-117273.3365123644
 31
0.0
  0
LINE
  5
19488
  8
ér
 10
118107.9740096703
 20
-117273.3365123644
 30
0.0
 11
118130.7740096702
 21
-117273.3365123644
 31
0.0
  0
INSERT
  5
19489
  8
ér
  2
_ORIGIN
 10
118106.8740096703
 20
-117273.3365123644
 30
0.0
 41
1.1000000000000001
 42
1.1000000000000001
 43
1.1000000000000001
 50
180.0
  0
INSERT
  5
1948A
  8
ér
  2
_ORIGIN
 10
118131.87400967019
 20
-117273.3365123644
 30
0.0
 41
1.1000000000000001
 42
1.1000000000000001
 43
1.1000000000000001
  0
INSERT
  5
1948B
  8
ér
  2
*U119
 10
0.0
 20
0.0
 30
0.0
  0
POINT
  5
1948C
  8
DEFPOINTS
 62
     0
 10
118106.8740096703
 20
-117252.9749671007
 30
0.0
  0
POINT
  5
1948D
  8
DEFPOINTS
 62
     0
 10
118131.87400967019
 20
-117252.9749671007
 30
0.0
  0
POINT
  5
1948E
  8
DEFPOINTS
 62
     0
 10
118131.87400967019
 20
-117273.3365123644
 30
0.0
  0
ENDBLK
  5
18C5D
  8
0
  0
BLOCK
  8
0
  2
*D51
 70
     1
 10
0.0
 20
0.0
 30
0.0
  3
*D51
  1

  0
LINE
  5
1977F
  8
ér
 10
117923.3238595913
 20
-117087.6946963095
 30
0.0
 11
117923.3238595913
 21
-117080.0686558906
 31
0.0
  0
LINE
  5
19780
  8
ér
 10
117953.3238595912
 20
-117088.5946963094
 30
0.0
 11
117953.3238595912
 21
-117080.0686558906
 31
0.0
  0
LINE
  5
19781
  8
ér
 10
117924.4238595913
 20
-117080.0686558906
 30
0.0
 11
117952.22385959121
 21
-117080.0686558906
 31
0.0
  0
INSERT
  5
19782
  8
ér
  2
_ORIGIN
 10
117923.3238595913
 20
-117080.0686558906
 30
0.0
 41
1.1000000000000001
 42
1.1000000000000001
 43
1.1000000000000001
 50
180.0
  0
INSERT
  5
19783
  8
ér
  2
_ORIGIN
 10
117953.3238595912
 20
-117080.0686558906
 30
0.0
 41
1.1000000000000001
 42
1.1000000000000001
 43
1.1000000000000001
  0
INSERT
  5
19784
  8
ér
  2
*U141
 10
0.0
 20
0.0
 30
0.0
  0
POINT
  5
19785
  8
DEFPOINTS
 62
     0
 10
117923.3238595913
 20
-117092.6946963095
 30
0.0
  0
POINT
  5
19786
  8
DEFPOINTS
 62
     0
 10
117953.3238595912
 20
-117093.5946963094
 30
0.0
  0
POINT
  5
19787
  8
DEFPOINTS
 62
     0
 10
117953.3238595912
 20
-117080.0686558906
 30
0.0
  0
ENDBLK
  5
18C75
  8
0
  0
BLOCK
  8
0
  2
*D52
 70
     1
 10
0.0
 20
0.0
 30
0.0
  3
*D52
  1

  0
LINE
  5
19788
  8
ér
 10
117928.3238595913
 20
-117093.09469630961
 30
0.0
 11
117927.0360615659
 21
-117093.09469630961
 31
0.0
  0
LINE
  5
19789
  8
ér
 10
117936.1238595912
 20
-117106.5946963094
 30
0.0
 11
117927.0360615659
 21
-117106.5946963094
 31
0.0
  0
LINE
  5
1978A
  8
ér
 10
117927.0360615659
 20
-117094.1946963096
 30
0.0
 11
117927.0360615659
 21
-117105.4946963094
 31
0.0
  0
INSERT
  5
1978B
  8
ér
  2
_ORIGIN
 10
117927.0360615659
 20
-117093.09469630961
 30
0.0
 41
1.1000000000000001
 42
1.1000000000000001
 43
1.1000000000000001
 50
90.0
  0
INSERT
  5
1978C
  8
ér
  2
_ORIGIN
 10
117927.0360615659
 20
-117106.5946963094
 30
0.0
 41
1.1000000000000001
 42
1.1000000000000001
 43
1.1000000000000001
 50
270.0
  0
INSERT
  5
1978D
  8
ér
  2
*U142
 10
0.0
 20
0.0
 30
0.0
  0
POINT
  5
1978E
  8
DEFPOINTS
 62
     0
 10
117923.3238595913
 20
-117093.09469630961
 30
0.0
  0
POINT
  5
1978F
  8
DEFPOINTS
 62
     0
 10
117941.1238595913
 20
-117106.5946963094
 30
0.0
  0
POINT
  5
19790
  8
DEFPOINTS
 62
     0
 10
117927.0360615659
 20
-117106.5946963094
 30
0.0
  0
ENDBLK
  5
18C8D
  8
0
  0
BLOCK
  8
0
  2
*D53
 70
     1
 10
0.0
 20
0.0
 30
0.0
  3
*D53
  1

  0
LINE
  5
19791
  8
ér
 10
117965.9473224109
 20
-117110.6946963098
 30
0.0
 11
117964.33834933231
 21
-117111.62363735
 31
0.0
  0
LINE
  5
19792
  8
ér
 10
117980.9241173319
 20
-117136.6352660433
 30
0.0
 11
117979.3151442533
 21
-117137.5642070835
 31
0.0
  0
LINE
  5
19793
  8
ér
 10
117964.8883493324
 20
-117112.5762652941
 30
0.0
 11
117978.76514425319
 21
-117136.6115791394
 31
0.0
  0
INSERT
  5
19794
  8
ér
  2
_ORIGIN
 10
117964.33834933231
 20
-117111.62363735
 30
0.0
 41
1.1000000000000001
 42
1.1000000000000001
 43
1.1000000000000001
 50
120.0000000039412
  0
INSERT
  5
19795
  8
ér
  2
_ORIGIN
 10
117979.3151442533
 20
-117137.5642070835
 30
0.0
 41
1.1000000000000001
 42
1.1000000000000001
 43
1.1000000000000001
 50
300.00000000394118
  0
INSERT
  5
19796
  8
ér
  2
*U143
 10
0.0
 20
0.0
 30
0.0
  0
POINT
  5
19797
  8
DEFPOINTS
 62
     0
 10
117970.2774494297
 20
-117108.1946963095
 30
0.0
  0
POINT
  5
19798
  8
DEFPOINTS
 62
     0
 10
117985.2542443507
 20
-117134.135266043
 30
0.0
  0
POINT
  5
19799
  8
DEFPOINTS
 62
     0
 10
117979.3151442533
 20
-117137.5642070835
 30
0.0
  0
ENDBLK
  5
18CAA
  8
0
  0
BLOCK
  8
0
  2
*D54
 70
     1
 10
0.0
 20
0.0
 30
0.0
  3
*D54
  1

  0
LINE
  5
1979A
  8
ér
 10
117940.3238595913
 20
-117113.1946963095
 30
0.0
 11
117940.3238595913
 21
-117115.22234016391
 31
0.0
  0
LINE
  5
1979B
  8
ér
 10
117970.2774494297
 20
-117113.1946963095
 30
0.0
 11
117970.2774494297
 21
-117115.22234016391
 31
0.0
  0
LINE
  5
1979C
  8
ér
 10
117941.4238595913
 20
-117115.22234016391
 30
0.0
 11
117969.1774494297
 21
-117115.22234016391
 31
0.0
  0
INSERT
  5
1979D
  8
ér
  2
_ORIGIN
 10
117940.3238595913
 20
-117115.22234016391
 30
0.0
 41
1.1000000000000001
 42
1.1000000000000001
 43
1.1000000000000001
 50
180.0
  0
INSERT
  5
1979E
  8
ér
  2
_ORIGIN
 10
117970.2774494297
 20
-117115.22234016391
 30
0.0
 41
1.1000000000000001
 42
1.1000000000000001
 43
1.1000000000000001
  0
INSERT
  5
1979F
  8
ér
  2
*U144
 10
0.0
 20
0.0
 30
0.0
  0
POINT
  5
197A0
  8
DEFPOINTS
 62
     0
 10
117940.3238595913
 20
-117108.1946963095
 30
0.0
  0
POINT
  5
197A1
  8
DEFPOINTS
 62
     0
 10
117970.2774494297
 20
-117108.1946963095
 30
0.0
  0
POINT
  5
197A2
  8
DEFPOINTS
 62
     0
 10
117970.2774494297
 20
-117115.22234016391
 30
0.0
  0
ENDBLK
  5
18CCD
  8
0
  0
BLOCK
  8
0
  2
*D55
 70
     1
 10
0.0
 20
0.0
 30
0.0
  3
*D55
  1

  0
LINE
  5
197A3
  8
ér
 10
117996.5077651266
 20
-117112.6269357937
 30
0.0
 11
118007.4423622867
 21
-117106.3138431791
 31
0.0
  0
LINE
  5
197A4
  8
ér
 10
118011.5077651278
 20
-117138.60769790639
 30
0.0
 11
118022.44236228779
 21
-117132.2946052918
 31
0.0
  0
LINE
  5
197A5
  8
ér
 10
118007.99236228671
 20
-117107.26647112329
 30
0.0
 11
118021.89236228781
 21
-117131.34197734771
 31
0.0
  0
INSERT
  5
197A6
  8
ér
  2
_ORIGIN
 10
118007.4423622867
 20
-117106.3138431791
 30
0.0
 41
1.1000000000000001
 42
1.1000000000000001
 43
1.1000000000000001
 50
120.0000000027549
  0
INSERT
  5
197A7
  8
ér
  2
_ORIGIN
 10
118022.44236228779
 20
-117132.2946052918
 30
0.0
 41
1.1000000000000001
 42
1.1000000000000001
 43
1.1000000000000001
 50
300.00000000275492
  0
INSERT
  5
197A8
  8
ér
  2
*U145
 10
0.0
 20
0.0
 30
0.0
  0
POINT
  5
197A9
  8
DEFPOINTS
 62
     0
 10
117992.17763810779
 20
-117115.1269357939
 30
0.0
  0
POINT
  5
197AA
  8
DEFPOINTS
 62
     0
 10
118007.177638109
 20
-117141.1076979066
 30
0.0
  0
POINT
  5
197AB
  8
DEFPOINTS
 62
     0
 10
118022.44236228779
 20
-117132.2946052918
 30
0.0
  0
ENDBLK
  5
18D00
  8
0
  0
BLOCK
  8
0
  2
*D56
 70
     1
 10
0.0
 20
0.0
 30
0.0
  3
*D56
  1

  0
LINE
  5
197AC
  8
ér
 10
117988.73988499559
 20
-117136.9725727395
 30
0.0
 11
117993.319600811
 21
-117144.904873215
 31
0.0
  0
LINE
  5
197AD
  8
ér
 10
118000.431227947
 20
-117130.22257273849
 30
0.0
 11
118005.01094376241
 21
-117138.15487321409
 31
0.0
  0
LINE
  5
197AE
  8
ér
 10
117994.2722287551
 20
-117144.35487321499
 30
0.0
 11
118004.0583158182
 21
-117138.7048732142
 31
0.0
  0
INSERT
  5
197AF
  8
ér
  2
_ORIGIN
 10
117993.319600811
 20
-117144.904873215
 30
0.0
 41
1.1000000000000001
 42
1.1000000000000001
 43
1.1000000000000001
 50
210.00000000279789
  0
INSERT
  5
197B0
  8
ér
  2
_ORIGIN
 10
118005.01094376241
 20
-117138.15487321409
 30
0.0
 41
1.1000000000000001
 42
1.1000000000000001
 43
1.1000000000000001
 50
30.00000000279789
  0
INSERT
  5
197B1
  8
ér
  2
*U146
 10
0.0
 20
0.0
 30
0.0
  0
POINT
  5
197B2
  8
DEFPOINTS
 62
     0
 10
117986.2398849953
 20
-117132.6424457207
 30
0.0
  0
POINT
  5
197B3
  8
DEFPOINTS
 62
     0
 10
117997.9312279468
 20
-117125.8924457197
 30
0.0
  0
POINT
  5
197B4
  8
DEFPOINTS
 62
     0
 10
118005.01094376241
 20
-117138.15487321409
 30
0.0
  0
ENDBLK
  5
18D39
  8
0
  0
BLOCK
  8
0
  2
*D57
 70
     1
 10
0.0
 20
0.0
 30
0.0
  3
*D57
  1

  0
ARC
  5
19B32
  8
ér
 10
117970.2774494296
 20
-117108.19469630939
 30
0.0
 40
22.898734961707959
 50
182.7526157694696
 51
297.2473842317487
  0
INSERT
  5
19B33
  8
ér
  2
_ORIGIN
 10
117947.37871446789
 20
-117108.1946963095
 30
0.0
 41
1.1000000000000001
 42
1.1000000000000001
 43
1.1000000000000001
 50
91.376307884829217
  0
INSERT
  5
19B34
  8
ér
  2
_ORIGIN
 10
117981.7268169109
 20
-117128.0255825006
 30
0.0
 41
1.1000000000000001
 42
1.1000000000000001
 43
1.1000000000000001
 50
28.623692116389151
  0
TEXT
  8
ér
  40
3.25
  5
19C87
  62
7
  72
0
  71
0
 10
117960.
 20
-117130.
 30
0.000000
  1
üª
  7
Éíû@ùp_BIGFONT
  0
POINT
  5
19B36
  8
DEFPOINTS
 62
     0
 10
117952.7360007579
 20
-117122.91371942039
 30
0.0
  0
POINT
  5
19B37
  8
DEFPOINTS
 62
     0
 10
117969.98877429499
 20
-117108.19469630939
 30
0.0
  0
POINT
  5
19B38
  8
DEFPOINTS
 62
     0
 10
117970.421786997
 20
-117108.44469630939
 30
0.0
  0
POINT
  5
19B39
  8
DEFPOINTS
 62
     0
 10
117984.85424434931
 20
-117133.44244572079
 30
0.0
  0
POINT
  5
19B3A
  8
DEFPOINTS
 62
     0
 10
117941.1238595913
 20
-117108.1946963095
 30
0.0
  0
ENDBLK
  5
18D75
  8
0
  0
BLOCK
  8
0
  2
*D58
 70
     1
 10
0.0
 20
0.0
 30
0.0
  3
*D58
  1

  0
LINE
  5
197FE
  8
ér
 10
118242.78315703729
 20
-117139.0526233456
 30
0.0
 11
118242.78315703729
 21
-117146.64881099859
 31
0.0
  0
LINE
  5
197FF
  8
ér
 10
118272.8295671989
 20
-117139.85262334561
 30
0.0
 11
118272.8295671989
 21
-117146.64881099859
 31
0.0
  0
LINE
  5
19800
  8
ér
 10
118243.8831570373
 20
-117146.64881099859
 30
0.0
 11
118271.7295671989
 21
-117146.64881099859
 31
0.0
  0
INSERT
  5
19801
  8
ér
  2
_ORIGIN
 10
118242.78315703729
 20
-117146.64881099859
 30
0.0
 41
1.1000000000000001
 42
1.1000000000000001
 43
1.1000000000000001
 50
180.0
  0
INSERT
  5
19802
  8
ér
  2
_ORIGIN
 10
118272.8295671989
 20
-117146.64881099859
 30
0.0
 41
1.1000000000000001
 42
1.1000000000000001
 43
1.1000000000000001
  0
INSERT
  5
19803
  8
ér
  2
*U153
 10
0.0
 20
0.0
 30
0.0
  0
POINT
  5
19804
  8
DEFPOINTS
 62
     0
 10
118242.78315703729
 20
-117134.0526233456
 30
0.0
  0
POINT
  5
19805
  8
DEFPOINTS
 62
     0
 10
118272.8295671989
 20
-117134.85262334561
 30
0.0
  0
POINT
  5
19806
  8
DEFPOINTS
 62
     0
 10
118272.8295671989
 20
-117146.64881099859
 30
0.0
  0
ENDBLK
  5
18DA1
  8
0
  0
BLOCK
  8
0
  2
*D59
 70
     1
 10
0.0
 20
0.0
 30
0.0
  3
*D59
  1

  0
LINE
  5
19807
  8
ér
 10
118292.13357391411
 20
-117111.29108568279
 30
0.0
 11
118297.0228821546
 21
-117114.1002772342
 31
0.0
  0
LINE
  5
19808
  8
ér
 10
118277.16492638231
 20
-117137.3435389908
 30
0.0
 11
118282.0542346227
 21
-117140.1527305421
 31
0.0
  0
LINE
  5
19809
  8
ér
 10
118296.4748807126
 20
-117115.05405625451
 30
0.0
 11
118282.6022360647
 21
-117139.1989515218
 31
0.0
  0
INSERT
  5
1980A
  8
ér
  2
_ORIGIN
 10
118297.0228821546
 20
-117114.1002772342
 30
0.0
 41
1.1000000000000001
 42
1.1000000000000001
 43
1.1000000000000001
 50
60.120130593756862
  0
INSERT
  5
1980B
  8
ér
  2
_ORIGIN
 10
118282.0542346227
 20
-117140.1527305421
 30
0.0
 41
1.1000000000000001
 42
1.1000000000000001
 43
1.1000000000000001
 50
240.12013059375681
  0
INSERT
  5
1980C
  8
ér
  2
*U154
 10
0.0
 20
0.0
 30
0.0
  0
POINT
  5
1980D
  8
DEFPOINTS
 62
     0
 10
118287.79821473081
 20
-117108.8001700376
 30
0.0
  0
POINT
  5
1980E
  8
DEFPOINTS
 62
     0
 10
118272.8295671989
 20
-117134.85262334561
 30
0.0
  0
POINT
  5
1980F
  8
DEFPOINTS
 62
     0
 10
118282.0542346227
 20
-117140.1527305421
 30
0.0
  0
ENDBLK
  5
18DC7
  8
0
  0
BLOCK
  8
0
  2
*D60
 70
     1
 10
0.0
 20
0.0
 30
0.0
  3
*D60
  1

  0
LINE
  5
19810
  8
ér
 10
118276.6474048128
 20
-117098.0508935329
 30
0.0
 11
118279.9282495816
 21
-117092.3683037014
 31
0.0
  0
LINE
  5
19811
  8
ér
 10
118288.3340024168
 20
-117104.7981538053
 30
0.0
 11
118291.6148471856
 21
-117099.1155639738
 31
0.0
  0
LINE
  5
19812
  8
ér
 10
118280.88087752579
 20
-117092.9183037014
 30
0.0
 11
118290.66221924141
 21
-117098.5655639738
 31
0.0
  0
INSERT
  5
19813
  8
ér
  2
_ORIGIN
 10
118279.9282495816
 20
-117092.3683037014
 30
0.0
 41
1.1000000000000001
 42
1.1000000000000001
 43
1.1000000000000001
 50
150.00000000071839
  0
INSERT
  5
19814
  8
ér
  2
_ORIGIN
 10
118291.6148471856
 20
-117099.1155639738
 30
0.0
 41
1.1000000000000001
 42
1.1000000000000001
 43
1.1000000000000001
 50
330.0000000007185
  0
INSERT
  5
19815
  8
ér
  2
*U155
 10
0.0
 20
0.0
 30
0.0
  0
POINT
  5
19816
  8
DEFPOINTS
 62
     0
 10
118274.1474048128
 20
-117102.3810205519
 30
0.0
  0
POINT
  5
19817
  8
DEFPOINTS
 62
     0
 10
118285.8340024169
 20
-117109.1282808242
 30
0.0
  0
POINT
  5
19818
  8
DEFPOINTS
 62
     0
 10
118291.6148471856
 20
-117099.1155639738
 30
0.0
  0
ENDBLK
  5
18DF1
  8
0
  0
BLOCK
  8
0
  2
*D61
 70
     1
 10
0.0
 20
0.0
 30
0.0
  3
*D61
  1

  0
LINE
  5
19819
  8
ér
 10
118263.6040343869
 20
-117109.8426738127
 30
0.0
 11
118259.5107347216
 21
-117107.47940614889
 31
0.0
  0
LINE
  5
1981A
  8
ér
 10
118278.6040343878
 20
-117083.8619116997
 30
0.0
 11
118274.5107347225
 21
-117081.49864403591
 31
0.0
  0
LINE
  5
1981B
  8
ér
 10
118260.0607347216
 20
-117106.5267782047
 30
0.0
 11
118273.96073472239
 21
-117082.45127198
 31
0.0
  0
INSERT
  5
1981C
  8
ér
  2
_ORIGIN
 10
118259.5107347216
 20
-117107.47940614889
 30
0.0
 41
1.1000000000000001
 42
1.1000000000000001
 43
1.1000000000000001
 50
239.99999999802469
  0
INSERT
  5
1981D
  8
ér
  2
_ORIGIN
 10
118274.5107347225
 20
-117081.49864403591
 30
0.0
 41
1.1000000000000001
 42
1.1000000000000001
 43
1.1000000000000001
 50
59.99999999802472
  0
INSERT
  5
1981E
  8
ér
  2
*U156
 10
0.0
 20
0.0
 30
0.0
  0
POINT
  5
1981F
  8
DEFPOINTS
 62
     0
 10
118267.9341614057
 20
-117112.3426738128
 30
0.0
  0
POINT
  5
19820
  8
DEFPOINTS
 62
     0
 10
118282.93416140661
 20
-117086.3619116999
 30
0.0
  0
POINT
  5
19821
  8
DEFPOINTS
 62
     0
 10
118274.5107347225
 20
-117081.49864403591
 30
0.0
  0
ENDBLK
  5
18E09
  8
0
  0
BLOCK
  8
0
  2
*D62
 70
     1
 10
0.0
 20
0.0
 30
0.0
  3
*D62
  1

  0
LINE
  5
19822
  8
ér
 10
118225.8274036646
 20
-117114.3582992459
 30
0.0
 11
118225.8668740883
 21
-117109.90575446319
 31
0.0
  0
LINE
  5
19823
  8
ér
 10
118255.56379976759
 20
-117114.6219031427
 30
0.0
 11
118255.60327019139
 21
-117110.16935836
 31
0.0
  0
LINE
  5
19824
  8
ér
 10
118226.9668308704
 20
-117109.9155052377
 30
0.0
 11
118254.5033134093
 21
-117110.15960758551
 31
0.0
  0
INSERT
  5
19825
  8
ér
  2
_ORIGIN
 10
118225.8668740883
 20
-117109.90575446319
 30
0.0
 41
1.1000000000000001
 42
1.1000000000000001
 43
1.1000000000000001
 50
179.49210404998939
  0
INSERT
  5
19826
  8
ér
  2
_ORIGIN
 10
118255.60327019139
 20
-117110.16935836
 30
0.0
 41
1.1000000000000001
 42
1.1000000000000001
 43
1.1000000000000001
 50
359.49210404998939
  0
INSERT
  5
19827
  8
ér
  2
*U157
 10
0.0
 20
0.0
 30
0.0
  0
POINT
  5
19828
  8
DEFPOINTS
 62
     0
 10
118225.7830819621
 20
-117119.3581028007
 30
0.0
  0
POINT
  5
19829
  8
DEFPOINTS
 62
     0
 10
118255.51947806511
 20
-117119.62170669749
 30
0.0
  0
POINT
  5
1982A
  8
DEFPOINTS
 62
     0
 10
118255.60327019139
 20
-117110.16935836
 30
0.0
  0
ENDBLK
  5
18E21
  8
0
  0
BLOCK
  8
0
  2
*D63
 70
     1
 10
0.0
 20
0.0
 30
0.0
  3
*D63
  1

  0
LINE
  5
1982B
  8
ér
 10
118238.5831570373
 20
-117133.2526233456
 30
0.0
 11
118230.0660358048
 21
-117133.2526233456
 31
0.0
  0
LINE
  5
1982C
  8
ér
 10
118238.5831570373
 20
-117119.7581028006
 30
0.0
 11
118230.0660358048
 21
-117119.7581028006
 31
0.0
  0
LINE
  5
1982D
  8
ér
 10
118230.0660358048
 20
-117132.1526233456
 30
0.0
 11
118230.0660358048
 21
-117120.8581028007
 31
0.0
  0
INSERT
  5
1982E
  8
ér
  2
_ORIGIN
 10
118230.0660358048
 20
-117133.2526233456
 30
0.0
 41
1.1000000000000001
 42
1.1000000000000001
 43
1.1000000000000001
 50
270.0
  0
INSERT
  5
1982F
  8
ér
  2
_ORIGIN
 10
118230.0660358048
 20
-117119.7581028006
 30
0.0
 41
1.1000000000000001
 42
1.1000000000000001
 43
1.1000000000000001
 50
90.0
  0
INSERT
  5
19830
  8
ér
  2
*U158
 10
0.0
 20
0.0
 30
0.0
  0
POINT
  5
19831
  8
DEFPOINTS
 62
     0
 10
118243.5831570373
 20
-117133.2526233456
 30
0.0
  0
POINT
  5
19832
  8
DEFPOINTS
 62
     0
 10
118243.5831570373
 20
-117119.7581028006
 30
0.0
  0
POINT
  5
19833
  8
DEFPOINTS
 62
     0
 10
118230.0660358048
 20
-117119.7581028006
 30
0.0
  0
ENDBLK
  5
18E42
  8
0
  0
BLOCK
  8
0
  2
*D64
 70
     1
 10
0.0
 20
0.0
 30
0.0
  3
*D64
  1

  0
ARC
  5
19B3B
  8
ér
 10
118272.48315703731
 20
-117134.2526233456
 30
0.0
 40
11.70303101645308
 50
65.387371931251622
 51
174.61262806888561
  0
INSERT
  5
19B3C
  8
ér
  2
_ORIGIN
 10
118278.33467254561
 20
-117124.117501184
 30
0.0
 41
1.1000000000000001
 42
1.1000000000000001
 43
1.1000000000000001
 50
332.69368596568989
  0
INSERT
  5
19B3D
  8
ér
  2
_ORIGIN
 10
118260.78012602089
 20
-117134.2526233456
 30
0.0
 41
1.1000000000000001
 42
1.1000000000000001
 43
1.1000000000000001
 50
267.30631403444733
  0
TEXT
  8
ér
  40
3.25
  5
19C88
  62
7
  72
0
  71
0
 10
118265.
 20
-117126.
 30
0.000000
  1
üª
  7
Éíû@ùp_BIGFONT
  0
POINT
  5
19B3F
  8
DEFPOINTS
 62
     0
 10
118270.4509470281
 20
-117122.7273876668
 30
0.0
  0
POINT
  5
19B40
  8
DEFPOINTS
 62
     0
 10
118272.2522169296
 20
-117134.2526233456
 30
0.0
  0
POINT
  5
19B41
  8
DEFPOINTS
 62
     0
 10
118272.5986270912
 20
-117134.0526233456
 30
0.0
  0
POINT
  5
19B42
  8
DEFPOINTS
 62
     0
 10
118286.9331570373
 20
-117109.22448917609
 30
0.0
  0
POINT
  5
19B43
  8
DEFPOINTS
 62
     0
 10
118243.5831570373
 20
-117134.2526233456
 30
0.0
  0
ENDBLK
  5
18E5A
  8
0
  0
BLOCK
  8
0
  2
*D65
 70
     1
 10
0.0
 20
0.0
 30
0.0
  3
*D65
  1

  0
LINE
  5
1953A
  8
ér
 10
118263.74985018429
 20
-116977.70734260749
 30
0.0
 11
118253.6468395025
 21
-116977.70734260749
 31
0.0
  0
LINE
  5
1953B
  8
ér
 10
118263.24985018429
 20
-116992.1073426074
 30
0.0
 11
118253.6468395025
 21
-116992.1073426074
 31
0.0
  0
LINE
  5
1953C
  8
ér
 10
118253.6468395025
 20
-116978.8073426075
 30
0.0
 11
118253.6468395025
 21
-116991.00734260739
 31
0.0
  0
INSERT
  5
1953D
  8
ér
  2
_ORIGIN
 10
118253.6468395025
 20
-116977.70734260749
 30
0.0
 41
1.1000000000000001
 42
1.1000000000000001
 43
1.1000000000000001
 50
90.0
  0
INSERT
  5
1953E
  8
ér
  2
_ORIGIN
 10
118253.6468395025
 20
-116992.1073426074
 30
0.0
 41
1.1000000000000001
 42
1.1000000000000001
 43
1.1000000000000001
 50
270.0
  0
INSERT
  5
1953F
  8
ér
  2
*U124
 10
0.0
 20
0.0
 30
0.0
  0
POINT
  5
19540
  8
DEFPOINTS
 62
     0
 10
118268.74985018429
 20
-116977.70734260749
 30
0.0
  0
POINT
  5
19541
  8
DEFPOINTS
 62
     0
 10
118268.24985018429
 20
-116992.1073426074
 30
0.0
  0
POINT
  5
19542
  8
DEFPOINTS
 62
     0
 10
118253.6468395025
 20
-116992.1073426074
 30
0.0
  0
ENDBLK
  5
18E9A
  8
0
  0
BLOCK
  8
0
  2
*D66
 70
     1
 10
0.0
 20
0.0
 30
0.0
  3
*D66
  1

  0
LINE
  5
19206
  8
ér
 10
117802.0788565089
 20
-117216.1000345254
 30
0.0
 11
117794.21998521819
 21
-117216.1000345254
 31
0.0
  0
LINE
  5
19207
  8
ér
 10
117803.37885650891
 20
-117229.1000345254
 30
0.0
 11
117794.21998521819
 21
-117229.1000345254
 31
0.0
  0
LINE
  5
19208
  8
ér
 10
117794.21998521819
 20
-117217.20003452541
 30
0.0
 11
117794.21998521819
 21
-117228.00003452539
 31
0.0
  0
INSERT
  5
19209
  8
ér
  2
_ORIGIN
 10
117794.21998521819
 20
-117216.1000345254
 30
0.0
 41
1.1000000000000001
 42
1.1000000000000001
 43
1.1000000000000001
 50
90.0
  0
INSERT
  5
1920A
  8
ér
  2
_ORIGIN
 10
117794.21998521819
 20
-117229.1000345254
 30
0.0
 41
1.1000000000000001
 42
1.1000000000000001
 43
1.1000000000000001
 50
270.0
  0
INSERT
  5
1920B
  8
ér
  2
*U97
 10
0.0
 20
0.0
 30
0.0
  0
POINT
  5
1920C
  8
DEFPOINTS
 62
     0
 10
117807.0788565089
 20
-117216.1000345254
 30
0.0
  0
POINT
  5
1920D
  8
DEFPOINTS
 62
     0
 10
117808.37885650891
 20
-117229.1000345254
 30
0.0
  0
POINT
  5
1920E
  8
DEFPOINTS
 62
     0
 10
117794.21998521819
 20
-117229.1000345254
 30
0.0
  0
ENDBLK
  5
19087
  8
0
  0
BLOCK
  8
0
  2
*D67
 70
     1
 10
0.0
 20
0.0
 30
0.0
  3
*D67
  1

  0
LINE
  5
1920F
  8
ér
 10
117807.0788565089
 20
-117232.8000345254
 30
0.0
 11
117807.0788565089
 21
-117240.524961553
 31
0.0
  0
LINE
  5
19210
  8
ér
 10
117820.0788565089
 20
-117232.8000345254
 30
0.0
 11
117820.0788565089
 21
-117240.524961553
 31
0.0
  0
LINE
  5
19211
  8
ér
 10
117808.17885650889
 20
-117240.524961553
 30
0.0
 11
117818.9788565089
 21
-117240.524961553
 31
0.0
  0
INSERT
  5
19212
  8
ér
  2
_ORIGIN
 10
117807.0788565089
 20
-117240.524961553
 30
0.0
 41
1.1000000000000001
 42
1.1000000000000001
 43
1.1000000000000001
 50
180.0
  0
INSERT
  5
19213
  8
ér
  2
_ORIGIN
 10
117820.0788565089
 20
-117240.524961553
 30
0.0
 41
1.1000000000000001
 42
1.1000000000000001
 43
1.1000000000000001
  0
INSERT
  5
19214
  8
ér
  2
*U98
 10
0.0
 20
0.0
 30
0.0
  0
POINT
  5
19215
  8
DEFPOINTS
 62
     0
 10
117807.0788565089
 20
-117227.8000345254
 30
0.0
  0
POINT
  5
19216
  8
DEFPOINTS
 62
     0
 10
117820.0788565089
 20
-117227.8000345254
 30
0.0
  0
POINT
  5
19217
  8
DEFPOINTS
 62
     0
 10
117820.0788565089
 20
-117240.524961553
 30
0.0
  0
ENDBLK
  5
190BA
  8
0
  0
BLOCK
  8
0
  2
*D68
 70
     1
 10
0.0
 20
0.0
 30
0.0
  3
*D68
  1

  0
LINE
  5
19218
  8
ér
 10
117825.0788565089
 20
-117216.1000345254
 30
0.0
 11
117832.94043393611
 21
-117216.1000345254
 31
0.0
  0
LINE
  5
19219
  8
ér
 10
117823.7788565089
 20
-117229.1000345254
 30
0.0
 11
117832.94043393611
 21
-117229.1000345254
 31
0.0
  0
LINE
  5
1921A
  8
ér
 10
117832.94043393611
 20
-117217.20003452541
 30
0.0
 11
117832.94043393611
 21
-117228.00003452539
 31
0.0
  0
INSERT
  5
1921B
  8
ér
  2
_ORIGIN
 10
117832.94043393611
 20
-117216.1000345254
 30
0.0
 41
1.1000000000000001
 42
1.1000000000000001
 43
1.1000000000000001
 50
90.0
  0
INSERT
  5
1921C
  8
ér
  2
_ORIGIN
 10
117832.94043393611
 20
-117229.1000345254
 30
0.0
 41
1.1000000000000001
 42
1.1000000000000001
 43
1.1000000000000001
 50
270.0
  0
INSERT
  5
1921D
  8
ér
  2
*U99
 10
0.0
 20
0.0
 30
0.0
  0
POINT
  5
1921E
  8
DEFPOINTS
 62
     0
 10
117820.0788565089
 20
-117216.1000345254
 30
0.0
  0
POINT
  5
1921F
  8
DEFPOINTS
 62
     0
 10
117818.7788565089
 20
-117229.1000345254
 30
0.0
  0
POINT
  5
19220
  8
DEFPOINTS
 62
     0
 10
117832.94043393611
 20
-117229.1000345254
 30
0.0
  0
ENDBLK
  5
190D2
  8
0
  0
BLOCK
  8
0
  2
*D69
 70
     1
 10
0.0
 20
0.0
 30
0.0
  3
*D69
  1

  0
LINE
  5
19543
  8
ér
 10
118261.8152711849
 20
-117214.6839894951
 30
0.0
 11
118247.6228921796
 21
-117214.6839894951
 31
0.0
  0
LINE
  5
19544
  8
ér
 10
118263.1152711849
 20
-117248.18398947141
 30
0.0
 11
118247.6228921796
 21
-117248.18398947141
 31
0.0
  0
LINE
  5
19545
  8
ér
 10
118247.6228921796
 20
-117215.7839894951
 30
0.0
 11
118247.6228921796
 21
-117247.0839894714
 31
0.0
  0
INSERT
  5
19546
  8
ér
  2
_ORIGIN
 10
118247.6228921796
 20
-117214.6839894951
 30
0.0
 41
1.1000000000000001
 42
1.1000000000000001
 43
1.1000000000000001
 50
90.0
  0
INSERT
  5
19547
  8
ér
  2
_ORIGIN
 10
118247.6228921796
 20
-117248.18398947141
 30
0.0
 41
1.1000000000000001
 42
1.1000000000000001
 43
1.1000000000000001
 50
270.0
  0
INSERT
  5
19548
  8
ér
  2
*U125
 10
0.0
 20
0.0
 30
0.0
  0
POINT
  5
19549
  8
DEFPOINTS
 62
     0
 10
118266.8152711849
 20
-117214.6839894951
 30
0.0
  0
POINT
  5
1954A
  8
DEFPOINTS
 62
     0
 10
118268.1152711849
 20
-117248.18398947141
 30
0.0
  0
POINT
  5
1954B
  8
DEFPOINTS
 62
     0
 10
118247.6228921796
 20
-117248.18398947141
 30
0.0
  0
ENDBLK
  5
1911A
  8
0
  0
BLOCK
  8
0
  2
*D70
 70
     1
 10
0.0
 20
0.0
 30
0.0
  3
*D70
  1

  0
LINE
  5
1954C
  8
ér
 10
118266.8152711849
 20
-117251.8839894714
 30
0.0
 11
118266.8152711849
 21
-117266.4006669111
 31
0.0
  0
LINE
  5
1954D
  8
ér
 10
118291.8152711849
 20
-117251.8839894714
 30
0.0
 11
118291.8152711849
 21
-117266.4006669111
 31
0.0
  0
LINE
  5
1954E
  8
ér
 10
118267.9152711849
 20
-117266.4006669111
 30
0.0
 11
118290.7152711849
 21
-117266.4006669111
 31
0.0
  0
INSERT
  5
1954F
  8
ér
  2
_ORIGIN
 10
118266.8152711849
 20
-117266.4006669111
 30
0.0
 41
1.1000000000000001
 42
1.1000000000000001
 43
1.1000000000000001
 50
180.0
  0
INSERT
  5
19550
  8
ér
  2
_ORIGIN
 10
118291.8152711849
 20
-117266.4006669111
 30
0.0
 41
1.1000000000000001
 42
1.1000000000000001
 43
1.1000000000000001
  0
INSERT
  5
19551
  8
ér
  2
*U126
 10
0.0
 20
0.0
 30
0.0
  0
POINT
  5
19552
  8
DEFPOINTS
 62
     0
 10
118266.8152711849
 20
-117246.8839894714
 30
0.0
  0
POINT
  5
19553
  8
DEFPOINTS
 62
     0
 10
118291.8152711849
 20
-117246.8839894714
 30
0.0
  0
POINT
  5
19554
  8
DEFPOINTS
 62
     0
 10
118291.8152711849
 20
-117266.4006669111
 30
0.0
  0
ENDBLK
  5
19135
  8
0
  0
BLOCK
  8
0
  2
*D71
 70
     1
 10
0.0
 20
0.0
 30
0.0
  3
*D71
  1

  0
LINE
  5
19555
  8
ér
 10
118295.1501431636
 20
-117248.18398947141
 30
0.0
 11
118312.6411154525
 21
-117248.18398947141
 31
0.0
  0
LINE
  5
19556
  8
ér
 10
118296.8152711849
 20
-117214.6839894951
 30
0.0
 11
118312.6411154525
 21
-117214.6839894951
 31
0.0
  0
LINE
  5
19557
  8
ér
 10
118312.6411154525
 20
-117247.0839894714
 30
0.0
 11
118312.6411154525
 21
-117215.7839894951
 31
0.0
  0
INSERT
  5
19558
  8
ér
  2
_ORIGIN
 10
118312.6411154525
 20
-117248.18398947141
 30
0.0
 41
1.1000000000000001
 42
1.1000000000000001
 43
1.1000000000000001
 50
270.0
  0
INSERT
  5
19559
  8
ér
  2
_ORIGIN
 10
118312.6411154525
 20
-117214.6839894951
 30
0.0
 41
1.1000000000000001
 42
1.1000000000000001
 43
1.1000000000000001
 50
90.0
  0
INSERT
  5
1955A
  8
ér
  2
*U127
 10
0.0
 20
0.0
 30
0.0
  0
POINT
  5
1955B
  8
DEFPOINTS
 62
     0
 10
118290.1501431637
 20
-117248.18398947141
 30
0.0
  0
POINT
  5
1955C
  8
DEFPOINTS
 62
     0
 10
118291.8152711849
 20
-117214.6839894951
 30
0.0
  0
POINT
  5
1955D
  8
DEFPOINTS
 62
     0
 10
118312.6411154525
 20
-117214.6839894951
 30
0.0
  0
ENDBLK
  5
1914D
  8
0
  0
BLOCK
  8
0
  2
*D72
 70
     1
 10
0.0
 20
0.0
 30
0.0
  3
*D72
  1

  0
LINE
  5
197BE
  8
ér
 10
118073.4501847348
 20
-117087.1946963095
 30
0.0
 11
118073.4501847348
 21
-117080.0686558906
 31
0.0
  0
LINE
  5
197BF
  8
ér
 10
118103.4501847348
 20
-117088.0946963094
 30
0.0
 11
118103.4501847348
 21
-117080.0686558906
 31
0.0
  0
LINE
  5
197C0
  8
ér
 10
118074.55018473481
 20
-117080.0686558906
 30
0.0
 11
118102.35018473479
 21
-117080.0686558906
 31
0.0
  0
INSERT
  5
197C1
  8
ér
  2
_ORIGIN
 10
118073.4501847348
 20
-117080.0686558906
 30
0.0
 41
1.1000000000000001
 42
1.1000000000000001
 43
1.1000000000000001
 50
180.0
  0
INSERT
  5
197C2
  8
ér
  2
_ORIGIN
 10
118103.4501847348
 20
-117080.0686558906
 30
0.0
 41
1.1000000000000001
 42
1.1000000000000001
 43
1.1000000000000001
  0
INSERT
  5
197C3
  8
ér
  2
*U147
 10
0.0
 20
0.0
 30
0.0
  0
POINT
  5
197C4
  8
DEFPOINTS
 62
     0
 10
118073.4501847348
 20
-117092.1946963095
 30
0.0
  0
POINT
  5
197C5
  8
DEFPOINTS
 62
     0
 10
118103.4501847348
 20
-117093.0946963094
 30
0.0
  0
POINT
  5
197C6
  8
DEFPOINTS
 62
     0
 10
118103.4501847348
 20
-117080.0686558906
 30
0.0
  0
ENDBLK
  5
195A4
  8
0
  0
BLOCK
  8
0
  2
*D73
 70
     1
 10
0.0
 20
0.0
 30
0.0
  3
*D73
  1

  0
LINE
  5
197C7
  8
ér
 10
118078.4501847348
 20
-117092.59469630961
 30
0.0
 11
118077.1623867094
 21
-117092.59469630961
 31
0.0
  0
LINE
  5
197C8
  8
ér
 10
118086.2501847348
 20
-117106.5946963094
 30
0.0
 11
118077.1623867094
 21
-117106.5946963094
 31
0.0
  0
LINE
  5
197C9
  8
ér
 10
118077.1623867094
 20
-117093.6946963096
 30
0.0
 11
118077.1623867094
 21
-117105.4946963094
 31
0.0
  0
INSERT
  5
197CA
  8
ér
  2
_ORIGIN
 10
118077.1623867094
 20
-117092.59469630961
 30
0.0
 41
1.1000000000000001
 42
1.1000000000000001
 43
1.1000000000000001
 50
90.0
  0
INSERT
  5
197CB
  8
ér
  2
_ORIGIN
 10
118077.1623867094
 20
-117106.5946963094
 30
0.0
 41
1.1000000000000001
 42
1.1000000000000001
 43
1.1000000000000001
 50
270.0
  0
INSERT
  5
197CC
  8
ér
  2
*U148
 10
0.0
 20
0.0
 30
0.0
  0
POINT
  5
197CD
  8
DEFPOINTS
 62
     0
 10
118073.4501847348
 20
-117092.59469630961
 30
0.0
  0
POINT
  5
197CE
  8
DEFPOINTS
 62
     0
 10
118091.2501847348
 20
-117106.5946963094
 30
0.0
  0
POINT
  5
197CF
  8
DEFPOINTS
 62
     0
 10
118077.1623867094
 20
-117106.5946963094
 30
0.0
  0
ENDBLK
  5
195B0
  8
0
  0
BLOCK
  8
0
  2
*D74
 70
     1
 10
0.0
 20
0.0
 30
0.0
  3
*D74
  1

  0
LINE
  5
197D0
  8
ér
 10
118116.0736475545
 20
-117110.6946963098
 30
0.0
 11
118114.46467447589
 21
-117111.62363735
 31
0.0
  0
LINE
  5
197D1
  8
ér
 10
118131.0504424754
 20
-117136.6352660433
 30
0.0
 11
118129.4414693968
 21
-117137.5642070835
 31
0.0
  0
LINE
  5
197D2
  8
ér
 10
118115.014674476
 20
-117112.5762652941
 30
0.0
 11
118128.8914693968
 21
-117136.6115791394
 31
0.0
  0
INSERT
  5
197D3
  8
ér
  2
_ORIGIN
 10
118114.46467447589
 20
-117111.62363735
 30
0.0
 41
1.1000000000000001
 42
1.1000000000000001
 43
1.1000000000000001
 50
120.0000000039412
  0
INSERT
  5
197D4
  8
ér
  2
_ORIGIN
 10
118129.4414693968
 20
-117137.5642070835
 30
0.0
 41
1.1000000000000001
 42
1.1000000000000001
 43
1.1000000000000001
 50
300.00000000394118
  0
INSERT
  5
197D5
  8
ér
  2
*U149
 10
0.0
 20
0.0
 30
0.0
  0
POINT
  5
197D6
  8
DEFPOINTS
 62
     0
 10
118120.40377457321
 20
-117108.1946963095
 30
0.0
  0
POINT
  5
197D7
  8
DEFPOINTS
 62
     0
 10
118135.3805694942
 20
-117134.135266043
 30
0.0
  0
POINT
  5
197D8
  8
DEFPOINTS
 62
     0
 10
118129.4414693968
 20
-117137.5642070835
 30
0.0
  0
ENDBLK
  5
195BC
  8
0
  0
BLOCK
  8
0
  2
*D75
 70
     1
 10
0.0
 20
0.0
 30
0.0
  3
*D75
  1

  0
LINE
  5
197D9
  8
ér
 10
118090.4501847348
 20
-117113.1946963095
 30
0.0
 11
118090.4501847348
 21
-117115.22234016391
 31
0.0
  0
LINE
  5
197DA
  8
ér
 10
118120.40377457321
 20
-117113.1946963095
 30
0.0
 11
118120.40377457321
 21
-117115.22234016391
 31
0.0
  0
LINE
  5
197DB
  8
ér
 10
118091.55018473481
 20
-117115.22234016391
 30
0.0
 11
118119.3037745732
 21
-117115.22234016391
 31
0.0
  0
INSERT
  5
197DC
  8
ér
  2
_ORIGIN
 10
118090.4501847348
 20
-117115.22234016391
 30
0.0
 41
1.1000000000000001
 42
1.1000000000000001
 43
1.1000000000000001
 50
180.0
  0
INSERT
  5
197DD
  8
ér
  2
_ORIGIN
 10
118120.40377457321
 20
-117115.22234016391
 30
0.0
 41
1.1000000000000001
 42
1.1000000000000001
 43
1.1000000000000001
  0
INSERT
  5
197DE
  8
ér
  2
*U150
 10
0.0
 20
0.0
 30
0.0
  0
POINT
  5
197DF
  8
DEFPOINTS
 62
     0
 10
118090.4501847348
 20
-117108.1946963095
 30
0.0
  0
POINT
  5
197E0
  8
DEFPOINTS
 62
     0
 10
118120.40377457321
 20
-117108.1946963095
 30
0.0
  0
POINT
  5
197E1
  8
DEFPOINTS
 62
     0
 10
118120.40377457321
 20
-117115.22234016391
 30
0.0
  0
ENDBLK
  5
195C8
  8
0
  0
BLOCK
  8
0
  2
*D76
 70
     1
 10
0.0
 20
0.0
 30
0.0
  3
*D76
  1

  0
LINE
  5
197E2
  8
ér
 10
118147.067102972
 20
-117112.3769357936
 30
0.0
 11
118158.00170013199
 21
-117106.0638431791
 31
0.0
  0
LINE
  5
197E3
  8
ér
 10
118162.0671029732
 20
-117138.35769790639
 30
0.0
 11
118173.0017001332
 21
-117132.0446052918
 31
0.0
  0
LINE
  5
197E4
  8
ér
 10
118158.5517001321
 20
-117107.01647112321
 30
0.0
 11
118172.4517001332
 21
-117131.09197734771
 31
0.0
  0
INSERT
  5
197E5
  8
ér
  2
_ORIGIN
 10
118158.00170013199
 20
-117106.0638431791
 30
0.0
 41
1.1000000000000001
 42
1.1000000000000001
 43
1.1000000000000001
 50
120.0000000027549
  0
INSERT
  5
197E6
  8
ér
  2
_ORIGIN
 10
118173.0017001332
 20
-117132.0446052918
 30
0.0
 41
1.1000000000000001
 42
1.1000000000000001
 43
1.1000000000000001
 50
300.00000000275492
  0
INSERT
  5
197E7
  8
ér
  2
*U151
 10
0.0
 20
0.0
 30
0.0
  0
POINT
  5
197E8
  8
DEFPOINTS
 62
     0
 10
118142.7369759532
 20
-117114.8769357938
 30
0.0
  0
POINT
  5
197E9
  8
DEFPOINTS
 62
     0
 10
118157.73697595439
 20
-117140.8576979066
 30
0.0
  0
POINT
  5
197EA
  8
DEFPOINTS
 62
     0
 10
118173.0017001332
 20
-117132.0446052918
 30
0.0
  0
ENDBLK
  5
195D4
  8
0
  0
BLOCK
  8
0
  2
*D77
 70
     1
 10
0.0
 20
0.0
 30
0.0
  3
*D77
  1

  0
LINE
  5
197EB
  8
ér
 10
118138.86621013909
 20
-117136.9725727395
 30
0.0
 11
118143.4459259545
 21
-117144.904873215
 31
0.0
  0
LINE
  5
197EC
  8
ér
 10
118150.9905657924
 20
-117129.97257273849
 30
0.0
 11
118155.5702816077
 21
-117137.90487321409
 31
0.0
  0
LINE
  5
197ED
  8
ér
 10
118144.3985538986
 20
-117144.35487321499
 30
0.0
 11
118154.6176536636
 21
-117138.4548732141
 31
0.0
  0
INSERT
  5
197EE
  8
ér
  2
_ORIGIN
 10
118143.4459259545
 20
-117144.904873215
 30
0.0
 41
1.1000000000000001
 42
1.1000000000000001
 43
1.1000000000000001
 50
210.0000000027816
  0
INSERT
  5
197EF
  8
ér
  2
_ORIGIN
 10
118155.5702816077
 20
-117137.90487321409
 30
0.0
 41
1.1000000000000001
 42
1.1000000000000001
 43
1.1000000000000001
 50
30.000000002781551
  0
INSERT
  5
197F0
  8
ér
  2
*U152
 10
0.0
 20
0.0
 30
0.0
  0
POINT
  5
197F1
  8
DEFPOINTS
 62
     0
 10
118136.36621013891
 20
-117132.6424457207
 30
0.0
  0
POINT
  5
197F2
  8
DEFPOINTS
 62
     0
 10
118148.49056579221
 20
-117125.6424457197
 30
0.0
  0
POINT
  5
197F3
  8
DEFPOINTS
 62
     0
 10
118155.5702816077
 20
-117137.90487321409
 30
0.0
  0
ENDBLK
  5
195E0
  8
0
  0
BLOCK
  8
0
  2
*D78
 70
     1
 10
0.0
 20
0.0
 30
0.0
  3
*D78
  1

  0
ARC
  5
19BDE
  8
ér
 10
118120.40377457321
 20
-117108.19469630939
 30
0.0
 40
22.898734961742139
 50
182.75261576946559
 51
297.2473842317242
  0
INSERT
  5
19BDF
  8
ér
  2
_ORIGIN
 10
118097.5050396115
 20
-117108.1946963095
 30
0.0
 41
1.1000000000000001
 42
1.1000000000000001
 43
1.1000000000000001
 50
91.376307884827156
  0
INSERT
  5
19BE0
  8
ér
  2
_ORIGIN
 10
118131.8531420544
 20
-117128.0255825006
 30
0.0
 41
1.1000000000000001
 42
1.1000000000000001
 43
1.1000000000000001
 50
28.623692116362609
  0
TEXT
  8
ér
  40
3.25
  5
19C89
  62
7
  72
0
  71
0
 10
118110.
 20
-117130.
 30
0.000000
  1
üª
  7
Éíû@ùp_BIGFONT
  0
POINT
  5
19BE2
  8
DEFPOINTS
 62
     0
 10
118102.8623259014
 20
-117122.91371942039
 30
0.0
  0
POINT
  5
19BE3
  8
DEFPOINTS
 62
     0
 10
118120.1150994386
 20
-117108.19469630939
 30
0.0
  0
POINT
  5
19BE4
  8
DEFPOINTS
 62
     0
 10
118120.5481121405
 20
-117108.44469630939
 30
0.0
  0
POINT
  5
19BE5
  8
DEFPOINTS
 62
     0
 10
118134.98056949289
 20
-117133.44244572079
 30
0.0
  0
POINT
  5
19BE6
  8
DEFPOINTS
 62
     0
 10
118091.2501847348
 20
-117108.1946963095
 30
0.0
  0
ENDBLK
  5
195EC
  8
0
  0
BLOCK
  8
0
  2
*D80
 70
     1
 10
0.0
 20
0.0
 30
0.0
  3
*D80
  1

  0
LINE
  5
19706
  8
ér
 10
118213.45811373219
 20
-116954.937309942
 30
0.0
 11
118213.45811373219
 21
-116889.03415441699
 31
0.0
  0
LINE
  5
19707
  8
ér
 10
118361.8866091446
 20
-116954.937309942
 30
0.0
 11
118361.8866091446
 21
-116889.03415441699
 31
0.0
  0
LINE
  5
19708
  8
ér
 10
118214.5581137322
 20
-116889.03415441699
 30
0.0
 11
118360.7866091445
 21
-116889.03415441699
 31
0.0
  0
INSERT
  5
19709
  8
ér
  2
_ORIGIN
 10
118213.45811373219
 20
-116889.03415441699
 30
0.0
 41
1.1000000000000001
 42
1.1000000000000001
 43
1.1000000000000001
 50
180.0
  0
INSERT
  5
1970A
  8
ér
  2
_ORIGIN
 10
118361.8866091446
 20
-116889.03415441699
 30
0.0
 41
1.1000000000000001
 42
1.1000000000000001
 43
1.1000000000000001
  0
INSERT
  5
1970B
  8
ér
  2
*U128
 10
0.0
 20
0.0
 30
0.0
  0
POINT
  5
1970C
  8
DEFPOINTS
 62
     0
 10
118213.45811373219
 20
-116959.937309942
 30
0.0
  0
POINT
  5
1970D
  8
DEFPOINTS
 62
     0
 10
118361.8866091446
 20
-116959.937309942
 30
0.0
  0
POINT
  5
1970E
  8
DEFPOINTS
 62
     0
 10
118361.8866091446
 20
-116889.03415441699
 30
0.0
  0
ENDBLK
  5
196E8
  8
0
  0
BLOCK
  8
0
  2
*D81
 70
     1
 10
0.0
 20
0.0
 30
0.0
  3
*D81
  1

  0
ARC
  5
19C66
  8
ér
 10
118419.0322996476
 20
-117134.2526233456
 30
0.0
 40
11.703031016482919
 50
65.387371931295107
 51
174.61262806885659
  0
INSERT
  5
19C67
  8
ér
  2
_ORIGIN
 10
118424.8838151559
 20
-117124.117501184
 30
0.0
 41
1.1000000000000001
 42
1.1000000000000001
 43
1.1000000000000001
 50
332.6936859657402
  0
INSERT
  5
19C68
  8
ér
  2
_ORIGIN
 10
118407.32926863121
 20
-117134.2526233456
 30
0.0
 41
1.1000000000000001
 42
1.1000000000000001
 43
1.1000000000000001
 50
267.30631403441151
  0
TEXT
  8
ér
  40
3.25
  5
19C8A
  62
7
  72
0
  71
0
 10
118412.
 20
-117126.
 30
0.000000
  1
üª
  7
Éíû@ùp_BIGFONT
  0
POINT
  5
19C6A
  8
DEFPOINTS
 62
     0
 10
118417.0000896384
 20
-117122.7273876668
 30
0.0
  0
POINT
  5
19C6B
  8
DEFPOINTS
 62
     0
 10
118418.8013595399
 20
-117134.2526233456
 30
0.0
  0
POINT
  5
19C6C
  8
DEFPOINTS
 62
     0
 10
118419.14776970151
 20
-117134.0526233455
 30
0.0
  0
POINT
  5
19C6D
  8
DEFPOINTS
 62
     0
 10
118433.4822996476
 20
-117109.22448917609
 30
0.0
  0
POINT
  5
19C6E
  8
DEFPOINTS
 62
     0
 10
118390.13229964759
 20
-117134.2526233456
 30
0.0
  0
ENDBLK
  5
19882
  8
0
  0
BLOCK
  8
0
  2
*D82
 70
     1
 10
0.0
 20
0.0
 30
0.0
  3
*D82
  1

  0
LINE
  5
1988F
  8
ér
 10
118389.33229964761
 20
-117139.0526233456
 30
0.0
 11
118389.33229964761
 21
-117146.64881099849
 31
0.0
  0
LINE
  5
19890
  8
ér
 10
118419.3787098092
 20
-117139.85262334561
 30
0.0
 11
118419.3787098092
 21
-117146.64881099849
 31
0.0
  0
LINE
  5
19891
  8
ér
 10
118390.4322996476
 20
-117146.64881099849
 30
0.0
 11
118418.27870980919
 21
-117146.64881099849
 31
0.0
  0
INSERT
  5
19892
  8
ér
  2
_ORIGIN
 10
118389.33229964761
 20
-117146.64881099849
 30
0.0
 41
1.1000000000000001
 42
1.1000000000000001
 43
1.1000000000000001
 50
180.0
  0
INSERT
  5
19893
  8
ér
  2
_ORIGIN
 10
118419.3787098092
 20
-117146.64881099849
 30
0.0
 41
1.1000000000000001
 42
1.1000000000000001
 43
1.1000000000000001
  0
INSERT
  5
19894
  8
ér
  2
*U159
 10
0.0
 20
0.0
 30
0.0
  0
POINT
  5
19895
  8
DEFPOINTS
 62
     0
 10
118389.33229964761
 20
-117134.0526233456
 30
0.0
  0
POINT
  5
19896
  8
DEFPOINTS
 62
     0
 10
118419.3787098092
 20
-117134.85262334561
 30
0.0
  0
POINT
  5
19897
  8
DEFPOINTS
 62
     0
 10
118419.3787098092
 20
-117146.64881099849
 30
0.0
  0
ENDBLK
  5
1988E
  8
0
  0
BLOCK
  8
0
  2
*D83
 70
     1
 10
0.0
 20
0.0
 30
0.0
  3
*D83
  1

  0
LINE
  5
1989B
  8
ér
 10
118438.6827165244
 20
-117111.29108568279
 30
0.0
 11
118443.5720247649
 21
-117114.1002772341
 31
0.0
  0
LINE
  5
1989C
  8
ér
 10
118423.7140689926
 20
-117137.3435389908
 30
0.0
 11
118428.603377233
 21
-117140.1527305421
 31
0.0
  0
LINE
  5
1989D
  8
ér
 10
118443.0240233229
 20
-117115.05405625451
 30
0.0
 11
118429.151378675
 21
-117139.1989515218
 31
0.0
  0
INSERT
  5
1989E
  8
ér
  2
_ORIGIN
 10
118443.5720247649
 20
-117114.1002772341
 30
0.0
 41
1.1000000000000001
 42
1.1000000000000001
 43
1.1000000000000001
 50
60.120130593756862
  0
INSERT
  5
1989F
  8
ér
  2
_ORIGIN
 10
118428.603377233
 20
-117140.1527305421
 30
0.0
 41
1.1000000000000001
 42
1.1000000000000001
 43
1.1000000000000001
 50
240.12013059375681
  0
INSERT
  5
198A0
  8
ér
  2
*U160
 10
0.0
 20
0.0
 30
0.0
  0
POINT
  5
198A1
  8
DEFPOINTS
 62
     0
 10
118434.3473573411
 20
-117108.8001700376
 30
0.0
  0
POINT
  5
198A2
  8
DEFPOINTS
 62
     0
 10
118419.3787098092
 20
-117134.85262334561
 30
0.0
  0
POINT
  5
198A3
  8
DEFPOINTS
 62
     0
 10
118428.603377233
 20
-117140.1527305421
 30
0.0
  0
ENDBLK
  5
1989A
  8
0
  0
BLOCK
  8
0
  2
*D84
 70
     1
 10
0.0
 20
0.0
 30
0.0
  3
*D84
  1

  0
LINE
  5
198F8
  8
ér
 10
118422.76353472121
 20
-117097.8008935329
 30
0.0
 11
118426.04437949001
 21
-117092.1183037014
 31
0.0
  0
LINE
  5
198F9
  8
ér
 10
118434.8831450271
 20
-117104.7981538053
 30
0.0
 11
118438.1639897959
 21
-117099.1155639738
 31
0.0
  0
LINE
  5
198FA
  8
ér
 10
118426.9970074341
 20
-117092.6683037014
 30
0.0
 11
118437.2113618517
 21
-117098.5655639738
 31
0.0
  0
INSERT
  5
198FB
  8
ér
  2
_ORIGIN
 10
118426.04437949001
 20
-117092.1183037014
 30
0.0
 41
1.1000000000000001
 42
1.1000000000000001
 43
1.1000000000000001
 50
150.00000000069059
  0
INSERT
  5
198FC
  8
ér
  2
_ORIGIN
 10
118438.1639897959
 20
-117099.1155639738
 30
0.0
 41
1.1000000000000001
 42
1.1000000000000001
 43
1.1000000000000001
 50
330.00000000069059
  0
INSERT
  5
198FD
  8
ér
  2
*U163
 10
0.0
 20
0.0
 30
0.0
  0
POINT
  5
198FE
  8
DEFPOINTS
 62
     0
 10
118420.26353472121
 20
-117102.13102055179
 30
0.0
  0
POINT
  5
198FF
  8
DEFPOINTS
 62
     0
 10
118432.3831450272
 20
-117109.1282808242
 30
0.0
  0
POINT
  5
19900
  8
DEFPOINTS
 62
     0
 10
118438.1639897959
 20
-117099.1155639738
 30
0.0
  0
ENDBLK
  5
198A6
  8
0
  0
BLOCK
  8
0
  2
*D85
 70
     1
 10
0.0
 20
0.0
 30
0.0
  3
*D85
  1

  0
LINE
  5
19901
  8
ér
 10
118409.7160525511
 20
-117109.5999344225
 30
0.0
 11
118405.62391677139
 21
-117107.2373513522
 31
0.0
  0
LINE
  5
19902
  8
ér
 10
118424.72015851201
 20
-117083.6119217183
 30
0.0
 11
118420.6280227323
 21
-117081.24933864801
 31
0.0
  0
LINE
  5
19903
  8
ér
 10
118406.17391456739
 20
-117106.28472213561
 30
0.0
 11
118420.0780249364
 21
-117082.2019678647
 31
0.0
  0
INSERT
  5
19904
  8
ér
  2
_ORIGIN
 10
118405.62391677139
 20
-117107.2373513522
 30
0.0
 41
1.1000000000000001
 42
1.1000000000000001
 43
1.1000000000000001
 50
240.00013256271029
  0
INSERT
  5
19905
  8
ér
  2
_ORIGIN
 10
118420.6280227323
 20
-117081.24933864801
 30
0.0
 41
1.1000000000000001
 42
1.1000000000000001
 43
1.1000000000000001
 50
60.000132562710313
  0
INSERT
  5
19906
  8
ér
  2
*U164
 10
0.0
 20
0.0
 30
0.0
  0
POINT
  5
19907
  8
DEFPOINTS
 62
     0
 10
118414.04618535419
 20
-117112.0999244041
 30
0.0
  0
POINT
  5
19908
  8
DEFPOINTS
 62
     0
 10
118429.050291315
 20
-117086.1119116998
 30
0.0
  0
POINT
  5
19909
  8
DEFPOINTS
 62
     0
 10
118420.6280227323
 20
-117081.24933864801
 30
0.0
  0
ENDBLK
  5
198B2
  8
0
  0
BLOCK
  8
0
  2
*D86
 70
     1
 10
0.0
 20
0.0
 30
0.0
  3
*D86
  1

  0
LINE
  5
198DD
  8
ér
 10
118372.3322245724
 20
-117113.8581028007
 30
0.0
 11
118372.3322245724
 21
-117109.66935836
 31
0.0
  0
LINE
  5
198DE
  8
ér
 10
118402.3322245724
 20
-117113.8581028006
 30
0.0
 11
118402.3322245724
 21
-117109.66935836
 31
0.0
  0
LINE
  5
198DF
  8
ér
 10
118373.4322245724
 20
-117109.66935836
 30
0.0
 11
118401.23222457241
 21
-117109.66935836
 31
0.0
  0
INSERT
  5
198E0
  8
ér
  2
_ORIGIN
 10
118372.3322245724
 20
-117109.66935836
 30
0.0
 41
1.1000000000000001
 42
1.1000000000000001
 43
1.1000000000000001
 50
180.0
  0
INSERT
  5
198E1
  8
ér
  2
_ORIGIN
 10
118402.3322245724
 20
-117109.66935836
 30
0.0
 41
1.1000000000000001
 42
1.1000000000000001
 43
1.1000000000000001
  0
INSERT
  5
198E2
  8
ér
  2
*U161
 10
0.0
 20
0.0
 30
0.0
  0
POINT
  5
198E3
  8
DEFPOINTS
 62
     0
 10
118372.3322245724
 20
-117118.8581028007
 30
0.0
  0
POINT
  5
198E4
  8
DEFPOINTS
 62
     0
 10
118402.3322245724
 20
-117118.8581028006
 30
0.0
  0
POINT
  5
198E5
  8
DEFPOINTS
 62
     0
 10
118402.3322245724
 20
-117109.66935836
 30
0.0
  0
ENDBLK
  5
198BE
  8
0
  0
BLOCK
  8
0
  2
*D87
 70
     1
 10
0.0
 20
0.0
 30
0.0
  3
*D87
  1

  0
LINE
  5
198E6
  8
ér
 10
118385.13229964759
 20
-117133.2526233456
 30
0.0
 11
118376.6151784151
 21
-117133.2526233456
 31
0.0
  0
LINE
  5
198E7
  8
ér
 10
118385.13229964759
 20
-117119.2581028006
 30
0.0
 11
118376.6151784151
 21
-117119.2581028006
 31
0.0
  0
LINE
  5
198E8
  8
ér
 10
118376.6151784151
 20
-117132.1526233456
 30
0.0
 11
118376.6151784151
 21
-117120.3581028006
 31
0.0
  0
INSERT
  5
198E9
  8
ér
  2
_ORIGIN
 10
118376.6151784151
 20
-117133.2526233456
 30
0.0
 41
1.1000000000000001
 42
1.1000000000000001
 43
1.1000000000000001
 50
270.0
  0
INSERT
  5
198EA
  8
ér
  2
_ORIGIN
 10
118376.6151784151
 20
-117119.2581028006
 30
0.0
 41
1.1000000000000001
 42
1.1000000000000001
 43
1.1000000000000001
 50
90.0
  0
INSERT
  5
198EB
  8
ér
  2
*U162
 10
0.0
 20
0.0
 30
0.0
  0
POINT
  5
198EC
  8
DEFPOINTS
 62
     0
 10
118390.13229964759
 20
-117133.2526233456
 30
0.0
  0
POINT
  5
198ED
  8
DEFPOINTS
 62
     0
 10
118390.13229964759
 20
-117119.2581028006
 30
0.0
  0
POINT
  5
198EE
  8
DEFPOINTS
 62
     0
 10
118376.6151784151
 20
-117119.2581028006
 30
0.0
  0
ENDBLK
  5
198CA
  8
0
  0
BLOCK
  8
0
  2
*U88
 70
     1
 10
0.0
 20
0.0
 30
0.0
  3
*U88
  1

  0
TEXT
  5
19B1F
  8
ér
 62
     7
 10
117821.0253674885
 20
-116937.9865277952
 30
0.0
 40
3.25
  1
30
 41
0.75
  7
Éíû@ùp_BIGFONT
  0
ENDBLK
  5
19B21
  8
0
  0
BLOCK
  8
0
  2
*U89
 70
     1
 10
0.0
 20
0.0
 30
0.0
  3
*U89
  1

  0
TEXT
  5
19B23
  8
ér
 62
     7
 10
117828.3512062917
 20
-116998.70040333
 30
0.0
 40
3.25
  1
15
 41
0.75
  7
Éíû@ùp_BIGFONT
  0
ENDBLK
  5
19B25
  8
0
  0
BLOCK
  8
0
  2
*U90
 70
     1
 10
0.0
 20
0.0
 30
0.0
  3
*U90
  1

  0
TEXT
  5
19B27
  8
ér
 62
     7
 10
117786.89597425979
 20
-116973.7642941907
 30
0.0
 40
3.25
  1
14.5
 50
90.0
 41
0.75
  7
Éíû@ùp_BIGFONT
  0
ENDBLK
  5
19B29
  8
0
  0
BLOCK
  8
0
  2
*U91
 70
     1
 10
0.0
 20
0.0
 30
0.0
  3
*U91
  1

  0
TEXT
  5
19B2B
  8
ér
 62
     7
 10
117786.89597425979
 20
-116979.380475185
 30
0.0
 40
3.25
  1
3
 50
90.0
 41
0.75
  7
Éíû@ùp_BIGFONT
  0
ENDBLK
  5
19B2D
  8
0
  0
BLOCK
  8
0
  2
*U92
 70
     1
 10
0.0
 20
0.0
 30
0.0
  3
*U92
  1

  0
TEXT
  5
19B2F
  8
ér
 62
     7
 10
117854.5798000686
 20
-116974.76432594541
 30
0.0
 40
3.25
  1
18.5
 50
90.0
 41
0.75
  7
Éíû@ùp_BIGFONT
  0
ENDBLK
  5
19B31
  8
0
  0
BLOCK
  8
0
  2
*U93
 70
     1
 10
0.0
 20
0.0
 30
0.0
  3
*U93
  1

  0
TEXT
  5
19B45
  8
ér
 10
117763.6967970195
 20
-117180.6530898943
 30
0.0
 40
6.0
  1
B-18ü@
  7
òÂÄÜùp_BIGHONT
  0
TEXT
  5
19B46
  8
ér
 10
117762.03965416241
 20
-117190.6530898944
 30
0.0
 40
6.0
  1
üiÆúéÞÄné▀üEÆúéÞÅIéóùpâoâbâNìÌüj
  7
òÂÄÜùp_BIGHONT
  0
ENDBLK
  5
19B48
  8
0
  0
BLOCK
  8
0
  2
*U94
 70
     1
 10
0.0
 20
0.0
 30
0.0
  3
*U94
  1

  0
TEXT
  5
19B4A
  8
ér
 10
118215.6579480995
 20
-117186.5809261071
 30
0.0
 40
6.0
  1
B-22ü@
  7
òÂÄÜùp_BIGHONT
  0
TEXT
  5
19B4B
  8
ér
 10
118214.00080524231
 20
-117196.5809261071
 30
0.0
 40
6.0
  1
üiÆúéÞÄné▀üEÆúéÞÅIéóùpâoâbâNìÌüj
  7
òÂÄÜùp_BIGHONT
  0
ENDBLK
  5
19B4D
  8
0
  0
BLOCK
  8
0
  2
*U95
 70
     1
 10
0.0
 20
0.0
 30
0.0
  3
*U95
  1

  0
TEXT
  5
19B4F
  8
ér
 10
117828.4166626657
 20
-117241.761755771
 30
0.0
 40
4.0
  1
ù╝û╩âe-âv
  0
LINE
  5
19B50
  8
ér
  6
BYBLOCK
 10
117826.0566626658
 20
-117239.761755771
 30
0.0
 11
117826.4166626658
 21
-117239.761755771
 31
0.0
  0
POLYLINE
  5
19B51
  8
ér
  6
BYBLOCK
 66
     1
 10
0.0
 20
0.0
 30
0.0
  0
VERTEX
  5
19B52
  8
ér
  6
BYBLOCK
 10
117818.2233685449
 20
-117231.9284616502
 30
0.0
  0
VERTEX
  5
19B53
  8
ér
  6
BYBLOCK
 10
117826.0566626658
 20
-117239.761755771
 30
0.0
  0
SEQEND
  5
19B54
  8
ér
  6
BYBLOCK
  0
SOLID
  5
19B55
  8
ér
 10
117817.75196402409
 20
-117232.39986617101
 30
0.0
 11
117815.39494142021
 21
-117229.1000345254
 31
0.0
 12
117818.6947730657
 22
-117231.4570571294
 32
0.0
 13
117818.6947730657
 23
-117231.4570571294
 33
0.0
  0
ENDBLK
  5
19B57
  8
0
  0
BLOCK
  8
0
  2
*U96
 70
     1
 10
0.0
 20
0.0
 30
0.0
  3
*U96
  1

  0
TEXT
  5
19B59
  8
ér
 10
118300.19152578821
 20
-117264.845710717
 30
0.0
 40
4.0
  1
ù╝û╩âe-âv
  0
LINE
  5
19B5A
  8
ér
  6
BYBLOCK
 10
118297.83152578821
 20
-117262.845710717
 30
0.0
 11
118298.19152578821
 21
-117262.845710717
 31
0.0
  0
POLYLINE
  5
19B5B
  8
ér
  6
BYBLOCK
 66
     1
 10
0.0
 20
0.0
 30
0.0
  0
VERTEX
  5
19B5C
  8
ér
  6
BYBLOCK
 10
118289.5222966827
 20
-117251.41907536369
 30
0.0
  0
VERTEX
  5
19B5D
  8
ér
  6
BYBLOCK
 10
118297.83152578821
 20
-117262.845710717
 30
0.0
  0
SEQEND
  5
19B5E
  8
ér
  6
BYBLOCK
  0
SOLID
  5
19B5F
  8
ér
 10
118288.9831157006
 20
-117251.8111573871
 30
0.0
 11
118287.1698045427
 21
-117248.18398947141
 31
0.0
 12
118290.0614776648
 22
-117251.02699334041
 32
0.0
 13
118290.0614776648
 23
-117251.02699334041
 33
0.0
  0
ENDBLK
  5
19B61
  8
0
  0
BLOCK
  8
0
  2
*U97
 70
     1
 10
0.0
 20
0.0
 30
0.0
  3
*U97
  1

  0
TEXT
  5
19B63
  8
ér
 62
     7
 10
117793.21998521819
 20
-117225.0955702397
 30
0.0
 40
3.25
  1
13
 50
90.0
 41
0.75
  7
Éíû@ùp_BIGFONT
  0
ENDBLK
  5
19B65
  8
0
  0
BLOCK
  8
0
  2
*U98
 70
     1
 10
0.0
 20
0.0
 30
0.0
  3
*U98
  1

  0
TEXT
  5
19B67
  8
ér
 62
     7
 10
117811.0833207946
 20
-117239.524961553
 30
0.0
 40
3.25
  1
13
 41
0.75
  7
Éíû@ùp_BIGFONT
  0
ENDBLK
  5
19B69
  8
0
  0
BLOCK
  8
0
  2
*U99
 70
     1
 10
0.0
 20
0.0
 30
0.0
  3
*U99
  1

  0
TEXT
  5
19B6B
  8
ér
 62
     7
 10
117831.94043393611
 20
-117225.0955702397
 30
0.0
 40
3.25
  1
13
 50
90.0
 41
0.75
  7
Éíû@ùp_BIGFONT
  0
ENDBLK
  5
19B6D
  8
0
  0
BLOCK
  8
0
  2
*U100
 70
     1
 10
0.0
 20
0.0
 30
0.0
  3
*U100
  1

  0
TEXT
  5
19B6F
  8
ér
 62
     7
 10
117948.8279561322
 20
-116972.72277988659
 30
0.0
 40
3.25
  1
30
 50
90.0
 41
0.75
  7
Éíû@ùp_BIGFONT
  0
ENDBLK
  5
19B71
  8
0
  0
BLOCK
  8
0
  2
*U101
 70
     1
 10
0.0
 20
0.0
 30
0.0
  3
*U101
  1

  0
TEXT
  5
19B73
  8
ér
 62
     7
 10
117963.0474294649
 20
-116996.4037958452
 30
0.0
 40
3.25
  1
9
 50
90.0
 41
0.75
  7
Éíû@ùp_BIGFONT
  0
ENDBLK
  5
19B75
  8
0
  0
BLOCK
  8
0
  2
*U102
 70
     1
 10
0.0
 20
0.0
 30
0.0
  3
*U102
  1

  0
TEXT
  5
19B77
  8
ér
 62
     7
 10
117967.79595386051
 20
-116940.60197214071
 30
0.0
 40
3.25
  1
15
 41
0.75
  7
Éíû@ùp_BIGFONT
  0
ENDBLK
  5
19B79
  8
0
  0
BLOCK
  8
0
  2
*U103
 70
     1
 10
0.0
 20
0.0
 30
0.0
  3
*U103
  1

  0
TEXT
  5
19B7B
  8
ér
 62
     7
 10
117995.4601870301
 20
-116994.79665298801
 30
0.0
 40
3.25
  1
15
 50
90.0
 41
0.75
  7
Éíû@ùp_BIGFONT
  0
ENDBLK
  5
19B7D
  8
0
  0
BLOCK
  8
0
  2
*U104
 70
     1
 10
0.0
 20
0.0
 30
0.0
  3
*U104
  1

  0
TEXT
  5
19B7F
  8
ér
 62
     7
 10
117951.6504383252
 20
-117193.6114806212
 30
0.0
 40
3.25
  1
35
 41
0.75
  7
Éíû@ùp_BIGFONT
  0
ENDBLK
  5
19B81
  8
0
  0
BLOCK
  8
0
  2
*U105
 70
     1
 10
0.0
 20
0.0
 30
0.0
  3
*U105
  1

  0
TEXT
  5
19B83
  8
ér
 62
     7
 10
117988.68180113949
 20
-117232.0040041671
 30
0.0
 40
3.25
  1
46
 50
90.0
 41
0.75
  7
Éíû@ùp_BIGFONT
  0
ENDBLK
  5
19B85
  8
0
  0
BLOCK
  8
0
  2
*U106
 70
     1
 10
0.0
 20
0.0
 30
0.0
  3
*U106
  1

  0
TEXT
  5
19B87
  8
ér
 62
     7
 10
117937.1645712594
 20
-117250.1781113099
 30
0.0
 40
3.25
  1
10
 50
90.0
 41
0.75
  7
Éíû@ùp_BIGFONT
  0
ENDBLK
  5
19B89
  8
0
  0
BLOCK
  8
0
  2
*U107
 70
     1
 10
0.0
 20
0.0
 30
0.0
  3
*U107
  1

  0
TEXT
  5
19B8B
  8
ér
 62
     7
 10
117959.1504383252
 20
-117264.6487066429
 30
0.0
 40
3.25
  1
20
 41
0.75
  7
Éíû@ùp_BIGFONT
  0
ENDBLK
  5
19B8D
  8
0
  0
BLOCK
  8
0
  2
*U108
 70
     1
 10
0.0
 20
0.0
 30
0.0
  3
*U108
  1

  0
TEXT
  5
19B8F
  8
ér
 62
     7
 10
117937.1645712594
 20
-117230.33614702419
 30
0.0
 40
3.25
  1
ôÓÉí35
 50
90.0
 41
0.75
  7
Éíû@ùp_BIGFONT
  0
ENDBLK
  5
19B91
  8
0
  0
BLOCK
  8
0
  2
*U109
 70
     1
 10
0.0
 20
0.0
 30
0.0
  3
*U109
  1

  0
TEXT
  5
19B93
  8
ér
 62
     7
 10
117953.8111526109
 20
-117230.02160183431
 30
0.0
 40
3.25
  1
7
 41
0.75
  7
Éíû@ùp_BIGFONT
  0
ENDBLK
  5
19B95
  8
0
  0
BLOCK
  8
0
  2
*U110
 70
     1
 10
0.0
 20
0.0
 30
0.0
  3
*U110
  1

  0
TEXT
  5
19B97
  8
ér
 62
     7
 10
118102.1823327653
 20
-116923.07669748311
 30
0.0
 40
3.25
  1
20
 41
0.75
  7
Éíû@ùp_BIGFONT
  0
ENDBLK
  5
19B99
  8
0
  0
BLOCK
  8
0
  2
*U111
 70
     1
 10
0.0
 20
0.0
 30
0.0
  3
*U111
  1

  0
TEXT
  5
19B9B
  8
ér
 62
     7
 10
118078.14675341229
 20
-116981.62736866251
 30
0.0
 40
3.25
  1
30
 50
90.0
 41
0.75
  7
Éíû@ùp_BIGFONT
  0
ENDBLK
  5
19B9D
  8
0
  0
BLOCK
  8
0
  2
*U112
 70
     1
 10
0.0
 20
0.0
 30
0.0
  3
*U112
  1

  0
TEXT
  5
19B9F
  8
ér
 62
     7
 10
118107.18233276519
 20
-117006.296142311
 30
0.0
 40
3.25
  1
30
 41
0.75
  7
Éíû@ùp_BIGFONT
  0
ENDBLK
  5
19BA1
  8
0
  0
BLOCK
  8
0
  2
*U113
 70
     1
 10
0.0
 20
0.0
 30
0.0
  3
*U113
  1

  0
TEXT
  5
19BA3
  8
ér
 62
     7
 10
118163.9023296308
 20
-116986.6273686624
 30
0.0
 40
3.25
  1
20
 50
90.0
 41
0.75
  7
Éíû@ùp_BIGFONT
  0
ENDBLK
  5
19BA5
  8
0
  0
BLOCK
  8
0
  2
*U114
 70
     1
 10
0.0
 20
0.0
 30
0.0
  3
*U114
  1

  0
TEXT
  5
19BA7
  8
ér
 62
     7
 10
118078.14675341229
 20
-116954.12736866251
 30
0.0
 40
3.25
  1
25
 50
90.0
 41
0.75
  7
Éíû@ùp_BIGFONT
  0
ENDBLK
  5
19BA9
  8
0
  0
BLOCK
  8
0
  2
*U115
 70
     1
 10
0.0
 20
0.0
 30
0.0
  3
*U115
  1

  0
TEXT
  5
19BAB
  8
ér
 62
     7
 10
118134.68233276519
 20
-117006.296142311
 30
0.0
 40
3.25
  1
25
 41
0.75
  7
Éíû@ùp_BIGFONT
  0
ENDBLK
  5
19BAD
  8
0
  0
BLOCK
  8
0
  2
*U116
 70
     1
 10
0.0
 20
0.0
 30
0.0
  3
*U116
  1

  0
TEXT
  5
19BAF
  8
ér
 62
     7
 10
118117.0525810988
 20
-117199.40883673581
 30
0.0
 40
3.25
  1
40
 41
0.75
  7
Éíû@ùp_BIGFONT
  0
ENDBLK
  5
19BB1
  8
0
  0
BLOCK
  8
0
  2
*U117
 70
     1
 10
0.0
 20
0.0
 30
0.0
  3
*U117
  1

  0
TEXT
  5
19BB3
  8
ér
 62
     7
 10
118085.0768447929
 20
-117239.72853852921
 30
0.0
 40
3.25
  1
ôÓÉí35
 50
90.0
 41
0.75
  7
Éíû@ùp_BIGFONT
  0
ENDBLK
  5
19BB5
  8
0
  0
BLOCK
  8
0
  2
*U118
 70
     1
 10
0.0
 20
0.0
 30
0.0
  3
*U118
  1

  0
TEXT
  5
19BB7
  8
ér
 62
     7
 10
118149.0225976416
 20
-117239.35353852921
 30
0.0
 40
3.25
  1
37.4
 50
90.0
 41
0.75
  7
Éíû@ùp_BIGFONT
  0
ENDBLK
  5
19BB9
  8
0
  0
BLOCK
  8
0
  2
*U119
 70
     1
 10
0.0
 20
0.0
 30
0.0
  3
*U119
  1

  0
TEXT
  5
19BBB
  8
ér
 62
     7
 10
118117.0525810988
 20
-117272.3365123643
 30
0.0
 40
3.25
  1
25
 41
0.75
  7
Éíû@ùp_BIGFONT
  0
ENDBLK
  5
19BBD
  8
0
  0
BLOCK
  8
0
  2
*U120
 70
     1
 10
0.0
 20
0.0
 30
0.0
  3
*U120
  1

  0
TEXT
  5
19BBF
  8
ér
 62
     7
 10
118252.6468395025
 20
-116960.0287711788
 30
0.0
 40
3.25
  1
40
 50
90.0
 41
0.75
  7
Éíû@ùp_BIGFONT
  0
ENDBLK
  5
19BC1
  8
0
  0
BLOCK
  8
0
  2
*U121
 70
     1
 10
0.0
 20
0.0
 30
0.0
  3
*U121
  1

  0
TEXT
  5
19BC3
  8
ér
 62
     7
 10
118275.3284216129
 20
-116927.5372869728
 30
0.0
 40
3.25
  1
20
 41
0.75
  7
Éíû@ùp_BIGFONT
  0
ENDBLK
  5
19BC5
  8
0
  0
BLOCK
  8
0
  2
*U122
 70
     1
 10
0.0
 20
0.0
 30
0.0
  3
*U122
  1

  0
TEXT
  5
19BC7
  8
ér
 62
     7
 10
118275.3284216129
 20
-117007.3717225107
 30
0.0
 40
3.25
  1
20
 41
0.75
  7
Éíû@ùp_BIGFONT
  0
ENDBLK
  5
19BC9
  8
0
  0
BLOCK
  8
0
  2
*U123
 70
     1
 10
0.0
 20
0.0
 30
0.0
  3
*U123
  1

  0
TEXT
  5
19BCB
  8
ér
 62
     7
 10
118252.6468395025
 20
-116996.3260926073
 30
0.0
 40
3.25
  1
6
 50
90.0
 41
0.75
  7
Éíû@ùp_BIGFONT
  0
ENDBLK
  5
19BCD
  8
0
  0
BLOCK
  8
0
  2
*U124
 70
     1
 10
0.0
 20
0.0
 30
0.0
  3
*U124
  1

  0
TEXT
  5
19BCF
  8
ér
 62
     7
 10
118252.6468395025
 20
-116989.2019854645
 30
0.0
 40
3.25
  1
14.5
 50
90.0
 41
0.75
  7
Éíû@ùp_BIGFONT
  0
ENDBLK
  5
19BD1
  8
0
  0
BLOCK
  8
0
  2
*U125
 70
     1
 10
0.0
 20
0.0
 30
0.0
  3
*U125
  1

  0
TEXT
  5
19BD3
  8
ér
 62
     7
 10
118246.6228921796
 20
-117235.5545251975
 30
0.0
 40
3.25
  1
33.5
 50
90.0
 41
0.75
  7
Éíû@ùp_BIGFONT
  0
ENDBLK
  5
19BD5
  8
0
  0
BLOCK
  8
0
  2
*U126
 70
     1
 10
0.0
 20
0.0
 30
0.0
  3
*U126
  1

  0
TEXT
  5
19BD7
  8
ér
 62
     7
 10
118276.9938426135
 20
-117265.4006669111
 30
0.0
 40
3.25
  1
25
 41
0.75
  7
Éíû@ùp_BIGFONT
  0
ENDBLK
  5
19BD9
  8
0
  0
BLOCK
  8
0
  2
*U127
 70
     1
 10
0.0
 20
0.0
 30
0.0
  3
*U127
  1

  0
TEXT
  5
19BDB
  8
ér
 62
     7
 10
118311.6411154525
 20
-117235.5545251975
 30
0.0
 40
3.25
  1
33.5
 50
90.0
 41
0.75
  7
Éíû@ùp_BIGFONT
  0
ENDBLK
  5
19BDD
  8
0
  0
BLOCK
  8
0
  2
*U128
 70
     1
 10
0.0
 20
0.0
 30
0.0
  3
*U128
  1

  0
TEXT
  5
19BEB
  8
ér
 62
     7
 10
118282.15896858121
 20
-116888.03415441699
 30
0.0
 40
3.25
  1
148.4
 41
0.75
  7
Éíû@ùp_BIGFONT
  0
ENDBLK
  5
19BED
  8
0
  0
BLOCK
  8
0
  2
*U129
 70
     1
 10
0.0
 20
0.0
 30
0.0
  3
*U129
  1

  0
TEXT
  5
19BEF
  8
ér
 62
     7
 10
118410.6071242734
 20
-116942.7675663065
 30
0.0
 40
3.25
  1
30
 41
0.75
  7
Éíû@ùp_BIGFONT
  0
ENDBLK
  5
19BF1
  8
0
  0
BLOCK
  8
0
  2
*U130
 70
     1
 10
0.0
 20
0.0
 30
0.0
  3
*U130
  1

  0
TEXT
  5
19BF3
  8
ér
 62
     7
 10
118430.4330615098
 20
-116942.7675663065
 30
0.0
 40
3.25
  1
10
 41
0.75
  7
Éíû@ùp_BIGFONT
  0
ENDBLK
  5
19BF5
  8
0
  0
BLOCK
  8
0
  2
*U131
 70
     1
 10
0.0
 20
0.0
 30
0.0
  3
*U131
  1

  0
TEXT
  5
19BF7
  8
ér
 62
     7
 10
118459.0364780415
 20
-116966.78644991681
 30
0.0
 40
3.25
  1
8.7
 50
90.0
 41
0.75
  7
Éíû@ùp_BIGFONT
  0
ENDBLK
  5
19BF9
  8
0
  0
BLOCK
  8
0
  2
*U132
 70
     1
 10
0.0
 20
0.0
 30
0.0
  3
*U132
  1

  0
TEXT
  5
19BFB
  8
ér
 62
     7
 10
118459.0364780415
 20
-116975.6722737683
 30
0.0
 40
3.25
  1
10
 50
90.0
 41
0.75
  7
Éíû@ùp_BIGFONT
  0
ENDBLK
  5
19BFD
  8
0
  0
BLOCK
  8
0
  2
*U133
 70
     1
 10
0.0
 20
0.0
 30
0.0
  3
*U133
  1

  0
TEXT
  5
19BFF
  8
ér
 62
     7
 10
118388.4722708976
 20
-116977.837420585
 30
0.0
 40
3.25
  1
3
 50
90.0
 41
0.75
  7
Éíû@ùp_BIGFONT
  0
ENDBLK
  5
19C01
  8
0
  0
BLOCK
  8
0
  2
*U134
 70
     1
 10
0.0
 20
0.0
 30
0.0
  3
*U134
  1

  0
TEXT
  5
19C03
  8
ér
 62
     7
 10
118388.4722708976
 20
-116972.2212395907
 30
0.0
 40
3.25
  1
14.5
 50
90.0
 41
0.75
  7
Éíû@ùp_BIGFONT
  0
ENDBLK
  5
19C05
  8
0
  0
BLOCK
  8
0
  2
*U135
 70
     1
 10
0.0
 20
0.0
 30
0.0
  3
*U135
  1

  0
TEXT
  5
19C07
  8
ér
 62
     7
 10
118417.9330171305
 20
-116990.91275899509
 30
0.0
 40
3.25
  1
15
 41
0.75
  7
Éíû@ùp_BIGFONT
  0
ENDBLK
  5
19C09
  8
0
  0
BLOCK
  8
0
  2
*U136
 70
     1
 10
0.0
 20
0.0
 30
0.0
  3
*U136
  1

  0
TEXT
  5
19C0B
  8
ér
 62
     7
 10
117817.2491549726
 20
-117080.9319886845
 30
0.0
 40
3.25
  1
40
 41
0.75
  7
Éíû@ùp_BIGFONT
  0
ENDBLK
  5
19C0D
  8
0
  0
BLOCK
  8
0
  2
*U137
 70
     1
 10
0.0
 20
0.0
 30
0.0
  3
*U137
  1

  0
TEXT
  5
19C0F
  8
ér
 62
     7
 10
117858.53634723451
 20
-117108.1144355112
 30
0.0
 40
3.25
  1
18.2
 50
90.0
 41
0.75
  7
Éíû@ùp_BIGFONT
  0
ENDBLK
  5
19C11
  8
0
  0
BLOCK
  8
0
  2
*U138
 70
     1
 10
0.0
 20
0.0
 30
0.0
  3
*U138
  1

  0
TEXT
  5
19C13
  8
ér
 62
     7
 10
117850.2837026069
 20
-117107.4644355112
 30
0.0
 40
3.25
  1
14.5
 50
90.0
 41
0.75
  7
Éíû@ùp_BIGFONT
  0
ENDBLK
  5
19C15
  8
0
  0
BLOCK
  8
0
  2
*U139
 70
     1
 10
0.0
 20
0.0
 30
0.0
  3
*U139
  1

  0
TEXT
  5
19C17
  8
ér
 62
     7
 10
117817.2491279457
 20
-117125.8124820511
 30
0.0
 40
3.25
  1
20
 41
0.75
  7
Éíû@ùp_BIGFONT
  0
ENDBLK
  5
19C19
  8
0
  0
BLOCK
  8
0
  2
*U140
 70
     1
 10
0.0
 20
0.0
 30
0.0
  3
*U140
  1

  0
TEXT
  5
19C1B
  8
ér
 62
     7
 10
117850.2837026069
 20
-117119.4607197351
 30
0.0
 40
3.25
  1
2.5
 50
90.0
 41
0.75
  7
Éíû@ùp_BIGFONT
  0
ENDBLK
  5
19C1D
  8
0
  0
BLOCK
  8
0
  2
*U141
 70
     1
 10
0.0
 20
0.0
 30
0.0
  3
*U141
  1

  0
TEXT
  5
19C1F
  8
ér
 62
     7
 10
117936.00243101981
 20
-117079.0686558906
 30
0.0
 40
3.25
  1
30
 41
0.75
  7
Éíû@ùp_BIGFONT
  0
ENDBLK
  5
19C21
  8
0
  0
BLOCK
  8
0
  2
*U142
 70
     1
 10
0.0
 20
0.0
 30
0.0
  3
*U142
  1

  0
TEXT
  5
19C23
  8
ér
 62
     7
 10
117926.0360615659
 20
-117104.13933916661
 30
0.0
 40
3.25
  1
13.5
 50
90.0
 41
0.75
  7
Éíû@ùp_BIGFONT
  0
ENDBLK
  5
19C25
  8
0
  0
BLOCK
  8
0
  2
*U143
 70
     1
 10
0.0
 20
0.0
 30
0.0
  3
*U143
  1

  0
TEXT
  5
19C27
  8
ér
 62
     7
 10
117971.53205791071
 20
-117122.0835061009
 30
0.0
 40
3.25
  1
30
 50
300.00000000394118
 41
0.75
  7
Éíû@ùp_BIGFONT
  0
ENDBLK
  5
19C29
  8
0
  0
BLOCK
  8
0
  2
*U144
 70
     1
 10
0.0
 20
0.0
 30
0.0
  3
*U144
  1

  0
TEXT
  5
19C2B
  8
ér
 62
     7
 10
117952.9792259391
 20
-117114.22234016391
 30
0.0
 40
3.25
  1
30
 41
0.75
  7
Éíû@ùp_BIGFONT
  0
ENDBLK
  5
19C2D
  8
0
  0
BLOCK
  8
0
  2
*U145
 70
     1
 10
0.0
 20
0.0
 30
0.0
  3
*U145
  1

  0
TEXT
  5
19C2F
  8
ér
 62
     7
 10
118014.6476734052
 20
-117116.7938081195
 30
0.0
 40
3.25
  1
30
 50
300.00000000275492
 41
0.75
  7
Éíû@ùp_BIGFONT
  0
ENDBLK
  5
19C31
  8
0
  0
BLOCK
  8
0
  2
*U146
 70
     1
 10
0.0
 20
0.0
 30
0.0
  3
*U146
  1

  0
TEXT
  5
19C33
  8
ér
 62
     7
 10
117994.94600247221
 20
-117142.81116923961
 30
0.0
 40
3.25
  1
13.5
 50
30.00000000279789
 41
0.75
  7
Éíû@ùp_BIGFONT
  0
ENDBLK
  5
19C35
  8
0
  0
BLOCK
  8
0
  2
*U147
 70
     1
 10
0.0
 20
0.0
 30
0.0
  3
*U147
  1

  0
TEXT
  5
19C37
  8
ér
 62
     7
 10
118086.12875616339
 20
-117079.0686558906
 30
0.0
 40
3.25
  1
30
 41
0.75
  7
Éíû@ùp_BIGFONT
  0
ENDBLK
  5
19C39
  8
0
  0
BLOCK
  8
0
  2
*U148
 70
     1
 10
0.0
 20
0.0
 30
0.0
  3
*U148
  1

  0
TEXT
  5
19C3B
  8
ér
 62
     7
 10
118076.1623867095
 20
-117102.1482677381
 30
0.0
 40
3.25
  1
14
 50
90.0
 41
0.75
  7
Éíû@ùp_BIGFONT
  0
ENDBLK
  5
19C3D
  8
0
  0
BLOCK
  8
0
  2
*U149
 70
     1
 10
0.0
 20
0.0
 30
0.0
  3
*U149
  1

  0
TEXT
  5
19C3F
  8
ér
 62
     7
 10
118121.65838305429
 20
-117122.0835061008
 30
0.0
 40
3.25
  1
30
 50
300.00000000394118
 41
0.75
  7
Éíû@ùp_BIGFONT
  0
ENDBLK
  5
19C41
  8
0
  0
BLOCK
  8
0
  2
*U150
 70
     1
 10
0.0
 20
0.0
 30
0.0
  3
*U150
  1

  0
TEXT
  5
19C43
  8
ér
 62
     7
 10
118103.1055510826
 20
-117114.22234016391
 30
0.0
 40
3.25
  1
30
 41
0.75
  7
Éíû@ùp_BIGFONT
  0
ENDBLK
  5
19C45
  8
0
  0
BLOCK
  8
0
  2
*U151
 70
     1
 10
0.0
 20
0.0
 30
0.0
  3
*U151
  1

  0
TEXT
  5
19C47
  8
ér
 62
     7
 10
118165.2070112506
 20
-117116.5438081195
 30
0.0
 40
3.25
  1
30
 50
300.00000000275492
 41
0.75
  7
Éíû@ùp_BIGFONT
  0
ENDBLK
  5
19C49
  8
0
  0
BLOCK
  8
0
  2
*U152
 70
     1
 10
0.0
 20
0.0
 30
0.0
  3
*U152
  1

  0
TEXT
  5
19C4B
  8
ér
 62
     7
 10
118146.7966460536
 20
-117141.8156335252
 30
0.0
 40
3.25
  1
14
 50
30.000000002781551
 41
0.75
  7
Éíû@ùp_BIGFONT
  0
ENDBLK
  5
19C4D
  8
0
  0
BLOCK
  8
0
  2
*U153
 70
     1
 10
0.0
 20
0.0
 30
0.0
  3
*U153
  1

  0
TEXT
  5
19C4F
  8
ér
 62
     7
 10
118255.4849335467
 20
-117145.64881099859
 30
0.0
 40
3.25
  1
30
 41
0.75
  7
Éíû@ùp_BIGFONT
  0
ENDBLK
  5
19C51
  8
0
  0
BLOCK
  8
0
  2
*U154
 70
     1
 10
0.0
 20
0.0
 30
0.0
  3
*U154
  1

  0
TEXT
  5
19C53
  8
ér
 62
     7
 10
118287.5149900024
 20
-117128.6411660942
 30
0.0
 40
3.25
  1
30
 50
60.120130593756869
 41
0.75
  7
Éíû@ùp_BIGFONT
  0
ENDBLK
  5
19C55
  8
0
  0
BLOCK
  8
0
  2
*U155
 70
     1
 10
0.0
 20
0.0
 30
0.0
  3
*U155
  1

  0
TEXT
  5
19C57
  8
ér
 62
     7
 10
118282.5522785691
 20
-117092.7285870053
 30
0.0
 40
3.25
  1
13.5
 50
330.0000000007185
 41
0.75
  7
Éíû@ùp_BIGFONT
  0
ENDBLK
  5
19C59
  8
0
  0
BLOCK
  8
0
  2
*U156
 70
     1
 10
0.0
 20
0.0
 30
0.0
  3
*U156
  1

  0
TEXT
  5
19C5B
  8
ér
 62
     7
 10
118264.9839950325
 20
-117095.9994412082
 30
0.0
 40
3.25
  1
30
 50
59.99999999802472
 41
0.75
  7
Éíû@ùp_BIGFONT
  0
ENDBLK
  5
19C5D
  8
0
  0
BLOCK
  8
0
  2
*U157
 70
     1
 10
0.0
 20
0.0
 30
0.0
  3
*U157
  1

  0
TEXT
  5
19C5F
  8
ér
 62
     7
 10
118236.623562658
 20
-117109.0010698691
 30
0.0
 40
3.25
  1
29.7
 50
359.49210404998939
 41
0.75
  7
Éíû@ùp_BIGFONT
  0
ENDBLK
  5
19C61
  8
0
  0
BLOCK
  8
0
  2
*U158
 70
     1
 10
0.0
 20
0.0
 30
0.0
  3
*U158
  1

  0
TEXT
  5
19C63
  8
ér
 62
     7
 10
118229.06603580491
 20
-117130.8000059302
 30
0.0
 40
3.25
  1
13.5
 50
90.0
 41
0.75
  7
Éíû@ùp_BIGFONT
  0
ENDBLK
  5
19C65
  8
0
  0
BLOCK
  8
0
  2
*U159
 70
     1
 10
0.0
 20
0.0
 30
0.0
  3
*U159
  1

  0
TEXT
  5
19C70
  8
ér
 62
     7
 10
118402.034076157
 20
-117145.64881099859
 30
0.0
 40
3.25
  1
30
 41
0.75
  7
Éíû@ùp_BIGFONT
  0
ENDBLK
  5
19C72
  8
0
  0
BLOCK
  8
0
  2
*U160
 70
     1
 10
0.0
 20
0.0
 30
0.0
  3
*U160
  1

  0
TEXT
  5
19C74
  8
ér
 62
     7
 10
118434.06413261269
 20
-117128.6411660942
 30
0.0
 40
3.25
  1
30
 50
60.120130593756869
 41
0.75
  7
Éíû@ùp_BIGFONT
  0
ENDBLK
  5
19C76
  8
0
  0
BLOCK
  8
0
  2
*U161
 70
     1
 10
0.0
 20
0.0
 30
0.0
  3
*U161
  1

  0
TEXT
  5
19C78
  8
ér
 62
     7
 10
118385.01079600101
 20
-117108.66935836
 30
0.0
 40
3.25
  1
30
 41
0.75
  7
Éíû@ùp_BIGFONT
  0
ENDBLK
  5
19C7A
  8
0
  0
BLOCK
  8
0
  2
*U162
 70
     1
 10
0.0
 20
0.0
 30
0.0
  3
*U162
  1

  0
TEXT
  5
19C7C
  8
ér
 62
     7
 10
118375.6151784152
 20
-117128.80893450171
 30
0.0
 40
3.25
  1
14
 50
90.0
 41
0.75
  7
Éíû@ùp_BIGFONT
  0
ENDBLK
  5
19C7E
  8
0
  0
BLOCK
  8
0
  2
*U163
 70
     1
 10
0.0
 20
0.0
 30
0.0
  3
*U163
  1

  0
TEXT
  5
19C80
  8
ér
 62
     7
 10
118430.39272691539
 20
-117093.4741227195
 30
0.0
 40
3.25
  1
14
 50
330.00000000069059
 41
0.75
  7
Éíû@ùp_BIGFONT
  0
ENDBLK
  5
19C82
  8
0
  0
BLOCK
  8
0
  2
*U164
 70
     1
 10
0.0
 20
0.0
 30
0.0
  3
*U164
  1

  0
TEXT
  5
19C84
  8
ér
 62
     7
 10
118411.099233557
 20
-117095.7537658052
 30
0.0
 40
3.25
  1
30
 50
60.000132562710313
 41
0.75
  7
Éíû@ùp_BIGFONT
  0
ENDBLK
  5
19C86
  8
0
  0
ENDSEC
  0
SECTION
  2
ENTITIES
  0
LINE
  5
164C1
  8
0
  6
CONTINUOUS
 10
117823.346742006
 20
-116976.71972914461
 30
0.0
 11
117824.34679605989
 21
-116976.71972914461
 31
0.0
  0
LINE
  5
164C2
  8
0
  6
CONTINUOUS
 10
117824.34679605989
 20
-116978.7197926541
 30
0.0
 11
117824.34679605989
 21
-116976.71972914461
 31
0.0
  0
LINE
  5
164C3
  8
0
  6
CONTINUOUS
 10
117824.34679605989
 20
-116978.7197926541
 30
0.0
 11
117837.346742006
 21
-116978.7197926541
 31
0.0
  0
LINE
  5
164C4
  8
0
  6
CONTINUOUS
 10
117823.346742006
 20
-116976.71972914461
 30
0.0
 11
117823.346742006
 21
-116979.7197926541
 31
0.0
  0
LINE
  5
164C5
  8
0
  6
CONTINUOUS
 10
117823.34679605989
 20
-116979.7197926541
 30
0.0
 11
117838.34674200611
 21
-116979.7197926541
 31
0.0
  0
LINE
  5
164C6
  8
0
  6
CONTINUOUS
 10
117838.34674200611
 20
-116979.7197926541
 30
0.0
 11
117838.34674200611
 21
-116961.2195735226
 31
0.0
  0
LINE
  5
164C7
  8
0
  6
CONTINUOUS
 10
117837.346742006
 20
-116962.2195735226
 30
0.0
 11
117837.346742006
 21
-116978.7197926541
 31
0.0
  0
LINE
  5
164C9
  8
0
  6
CONTINUOUS
 10
117808.346742006
 20
-116961.2195735226
 30
0.0
 11
117808.346742006
 21
-116962.2195735226
 31
0.0
  0
LINE
  5
164CA
  8
0
  6
CONTINUOUS
 10
117838.34674200611
 20
-116961.2195735226
 30
0.0
 11
117808.3468501137
 21
-116961.2195735226
 31
0.0
  0
LINE
  5
164CB
  8
0
  6
CONTINUOUS
 10
117837.346742006
 20
-116962.2195735226
 30
0.0
 11
117808.346742006
 21
-116962.2195735226
 31
0.0
  0
ARC
  5
16700
  8
0
 10
117976.7914895748
 20
-116985.8013513152
 30
0.0
 40
1.0
 50
0.0
 51
90.0
  0
LINE
  5
16703
  8
0
 10
117975.5914895748
 20
-116990.80135131501
 30
0.0
 11
117975.5914895748
 21
-116998.70088323241
 31
0.0
  0
LINE
  5
16706
  8
0
 10
117975.5914895748
 20
-116990.8013513152
 30
0.0
 11
117976.19148957481
 21
-116990.8013513152
 31
0.0
  0
LINE
  5
16709
  8
0
 10
117977.7914895748
 20
-116985.8013513152
 30
0.0
 11
117977.7914895748
 21
-116998.70088323241
 31
0.0
  0
LINE
  5
1670A
  8
0
 10
117962.7914895748
 20
-116955.4013513152
 30
0.0
 11
117963.3914895748
 21
-116955.4013513152
 31
0.0
  0
LINE
  5
1670B
  8
0
 10
117963.8914895748
 20
-116984.8013513152
 30
0.0
 11
117976.7914895748
 21
-116984.8013513152
 31
0.0
  0
LINE
  5
1670C
  8
0
 10
117962.7914895748
 20
-116955.4013513152
 30
0.0
 11
117962.7914895748
 21
-116984.3013513152
 31
0.0
  0
LINE
  5
16BA2
  8
0
  6
CONTINUOUS
 10
118414.12860689859
 20
-116975.1765189226
 30
0.0
 11
118413.12855284481
 21
-116975.1765189226
 31
0.0
  0
LINE
  5
16BA3
  8
0
  6
CONTINUOUS
 10
118412.92855284479
 20
-116975.17667454459
 30
0.0
 11
118414.12860689859
 21
-116975.17667454459
 31
0.0
  0
LINE
  5
16BA4
  8
0
  6
CONTINUOUS
 10
118414.12860689859
 20
-116976.9767380542
 30
0.0
 11
118414.12860689859
 21
-116975.1765189226
 31
0.0
  0
LINE
  5
16BA5
  8
0
  6
CONTINUOUS
 10
118414.12860689859
 20
-116976.9767380542
 30
0.0
 11
118426.7285528448
 21
-116976.9767380542
 31
0.0
  0
LINE
  5
16BA6
  8
0
  6
CONTINUOUS
 10
118426.7285528448
 20
-116976.9767380542
 30
0.0
 11
118426.7285528448
 21
-116960.6765189226
 31
0.0
  0
LINE
  5
16BA7
  8
0
  6
CONTINUOUS
 10
118426.7285528448
 20
-116960.6765189226
 30
0.0
 11
118426.7285528448
 21
-116966.9765538293
 31
0.0
  0
LINE
  5
16BA9
  8
0
  6
CONTINUOUS
 10
118426.7285528448
 20
-116960.6765189226
 30
0.0
 11
118397.92855284479
 21
-116960.6765189226
 31
0.0
  0
LINE
  5
16BB7
  8
0
  6
CONTINUOUS
 10
117815.2466966302
 20
-117094.7197926542
 30
0.0
 11
117819.66058032549
 21
-117094.7197926542
 31
0.0
  0
LINE
  5
16BBA
  8
0
  6
CONTINUOUS
 10
117809.5706375978
 20
-117112.91979265409
 30
0.0
 11
117824.5705835441
 21
-117112.91979265409
 31
0.0
  0
LINE
  5
16BBE
  8
0
  6
CONTINUOUS
 10
117809.570583544
 20
-117110.4197926542
 30
0.0
 11
117809.570583544
 21
-117112.91979265409
 31
0.0
  0
LINE
  5
16BBF
  8
0
  6
CONTINUOUS
 10
117809.570583544
 20
-117110.4197926542
 30
0.0
 11
117810.570583544
 21
-117110.4197926542
 31
0.0
  0
LINE
  5
16BC0
  8
0
  6
CONTINUOUS
 10
117829.5705835441
 20
-117110.4197926542
 30
0.0
 11
117828.5705835441
 21
-117110.4197926542
 31
0.0
  0
LINE
  5
16BC1
  8
0
  6
CONTINUOUS
 10
117829.5705835441
 20
-117110.4197926542
 30
0.0
 11
117829.5705835441
 21
-117112.91979265409
 31
0.0
  0
LINE
  5
16BC5
  8
0
  6
CONTINUOUS
 10
117829.5705294902
 20
-117112.91979265409
 30
0.0
 11
117814.5705835441
 21
-117112.91979265409
 31
0.0
  0
LINE
  5
16BC7
  8
0
  6
CONTINUOUS
 10
117839.570583544
 20
-117094.7197926542
 30
0.0
 11
117839.570583544
 21
-117095.7197926541
 31
0.0
  0
LINE
  5
16BC9
  8
0
  6
CONTINUOUS
 10
117839.570583544
 20
-117094.7197926542
 30
0.0
 11
117839.570583544
 21
-117095.91979265409
 31
0.0
  0
LINE
  5
16BCA
  8
0
  6
CONTINUOUS
 10
117809.5706375978
 20
-117112.91979265409
 30
0.0
 11
117824.5705835441
 21
-117112.91979265409
 31
0.0
  0
LINE
  5
16BCE
  8
0
  6
CONTINUOUS
 10
117809.570583544
 20
-117110.4197926542
 30
0.0
 11
117809.570583544
 21
-117112.91979265409
 31
0.0
  0
LINE
  5
16BCF
  8
0
  6
CONTINUOUS
 10
117809.570583544
 20
-117110.4197926542
 30
0.0
 11
117810.770583544
 21
-117110.4197926542
 31
0.0
  0
LINE
  5
16BD0
  8
0
  6
CONTINUOUS
 10
117829.5705835441
 20
-117110.4197926542
 30
0.0
 11
117828.37058354411
 21
-117110.4197926542
 31
0.0
  0
LINE
  5
16BD1
  8
0
  6
CONTINUOUS
 10
117829.5705835441
 20
-117110.4197926542
 30
0.0
 11
117829.5705835441
 21
-117112.91979265409
 31
0.0
  0
LINE
  5
16BD5
  8
0
  6
CONTINUOUS
 10
117829.5705294902
 20
-117112.91979265409
 30
0.0
 11
117814.5705835441
 21
-117112.91979265409
 31
0.0
  0
LINE
  5
16BE3
  8
0
  6
CONTINUOUS
 10
117799.570583544
 20
-117094.7197926542
 30
0.0
 11
117799.570583544
 21
-117095.7197926541
 31
0.0
  0
LINE
  5
16BE4
  8
0
  6
CONTINUOUS
 10
117799.570583544
 20
-117094.7197926542
 30
0.0
 11
117799.570583544
 21
-117095.91979265409
 31
0.0
  0
LINE
  5
16BE7
  8
0
  6
CONTINUOUS
 10
117799.570583544
 20
-117094.7197926542
 30
0.0
 11
117839.570583544
 21
-117094.7197926542
 31
0.0
  0
ARC
  5
174A8
  8
0
  6
CONTINUOUS
 10
117985.5470646724
 20
-117133.0424457208
 30
0.0
 40
0.1999999999833351
 50
210.00000000120099
 51
30.000000001201069
  0
LINE
  5
174A9
  8
0
  6
CONTINUOUS
 10
117970.9414022391
 20
-117108.14469630941
 30
0.0
 11
117985.37385959159
 21
-117133.1424457207
 31
0.0
  0
LINE
  5
174B1
  8
0
  6
CONTINUOUS
 10
117970.421786997
 20
-117108.44469630939
 30
0.0
 11
117984.85424434939
 21
-117133.44244572079
 31
0.0
  0
LINE
  5
174B2
  8
0
  6
CONTINUOUS
 10
117980.07026975291
 20
-117123.156358658
 30
0.0
 11
117985.720269753
 21
-117132.94244572079
 31
0.0
  0
LINE
  5
174B3
  8
0
  6
CONTINUOUS
 10
117983.1398849953
 20
-117127.2730882172
 30
0.0
 11
117986.2398849953
 21
-117132.6424457207
 31
0.0
  0
ARC
  5
174B4
  8
0
 10
117985.5470646724
 20
-117133.0424457207
 30
0.0
 40
0.7999999999883585
 50
210.00000000120099
 51
30.000000001201069
  0
ARC
  5
174B5
  8
0
 10
117985.5470646724
 20
-117133.0424457207
 30
0.0
 40
0.1999999999825377
 50
210.00000000120099
 51
30.000000001201069
  0
ARC
  5
174B6
  8
0
  6
CONTINUOUS
 10
117985.5470646724
 20
-117133.0424457208
 30
0.0
 40
0.1999999999833351
 50
210.00000000120099
 51
30.000000001201069
  0
LINE
  5
174B7
  8
0
  6
CONTINUOUS
 10
117969.98877429491
 20
-117107.5946963095
 30
0.0
 11
117941.1238595913
 21
-117107.5946963095
 31
0.0
  0
ARC
  5
174B8
  8
0
  6
CONTINUOUS
 10
117941.1238595913
 20
-117107.39469630949
 30
0.0
 40
0.1999999999833351
 50
90.0
 51
270.0
  0
ARC
  5
174B9
  8
0
  6
CONTINUOUS
 10
117941.1238595913
 20
-117107.39469630949
 30
0.0
 40
0.1999999999833351
 50
90.0
 51
270.0
  0
LINE
  5
174BA
  8
0
  6
CONTINUOUS
 10
117952.4238595911
 20
-117093.09469630961
 30
0.0
 11
117923.3238595913
 21
-117093.09469630961
 31
0.0
  0
ARC
  5
174BB
  8
0
 10
117941.1238595913
 20
-117107.39469630941
 30
0.0
 40
0.1999999999825377
 50
90.0
 51
270.0
  0
ARC
  5
174BC
  8
0
 10
117941.1238595913
 20
-117107.39469630941
 30
0.0
 40
0.7999999999883585
 50
90.0
 51
270.0
  0
LINE
  5
174BD
  8
0
 10
117947.3238595913
 20
-117106.5946963094
 30
0.0
 11
117941.1238595913
 21
-117106.59469630961
 31
0.0
  0
LINE
  5
174BE
  8
0
 10
117952.9238595913
 20
-117106.69469630939
 30
0.0
 11
117952.9238595912
 21
-117093.59469630961
 31
0.0
  0
LINE
  5
174C0
  8
0
  6
CONTINUOUS
 10
117952.4238595913
 20
-117107.19469630939
 30
0.0
 11
117941.1238595913
 21
-117107.1946963095
 31
0.0
  0
LINE
  5
174C4
  8
0
 10
117923.3238595913
 20
-117093.09469630961
 30
0.0
 11
117923.3238595912
 21
-117092.6946963095
 31
0.0
  0
LINE
  5
174C5
  8
0
  6
CONTINUOUS
 10
117969.98877429499
 20
-117108.19469630939
 30
0.0
 11
117941.1238595913
 21
-117108.1946963095
 31
0.0
  0
LINE
  5
176D5
  8
0
  6
CONTINUOUS
 10
118272.5986270912
 20
-117134.0526233456
 30
0.0
 11
118286.9331570373
 21
-117109.22448917619
 31
0.0
  0
ARC
  5
176D6
  8
0
  6
CONTINUOUS
 10
118286.7599519566
 20
-117109.1244891762
 30
0.0
 40
0.1999999999833351
 50
329.99999999993861
 51
149.99999999993861
  0
ARC
  5
176D7
  8
0
  6
CONTINUOUS
 10
118286.7599519566
 20
-117109.1244891762
 30
0.0
 40
0.1999999999833351
 50
329.99999999993861
 51
149.99999999993861
  0
LINE
  5
176D9
  8
0
  6
CONTINUOUS
 10
118273.08937482
 20
-117134.4026233457
 30
0.0
 11
118287.4527722796
 21
-117109.5244891762
 31
0.0
  0
ARC
  5
176DA
  8
0
 10
118286.7599519566
 20
-117109.1244891762
 30
0.0
 40
0.1999999999825377
 50
329.99999999993861
 51
149.99999999993861
  0
ARC
  5
176DB
  8
0
 10
118286.7599519566
 20
-117109.1244891762
 30
0.0
 40
0.7999999999883585
 50
329.99999999993861
 51
149.99999999993861
  0
LINE
  5
176DC
  8
0
  6
CONTINUOUS
 10
118282.9671691712
 20
-117114.0937816628
 30
0.0
 11
118286.06713163359
 21
-117108.72448917609
 31
0.0
  0
LINE
  5
176DF
  8
0
  6
CONTINUOUS
 10
118280.9367844134
 20
-117118.81051122199
 30
0.0
 11
118286.5867468759
 21
-117109.0244891763
 31
0.0
  0
ARC
  5
176E8
  8
0
 10
118243.5831570373
 20
-117134.0526233456
 30
0.0
 40
0.7999999999883585
 50
90.0
 51
270.0
  0
ARC
  5
176E9
  8
0
 10
118243.5831570373
 20
-117134.0526233456
 30
0.0
 40
0.1999999999825377
 50
90.0
 51
270.0
  0
LINE
  5
176EB
  8
0
  6
CONTINUOUS
 10
118272.3099519566
 20
-117134.85262334561
 30
0.0
 11
118243.5831570373
 21
-117134.85262334561
 31
0.0
  0
ARC
  5
176EE
  8
0
  6
CONTINUOUS
 10
118243.5831570373
 20
-117134.0526233456
 30
0.0
 40
0.1999999999833351
 50
90.0
 51
270.0
  0
ARC
  5
176EF
  8
0
  6
CONTINUOUS
 10
118243.5831570373
 20
-117134.0526233456
 30
0.0
 40
0.1999999999833351
 50
90.0
 51
270.0
  0
LINE
  5
176F1
  8
0
  6
CONTINUOUS
 10
118272.2522169296
 20
-117134.2526233456
 30
0.0
 11
118243.5831570373
 21
-117134.2526233456
 31
0.0
  0
LINE
  5
17CC2
  8
0
  6
CONTINUOUS
 10
117952.4238595913
 20
-117092.69469630939
 30
0.0
 11
117923.3238595913
 21
-117092.6946963095
 31
0.0
  0
LINE
  5
17CC3
  8
0
 10
117953.3238595912
 20
-117106.69469630939
 30
0.0
 11
117953.3238595912
 21
-117093.5946963094
 31
0.0
  0
LINE
  5
17CCF
  8
0
  6
CONTINUOUS
 10
117952.4238595911
 20
-117107.5946963095
 30
0.0
 11
117941.1238595913
 21
-117107.59469630961
 31
0.0
  0
LINE
  5
17CD3
  8
0
 10
117947.3238595913
 20
-117107.1946963095
 30
0.0
 11
117947.3238595913
 21
-117106.5946963094
 31
0.0
  0
LINE
  5
17D50
  8
0
  6
CONTINUOUS
 10
117992.2812279463
 20
-117116.1063586572
 30
0.0
 11
118006.83122794751
 21
-117141.3076979066
 31
0.0
  0
LINE
  5
17D51
  8
0
 10
118006.83122794751
 20
-117141.3076979066
 30
0.0
 11
118007.1776381089
 21
-117141.1076979066
 31
0.0
  0
LINE
  5
17D52
  8
0
  6
CONTINUOUS
 10
117992.62763810781
 20
-117115.9063586572
 30
0.0
 11
118007.1776381089
 21
-117141.1076979066
 31
0.0
  0
LINE
  5
17D54
  8
0
 10
117980.2532824548
 20
-117122.4733459561
 30
0.0
 11
117991.5982152444
 21
-117115.92334595539
 31
0.0
  0
LINE
  5
17D55
  8
0
 10
117980.0532824547
 20
-117122.1269357946
 30
0.0
 11
117991.39821524439
 21
-117115.5769357939
 31
0.0
  0
LINE
  5
17D7A
  8
0
 10
117982.6202697535
 20
-117127.5730882169
 30
0.0
 11
117983.13988499581
 21
-117127.2730882169
 31
0.0
  0
LINE
  5
17D7E
  8
0
  6
CONTINUOUS
 10
118254.88308196211
 20
-117119.7581028006
 30
0.0
 11
118225.7830819622
 21
-117119.7581028007
 31
0.0
  0
LINE
  5
17D7F
  8
0
 10
118225.7830819621
 20
-117119.7581028006
 30
0.0
 11
118225.7830819621
 21
-117119.3581028007
 31
0.0
  0
LINE
  5
17D80
  8
0
  6
CONTINUOUS
 10
118254.88308196211
 20
-117119.3581028006
 30
0.0
 11
118225.7830819622
 21
-117119.3581028007
 31
0.0
  0
LINE
  5
17D82
  8
0
 10
118255.38308196211
 20
-117133.3581028006
 30
0.0
 11
118255.38308196211
 21
-117120.2581028006
 31
0.0
  0
LINE
  5
17D83
  8
0
 10
118255.7830819621
 20
-117133.35262334561
 30
0.0
 11
118255.7830819621
 21
-117120.2581028006
 31
0.0
  0
LINE
  5
17D85
  8
0
 10
118249.7830819622
 20
-117133.8581028006
 30
0.0
 11
118249.7830819622
 21
-117133.2581028006
 31
0.0
  0
LINE
  5
17DA8
  8
0
 10
118249.7830819622
 20
-117133.2581028006
 30
0.0
 11
118243.5831570373
 21
-117133.2526233456
 31
0.0
  0
LINE
  5
17DA9
  8
0
 10
118249.7830819622
 20
-117133.8581028006
 30
0.0
 11
118243.5831570373
 21
-117133.85262334561
 31
0.0
  0
LINE
  5
17DAA
  8
0
 10
118254.88308196211
 20
-117133.8581028006
 30
0.0
 11
118249.7830819622
 21
-117133.8581028007
 31
0.0
  0
LINE
  5
17DAC
  8
0
  6
CONTINUOUS
 10
118268.3841614057
 20
-117111.5632509494
 30
0.0
 11
118282.9341614055
 21
-117086.36191169939
 31
0.0
  0
LINE
  5
17DAD
  8
0
 10
118283.2805715671
 20
-117086.5619116993
 30
0.0
 11
118282.9341614056
 21
-117086.36191169931
 31
0.0
  0
LINE
  5
17DAE
  8
0
  6
CONTINUOUS
 10
118268.7305715672
 20
-117111.7632509496
 30
0.0
 11
118283.2805715671
 21
-117086.56191169941
 31
0.0
  0
LINE
  5
17DB2
  8
0
 10
118283.4915297605
 20
-117114.3965213903
 30
0.0
 11
118282.9719145183
 21
-117114.09652139011
 31
0.0
  0
LINE
  5
17DB4
  8
0
 10
118280.05377171141
 20
-117119.33993408539
 30
0.0
 11
118268.71358426911
 21
-117112.7926738129
 31
0.0
  0
LINE
  5
17DB5
  8
0
 10
118280.2537717115
 20
-117118.9935239238
 30
0.0
 11
118268.9135842691
 21
-117112.44626365149
 31
0.0
  0
TEXT
  5
17EB6
  8
ér
 10
117914.4152206221
 20
-116912.6568155204
 30
0.0
 40
6.0
  1
B-
  7
òÂÄÜùp_BIGHONT
1001
ACAD
1000
MTEXTBEGIN
1070
    73
1070
     1
1070
    44
1040
1.0
1070
    74
1070
     0
1000
MTEXTEND
  0
TEXT
  5
17EB7
  8
ér
 10
117926.4152206221
 20
-116912.6568155204
 30
0.0
 40
6.0
  1
2
  7
òÂÄÜùp_BIGHONT
1001
ACAD
1000
MTEXTBEGIN
1070
    73
1070
     1
1070
    44
1040
1.0
1070
    74
1070
     0
1000
MTEXTEND
  0
TEXT
  5
17EB9
  8
ér
 10
118216.0080199935
 20
-117050.69831817479
 30
0.0
 40
6.0
  1
B-
  7
òÂÄÜùp_BIGHONT
1001
ACAD
1000
MTEXTBEGIN
1070
    73
1070
     1
1070
    44
1040
1.0
1070
    74
1070
     0
1000
MTEXTEND
  0
TEXT
  5
17EBA
  8
ér
 10
118229.6544061921
 20
-117050.69831817489
 30
0.0
 40
6.0
  1
17
  7
òÂÄÜùp_BIGHONT
1001
ACAD
1000
MTEXTBEGIN
1070
    73
1070
     1
1070
    44
1040
1.0
1070
    74
1070
     0
1000
MTEXTEND
  0
LINE
  5
17EC8
  8
ér
 62
     8
 10
118278.3831945749
 20
-117124.03345856391
 30
0.0
 11
118276.68025969779
 21
-117126.9830282929
 31
0.0
  0
TEXT
  5
17ECD
  8
ér
 10
117915.3339002087
 20
-117051.66068656401
 30
0.0
 40
6.0
  1
B-
  7
òÂÄÜùp_BIGHONT
1001
ACAD
1000
MTEXTBEGIN
1070
    73
1070
     1
1070
    44
1040
1.0
1070
    74
1070
     0
1000
MTEXTEND
  0
TEXT
  5
17ECE
  8
ér
 10
117927.3339002087
 20
-117051.66068656401
 30
0.0
 40
6.0
  1
16
  7
òÂÄÜùp_BIGHONT
1001
ACAD
1000
MTEXTBEGIN
1070
    73
1070
     1
1070
    44
1040
1.0
1070
    74
1070
     0
1000
MTEXTEND
  0
TEXT
  5
17F96
  8
ér
 10
117762.4564764314
 20
-117046.93411572371
 30
0.0
 40
6.0
  1
B-11
  7
òÂÄÜùp_BIGHONT
1001
ACAD
1000
MTEXTBEGIN
1070
    73
1070
     1
1070
    44
1040
1.0
1070
    74
1070
     0
1000
MTEXTEND
  0
TEXT
  5
17F98
  8
ér
 10
118361.5082508574
 20
-116912.75578022881
 30
0.0
 40
6.0
  1
B-10
  7
òÂÄÜùp_BIGHONT
1001
ACAD
1000
MTEXTBEGIN
1070
    73
1070
     1
1070
    44
1040
1.0
1070
    74
1070
     0
1000
MTEXTEND
  0
TEXT
  5
18047
  8
ér
 10
117764.16448466609
 20
-116912.6568155204
 30
0.0
 40
6.0
  1
B-1 
  7
òÂÄÜùp_BIGHONT
1001
ACAD
1000
MTEXTBEGIN
1070
    73
1070
     1
1070
    44
1040
1.0
1070
    74
1070
     0
1000
MTEXTEND
  0
LINE
  5
18183
  8
0
 10
117936.47186689659
 20
-117206.6825755957
 30
0.0
 11
117969.9318668967
 21
-117206.6825755957
 31
0.0
  0
LINE
  5
18184
  8
0
 10
117936.47186689659
 20
-117207.6825755957
 30
0.0
 11
117969.9318668967
 21
-117207.6825755957
 31
0.0
  0
LINE
  5
18185
  8
0
 10
117971.47186689659
 20
-117208.2225755957
 30
0.0
 11
117971.47186689659
 21
-117251.1425755957
 31
0.0
  0
LINE
  5
18186
  8
0
 10
117970.47186689659
 20
-117208.2225755957
 30
0.0
 11
117970.47186689659
 21
-117251.1425755957
 31
0.0
  0
ARC
  5
18187
  8
0
 10
117969.9318668967
 20
-117251.1425755957
 30
0.0
 40
1.54
 50
270.0
 51
0.0
  0
ARC
  5
18188
  8
0
 10
117969.9318668967
 20
-117251.1425755957
 30
0.0
 40
0.5400000000000002
 50
270.0
 51
0.0
  0
ARC
  5
18189
  8
0
 10
117969.9318668967
 20
-117208.2225755957
 30
0.0
 40
1.54
 50
0.0
 51
90.0
  0
ARC
  5
1818A
  8
0
 10
117969.9318668967
 20
-117208.2225755957
 30
0.0
 40
0.5400000000000002
 50
0.0
 51
90.0
  0
LINE
  5
1818B
  8
0
 10
117969.9318668967
 20
-117252.6825755957
 30
0.0
 11
117953.0118668966
 21
-117252.6825755957
 31
0.0
  0
LINE
  5
1818C
  8
0
 10
117969.9318668967
 20
-117251.6825755957
 30
0.0
 11
117953.0118668966
 21
-117251.6825755957
 31
0.0
  0
ARC
  5
1818D
  8
0
 10
117953.0118668966
 20
-117251.1425755957
 30
0.0
 40
1.54
 50
180.0
 51
270.0
  0
ARC
  5
1818E
  8
0
 10
117953.0118668966
 20
-117251.1425755957
 30
0.0
 40
0.5400000000000002
 50
180.0
 51
270.0
  0
LINE
  5
1818F
  8
0
 10
117951.47186689659
 20
-117251.1425755957
 30
0.0
 11
117951.47186689659
 21
-117244.2225755957
 31
0.0
  0
LINE
  5
18190
  8
0
 10
117952.47186689659
 20
-117251.1425755957
 30
0.0
 11
117952.47186689659
 21
-117244.2225755957
 31
0.0
  0
LINE
  5
18191
  8
0
 10
117953.0118668966
 20
-117242.6825755957
 30
0.0
 11
117958.47186689659
 21
-117242.6825755957
 31
0.0
  0
LINE
  5
18192
  8
0
 10
117953.0118668966
 20
-117243.6825755957
 30
0.0
 11
117958.47186689659
 21
-117243.6825755957
 31
0.0
  0
ARC
  5
18193
  8
0
 10
117953.0118668966
 20
-117244.2225755957
 30
0.0
 40
1.54
 50
90.0
 51
180.0
  0
ARC
  5
18194
  8
0
 10
117953.0118668966
 20
-117244.2225755957
 30
0.0
 40
0.5400000000000002
 50
90.0
 51
180.0
  0
LINE
  5
18195
  8
0
 10
117936.47186689659
 20
-117207.6825755957
 30
0.0
 11
117936.47186689659
 21
-117207.6825755957
 31
0.0
  0
LINE
  5
18196
  8
0
 10
117936.47186689659
 20
-117206.6825755957
 30
0.0
 11
117936.47186689659
 21
-117207.6825755957
 31
0.0
  0
LINE
  5
18197
  8
0
 10
117958.47186689659
 20
-117242.6825755957
 30
0.0
 11
117958.47186689659
 21
-117243.6825755957
 31
0.0
  0
LINE
  5
18198
  8
0
 10
118113.87400967019
 20
-117252.07496710071
 30
0.0
 11
118107.7740096702
 21
-117252.07496710071
 31
0.0
  0
LINE
  5
18199
  8
0
 10
118113.87400967019
 20
-117252.6749671007
 30
0.0
 11
118107.7740096702
 21
-117252.6749671007
 31
0.0
  0
ARC
  5
1819A
  8
0
 10
118107.7740096702
 20
-117252.9749671007
 30
0.0
 40
0.899999999999977
 50
90.0
 51
270.0
  0
ARC
  5
1819B
  8
0
 10
118107.7740096702
 20
-117252.9749671007
 30
0.0
 40
0.2999999999999772
 50
90.0
 51
270.0
  0
LINE
  5
1819C
  8
0
 10
118113.87400967019
 20
-117252.07496710071
 30
0.0
 11
118113.87400967019
 21
-117252.6749671007
 31
0.0
  0
LINE
  5
1819D
  8
0
 10
118124.87400967019
 20
-117252.07496710071
 30
0.0
 11
118130.9740096702
 21
-117252.07496710071
 31
0.0
  0
LINE
  5
1819E
  8
0
 10
118124.87400967019
 20
-117252.6749671007
 30
0.0
 11
118130.9740096702
 21
-117252.6749671007
 31
0.0
  0
ARC
  5
1819F
  8
0
 10
118130.9740096702
 20
-117252.9749671007
 30
0.0
 40
0.899999999999977
 50
270.0
 51
90.0
  0
ARC
  5
181A0
  8
0
 10
118130.9740096702
 20
-117252.9749671007
 30
0.0
 40
0.2999999999999772
 50
270.0
 51
90.0
  0
LINE
  5
181A1
  8
0
 10
118124.87400967019
 20
-117252.07496710071
 30
0.0
 11
118124.87400967019
 21
-117252.6749671007
 31
0.0
  0
LINE
  5
181A2
  8
0
 10
118130.9740096702
 20
-117253.2749671007
 30
0.0
 11
118107.7740096702
 21
-117253.2749671007
 31
0.0
  0
LINE
  5
181A3
  8
0
 10
118130.9740096702
 20
-117253.8749671007
 30
0.0
 11
118107.7740096702
 21
-117253.8749671007
 31
0.0
  0
LINE
  5
181A4
  8
0
 10
118099.37400967019
 20
-117216.4749671007
 30
0.0
 11
118118.2740096702
 21
-117216.4749671007
 31
0.0
  0
LINE
  5
181A5
  8
0
 10
118099.37400967019
 20
-117217.07496710071
 30
0.0
 11
118118.2740096702
 21
-117217.07496710071
 31
0.0
  0
LINE
  5
181A6
  8
0
 10
118119.37400967019
 20
-117217.57496710071
 30
0.0
 11
118119.37400967019
 21
-117252.1749671007
 31
0.0
  0
LINE
  5
181A7
  8
0
 10
118118.77400967031
 20
-117217.57496710071
 30
0.0
 11
118118.77400967031
 21
-117252.1749671007
 31
0.0
  0
ARC
  5
181A8
  8
0
 10
118118.2740096702
 20
-117217.57496710071
 30
0.0
 40
1.1000000000000001
 50
0.0
 51
90.0
  0
ARC
  5
181A9
  8
0
 10
118118.2740096702
 20
-117217.57496710071
 30
0.0
 40
0.5000000000000001
 50
0.0
 51
90.0
  0
LINE
  5
181AA
  8
0
 10
118118.2740096702
 20
-117253.2749671007
 30
0.0
 11
118107.7740096702
 21
-117253.2749671007
 31
0.0
  0
LINE
  5
181AB
  8
0
 10
118118.2740096702
 20
-117252.6749671007
 30
0.0
 11
118107.7740096702
 21
-117252.6749671007
 31
0.0
  0
ARC
  5
181AC
  8
0
 10
118118.2740096702
 20
-117252.1749671007
 30
0.0
 40
1.1000000000000001
 50
270.0
 51
0.0
  0
ARC
  5
181AD
  8
0
 10
118118.2740096702
 20
-117252.1749671007
 30
0.0
 40
0.5000000000000001
 50
270.0
 51
0.0
  0
LINE
  5
181AE
  8
0
 10
118107.7740096702
 20
-117252.6749671007
 30
0.0
 11
118107.7740096702
 21
-117253.2749671007
 31
0.0
  0
LINE
  5
181AF
  8
0
 10
118099.37400967019
 20
-117216.4749671007
 30
0.0
 11
118099.37400967019
 21
-117217.07496710071
 31
0.0
  0
LINE
  5
181B0
  8
0
 10
118139.37400967019
 20
-117216.4749671007
 30
0.0
 11
118120.4740096702
 21
-117216.4749671007
 31
0.0
  0
LINE
  5
181B1
  8
0
 10
118139.37400967019
 20
-117217.07496710071
 30
0.0
 11
118120.4740096702
 21
-117217.07496710071
 31
0.0
  0
LINE
  5
181B2
  8
0
 10
118119.37400967019
 20
-117217.57496710071
 30
0.0
 11
118119.37400967019
 21
-117252.1749671007
 31
0.0
  0
LINE
  5
181B3
  8
0
 10
118119.9740096702
 20
-117217.57496710071
 30
0.0
 11
118119.9740096702
 21
-117252.1749671007
 31
0.0
  0
ARC
  5
181B4
  8
0
 10
118120.4740096702
 20
-117217.57496710071
 30
0.0
 40
1.1000000000000001
 50
90.0
 51
180.0
  0
ARC
  5
181B5
  8
0
 10
118120.4740096702
 20
-117217.57496710071
 30
0.0
 40
0.5000000000000001
 50
90.0
 51
180.0
  0
LINE
  5
181B6
  8
0
 10
118120.4740096702
 20
-117253.2749671007
 30
0.0
 11
118130.9740096702
 21
-117253.2749671007
 31
0.0
  0
LINE
  5
181B7
  8
0
 10
118120.4740096702
 20
-117252.6749671007
 30
0.0
 11
118130.9740096702
 21
-117252.6749671007
 31
0.0
  0
ARC
  5
181B8
  8
0
 10
118120.4740096702
 20
-117252.1749671007
 30
0.0
 40
1.1000000000000001
 50
180.0
 51
270.0
  0
ARC
  5
181B9
  8
0
 10
118120.4740096702
 20
-117252.1749671007
 30
0.0
 40
0.5000000000000001
 50
180.0
 51
270.0
  0
LINE
  5
181BA
  8
0
 10
118130.9740096702
 20
-117252.6749671007
 30
0.0
 11
118130.9740096702
 21
-117253.2749671007
 31
0.0
  0
LINE
  5
181BB
  8
0
 10
118139.37400967019
 20
-117216.4749671007
 30
0.0
 11
118139.37400967019
 21
-117217.07496710071
 31
0.0
  0
TEXT
  5
181BE
  8
ér
 10
117906.6931684
 20
-117180.5242538951
 30
0.0
 40
6.0
  1
B-
  7
òÂÄÜùp_BIGHONT
1001
ACAD
1000
MTEXTBEGIN
1070
    73
1070
     1
1070
    44
1040
1.0
1070
    74
1070
     0
1000
MTEXTEND
  0
TEXT
  5
181BF
  8
ér
 10
117920.3395545987
 20
-117180.5242538951
 30
0.0
 40
6.0
  1
20
  7
òÂÄÜùp_BIGHONT
1001
ACAD
1000
MTEXTBEGIN
1070
    73
1070
     1
1070
    44
1040
1.0
1070
    74
1070
     0
1000
MTEXTEND
  0
TEXT
  5
181C2
  8
ér
 10
118064.9112544511
 20
-117180.31152788769
 30
0.0
 40
6.0
  1
B-
  7
òÂÄÜùp_BIGHONT
1001
ACAD
1000
MTEXTBEGIN
1070
    73
1070
     1
1070
    44
1040
1.0
1070
    74
1070
     0
1000
MTEXTEND
  0
TEXT
  5
181C3
  8
ér
 10
118078.5576406498
 20
-117180.31152788769
 30
0.0
 40
6.0
  1
21
  7
òÂÄÜùp_BIGHONT
1001
ACAD
1000
MTEXTBEGIN
1070
    73
1070
     1
1070
    44
1040
1.0
1070
    74
1070
     0
1000
MTEXTEND
  0
LINE
  5
18245
  8
0
 10
118123.4037613367
 20
-116994.3059400911
 30
0.0
 11
118095.60376133661
 21
-116994.3059400912
 31
0.0
  0
LINE
  5
18248
  8
0
 10
118124.5037613366
 20
-116974.8059400911
 30
0.0
 11
118124.5037613367
 21
-116993.20594009109
 31
0.0
  0
LINE
  5
18249
  8
0
 10
118149.5037613366
 20
-116973.70594009109
 30
0.0
 11
118149.5037613366
 21
-116974.305940091
 31
0.0
  0
LINE
  5
1824A
  8
0
 10
118149.5037613366
 20
-116973.70594009099
 30
0.0
 11
118125.0037613366
 21
-116973.70594009109
 31
0.0
  0
LINE
  5
18251
  8
0
 10
118115.10376133669
 20
-116939.3059400912
 30
0.0
 11
118114.5037613368
 21
-116939.3059400912
 31
0.0
  0
LINE
  5
18252
  8
0
 10
118094.5037613366
 20
-116965.40594009111
 30
0.0
 11
118094.5037613366
 21
-116993.2059400912
 31
0.0
  0
LINE
  5
18253
  8
0
 10
118114.0037613367
 20
-116964.3059400911
 30
0.0
 11
118095.60376133661
 21
-116964.3059400911
 31
0.0
  0
LINE
  5
18254
  8
0
 10
118115.1037613368
 20
-116939.3059400912
 30
0.0
 11
118115.10376133669
 21
-116963.8059400911
 31
0.0
  0
TEXT
  5
18255
  8
ér
 10
118064.6659565781
 20
-116912.6568155204
 30
0.0
 40
6.0
  1
B-
  7
òÂÄÜùp_BIGHONT
1001
ACAD
1000
MTEXTBEGIN
1070
    73
1070
     1
1070
    44
1040
1.0
1070
    74
1070
     0
1000
MTEXTEND
  0
TEXT
  5
18256
  8
ér
 10
118076.6659565781
 20
-116912.6568155204
 30
0.0
 40
6.0
  1
4
  7
òÂÄÜùp_BIGHONT
1001
ACAD
1000
MTEXTBEGIN
1070
    73
1070
     1
1070
    44
1040
1.0
1070
    74
1070
     0
1000
MTEXTEND
  0
LINE
  5
18258
  8
0
 10
118267.6498501843
 20
-116937.70734260741
 30
0.0
 11
118268.24985018421
 21
-116937.70734260741
 31
0.0
  0
LINE
  5
1827C
  8
0
 10
118287.6498501843
 20
-116978.20734260741
 30
0.0
 11
118287.6498501843
 21
-116997.00734260739
 31
0.0
  0
LINE
  5
1827E
  8
0
 10
118267.6498501843
 20
-116992.1073426074
 30
0.0
 11
118267.6498501843
 21
-116997.00734260739
 31
0.0
  0
LINE
  5
18282
  8
0
 10
118267.6498501843
 20
-116992.1073426074
 30
0.0
 11
118268.24985018429
 21
-116992.1073426074
 31
0.0
  0
LINE
  5
18283
  8
0
 10
118268.74985018429
 20
-116998.1073426074
 30
0.0
 11
118286.5498501843
 21
-116998.1073426074
 31
0.0
  0
LINE
  5
18284
  8
0
 10
118267.6498501843
 20
-116937.70734260741
 30
0.0
 11
118268.24985018421
 21
-116937.70734260741
 31
0.0
  0
LINE
  5
18285
  8
0
 10
118268.74985018429
 20
-116977.1073426075
 30
0.0
 11
118286.5498501843
 21
-116977.1073426074
 31
0.0
  0
LINE
  5
18286
  8
0
 10
118267.6498501843
 20
-116937.70734260741
 30
0.0
 11
118267.6498501843
 21
-116976.6073426075
 31
0.0
  0
TEXT
  5
18287
  8
ér
 10
118214.9166925343
 20
-116912.6568155204
 30
0.0
 40
6.0
  1
B-
  7
òÂÄÜùp_BIGHONT
1001
ACAD
1000
MTEXTBEGIN
1070
    73
1070
     1
1070
    44
1040
1.0
1070
    74
1070
     0
1000
MTEXTEND
  0
TEXT
  5
18288
  8
ér
 10
118226.9166925343
 20
-116912.6568155204
 30
0.0
 40
6.0
  1
6
  7
òÂÄÜùp_BIGHONT
1001
ACAD
1000
MTEXTBEGIN
1070
    73
1070
     1
1070
    44
1040
1.0
1070
    74
1070
     0
1000
MTEXTEND
  0
LINE
  5
18406
  8
0
 10
117963.3914895748
 20
-116955.4013513152
 30
0.0
 11
117963.3914895748
 21
-116984.3013513152
 31
0.0
  0
LINE
  5
18407
  8
0
 10
117963.8914895748
 20
-116985.4013513152
 30
0.0
 11
117976.69148957481
 21
-116985.4013513152
 31
0.0
  0
LINE
  5
18408
  8
0
 10
117977.19148957481
 20
-116985.9013513152
 30
0.0
 11
117977.19148957481
 21
-116998.70088323241
 31
0.0
  0
LINE
  5
1840B
  8
0
 10
117976.19148957481
 20
-116990.80135131501
 30
0.0
 11
117976.19148957481
 21
-116998.70088323241
 31
0.0
  0
ARC
  5
1840C
  8
0
 10
117976.69148957481
 20
-116998.70088323241
 30
0.0
 40
0.5
 50
180.0
 51
0.0
  0
ARC
  5
1842B
  8
0
 10
117976.69148957481
 20
-116998.70088323241
 30
0.0
 40
1.1000000000000001
 50
180.0
 51
0.0
  0
ARC
  5
1842E
  8
0
 10
117963.8914895748
 20
-116984.3013513152
 30
0.0
 40
1.1000000000000001
 50
180.0
 51
270.0
  0
ARC
  5
1842F
  8
0
 10
117963.8914895748
 20
-116984.3013513152
 30
0.0
 40
0.5
 50
180.0
 51
270.0
  0
ARC
  5
18430
  8
0
 10
117976.69148957481
 20
-116985.9013513152
 30
0.0
 40
0.5
 50
0.0
 51
90.0
  0
LINE
  5
18433
  8
0
 10
118114.0037613367
 20
-116964.90594009111
 30
0.0
 11
118095.60376133661
 21
-116964.90594009111
 31
0.0
  0
LINE
  5
18434
  8
0
 10
118095.10376133661
 20
-116965.40594009111
 30
0.0
 11
118095.10376133661
 21
-116993.2059400912
 31
0.0
  0
LINE
  5
18435
  8
0
 10
118123.4037613367
 20
-116993.70594009109
 30
0.0
 11
118095.60376133661
 21
-116993.7059400912
 31
0.0
  0
LINE
  5
18436
  8
0
 10
118123.90376133659
 20
-116974.8059400911
 30
0.0
 11
118123.9037613367
 21
-116993.20594009109
 31
0.0
  0
LINE
  5
18437
  8
0
 10
118149.5037613366
 20
-116974.305940091
 30
0.0
 11
118125.0037613366
 21
-116974.3059400911
 31
0.0
  0
LINE
  5
18438
  8
0
 10
118114.5037613368
 20
-116939.3059400912
 30
0.0
 11
118114.5037613367
 21
-116963.8059400911
 31
0.0
  0
ARC
  5
18439
  8
0
 10
118095.60376133661
 20
-116965.40594009111
 30
0.0
 40
0.5
 50
89.999999999956032
 51
180.0
  0
ARC
  5
1843A
  8
0
 10
118114.0037613367
 20
-116963.8059400911
 30
0.0
 40
0.5
 50
269.999999999956
 51
359.99999999973318
  0
ARC
  5
1843B
  8
0
 10
118125.0037613366
 20
-116974.8059400911
 30
0.0
 40
0.5
 50
90.000000000233669
 51
180.00000000035101
  0
ARC
  5
1843C
  8
0
 10
118123.4037613367
 20
-116993.20594009109
 30
0.0
 40
0.5
 50
270.00000000017832
 51
0.0000000003510569
  0
ARC
  5
1843D
  8
0
 10
118095.60376133661
 20
-116993.2059400912
 30
0.0
 40
0.5
 50
180.0
 51
270.00000000017911
  0
ARC
  5
1843E
  8
0
 10
118114.0037613367
 20
-116963.8059400911
 30
0.0
 40
1.1000000000000001
 50
269.999999999956
 51
359.99999999973318
  0
ARC
  5
1843F
  8
0
 10
118095.60376133661
 20
-116965.40594009111
 30
0.0
 40
1.1000000000000001
 50
89.999999999956032
 51
180.0
  0
ARC
  5
18440
  8
0
 10
118095.60376133661
 20
-116993.2059400912
 30
0.0
 40
1.1000000000000001
 50
180.0
 51
270.00000000017832
  0
ARC
  5
18441
  8
0
 10
118123.4037613367
 20
-116993.20594009109
 30
0.0
 40
1.1000000000000001
 50
270.00000000017911
 51
0.0000000003529143
  0
ARC
  5
18442
  8
0
 10
118125.0037613366
 20
-116974.8059400911
 30
0.0
 40
1.1000000000000001
 50
90.000000000233669
 51
180.0000000003528
  0
LINE
  5
18453
  8
0
 10
118268.24985018421
 20
-116937.70734260741
 30
0.0
 11
118268.24985018421
 21
-116976.6073426075
 31
0.0
  0
LINE
  5
18454
  8
0
 10
118268.74985018429
 20
-116977.70734260749
 30
0.0
 11
118286.5498501843
 21
-116977.70734260741
 31
0.0
  0
LINE
  5
18455
  8
0
 10
118287.0498501843
 20
-116978.20734260741
 30
0.0
 11
118287.0498501843
 21
-116997.00734260739
 31
0.0
  0
LINE
  5
18456
  8
0
 10
118268.74985018429
 20
-116997.50734260739
 30
0.0
 11
118286.5498501843
 21
-116997.50734260739
 31
0.0
  0
LINE
  5
18457
  8
0
 10
118268.24985018429
 20
-116992.1073426074
 30
0.0
 11
118268.24985018429
 21
-116997.00734260739
 31
0.0
  0
ARC
  5
18458
  8
0
 10
118268.74985018429
 20
-116976.6073426075
 30
0.0
 40
1.1000000000000001
 50
180.0
 51
270.00000000030701
  0
ARC
  5
18459
  8
0
 10
118286.5498501843
 20
-116978.20734260741
 30
0.0
 40
1.1000000000000001
 50
0.0
 51
90.000000000306954
  0
ARC
  5
1845A
  8
0
 10
118286.5498501843
 20
-116997.00734260739
 30
0.0
 40
1.1000000000000001
 50
270.0
 51
0.0
  0
ARC
  5
1845B
  8
0
 10
118268.74985018429
 20
-116997.00734260739
 30
0.0
 40
1.1000000000000001
 50
180.0
 51
270.0
  0
ARC
  5
1845C
  8
0
 10
118268.74985018429
 20
-116976.6073426075
 30
0.0
 40
0.5
 50
180.0
 51
270.0000000003086
  0
ARC
  5
1845D
  8
0
 10
118286.5498501843
 20
-116978.20734260741
 30
0.0
 40
0.5
 50
0.0
 51
90.000000000308574
  0
ARC
  5
1845E
  8
0
 10
118286.5498501843
 20
-116997.00734260739
 30
0.0
 40
0.5
 50
270.0
 51
0.0
  0
ARC
  5
1845F
  8
0
 10
118268.74985018429
 20
-116997.00734260739
 30
0.0
 40
0.5
 50
180.0
 51
270.0
  0
ARC
  5
18490
  8
0
 10
118269.1635842691
 20
-117112.0132509495
 30
0.0
 40
0.5
 50
150.0000000002326
 51
240.00000000056411
  0
ARC
  5
18491
  8
0
 10
118254.88308196211
 20
-117120.2581028006
 30
0.0
 40
0.5
 50
0.0
 51
90.000000000169351
  0
ARC
  5
18492
  8
0
 10
118254.88308196211
 20
-117133.3581028006
 30
0.0
 40
0.5
 50
270.00000000104222
 51
0.0
  0
ARC
  5
18493
  8
0
 10
118280.5037717115
 20
-117118.56051122191
 30
0.0
 40
0.5
 50
240.00000000058671
 51
329.99999999942378
  0
ARC
  5
18494
  8
0
 10
117991.8482152444
 20
-117116.3563586572
 30
0.0
 40
0.5
 50
30.000000002688271
 51
120.0000000027641
  0
ARC
  5
18495
  8
0
 10
117952.4238595911
 20
-117093.59469630961
 30
0.0
 40
0.5
 50
0.0000000004136248
 51
90.0
  0
ARC
  5
18496
  8
0
  6
CONTINUOUS
 10
117969.98877429499
 20
-117108.6946963095
 30
0.0
 40
0.5
 50
30.000000001052101
 51
90.000000000205176
  0
ARC
  5
18497
  8
0
 10
117952.4238595913
 20
-117106.69469630939
 30
0.0
 40
0.5
 50
270.00000000049499
 51
0.0000000004299092
  0
ARC
  5
1849A
  8
0
  6
CONTINUOUS
 10
117969.98877429491
 20
-117108.6946963095
 30
0.0
 40
1.1000000000000001
 50
30.000000001172189
 51
90.0
  0
ARC
  5
1849E
  8
0
 10
117980.5032824548
 20
-117122.906358658
 30
0.0
 40
0.5
 50
120.0000000027979
 51
210.00000000059569
  0
ARC
  5
1849F
  8
0
 10
117952.4238595913
 20
-117093.5946963094
 30
0.0
 40
0.9
 50
359.99999999954082
 51
90.000000000201908
  0
ARC
  5
184A0
  8
0
 10
117952.4238595911
 20
-117106.69469630939
 30
0.0
 40
0.9
 50
270.00000000052438
 51
359.9999999995473
  0
ARC
  5
184A1
  8
0
 10
117980.5032824548
 20
-117122.906358658
 30
0.0
 40
0.9
 50
120.0000000026776
 51
210.0000000011691
  0
ARC
  5
184A2
  8
0
 10
117991.8482152444
 20
-117116.3563586573
 30
0.0
 40
0.9
 50
30.000000002733671
 51
120.0000000026776
  0
ARC
  5
184A3
  8
0
 10
118254.88308196211
 20
-117120.2581028006
 30
0.0
 40
0.9
 50
0.0
 51
90.000000000198639
  0
ARC
  5
184A4
  8
0
 10
118254.88308196211
 20
-117133.35262334561
 30
0.0
 40
0.9
 50
270.00000000017587
 51
0.0
  0
ARC
  5
184A5
  8
0
  6
CONTINUOUS
 10
118272.3099519566
 20
-117133.9526233457
 30
0.0
 40
0.9
 50
270.0
 51
330.00000000005173
  0
ARC
  5
184A6
  8
0
 10
118280.5037717115
 20
-117118.56051122199
 30
0.0
 40
0.9
 50
240.00000000011659
 51
329.99999999981469
  0
ARC
  5
184A7
  8
0
 10
118269.1635842691
 20
-117112.0132509495
 30
0.0
 40
0.9
 50
150.00000000032961
 51
240.0000000001053
  0
ARC
  5
184A8
  8
0
  6
CONTINUOUS
 10
118272.2522169296
 20
-117133.85262334561
 30
0.0
 40
0.4
 50
270.0
 51
330.0000000000764
  0
DIMENSION
  5
18661
  8
ér
  2
*D10
 10
117838.34674200611
 20
-116938.9865277952
 30
0.0
 11
117823.34679605989
 21
-116936.3615277952
 31
0.0
 70
     0
 13
117808.3468501137
 23
-116961.2195735226
 33
0.0
 14
117838.34674200611
 24
-116961.2195735226
 34
0.0
  0
DIMENSION
  5
1868B
  8
ér
  2
*D11
 10
117787.89597425979
 20
-116976.71972914461
 30
0.0
 11
117785.27097425979
 21
-116969.46965133359
 31
0.0
 70
     0
 13
117808.346742006
 23
-116962.2195735226
 33
0.0
 14
117823.346742006
 24
-116976.71972914461
 34
0.0
 50
90.0
  0
DIMENSION
  5
186A3
  8
ér
  2
*D12
 10
117787.89597425979
 20
-116976.71972914461
 30
0.0
 11
117785.27097425979
 21
-116978.2197608993
 31
0.0
 70
     0
 13
117823.346742006
 23
-116979.7197926541
 33
0.0
 14
117823.346742006
 24
-116976.71972914461
 34
0.0
 50
90.0
  0
DIMENSION
  5
186BF
  8
ér
  2
*D13
 10
117838.34674200611
 20
-116999.70040333
 30
0.0
 11
117830.846742006
 21
-116997.07540333
 31
0.0
 70
     0
 13
117823.346742006
 23
-116979.7197926541
 33
0.0
 14
117838.34674200611
 24
-116979.7197926541
 34
0.0
  0
DIMENSION
  5
186F4
  8
ér
  2
*D14
 10
117949.8279561322
 20
-116985.4013513152
 30
0.0
 11
117947.2029561322
 21
-116970.4013513152
 31
0.0
 70
     0
 13
117962.7914895748
 23
-116955.4013513152
 33
0.0
 14
117963.8914895748
 24
-116985.4013513152
 34
0.0
 50
90.0
  0
DIMENSION
  5
18715
  8
ér
  2
*D15
 10
117964.0474294649
 20
-116999.8008832324
 30
0.0
 11
117961.4224294649
 21
-116995.3011172738
 31
0.0
 70
     0
 13
117975.5914895748
 23
-116990.8013513152
 33
0.0
 14
117976.69148957481
 24
-116999.8008832324
 34
0.0
 50
90.0
  0
DIMENSION
  5
1872D
  8
ér
  2
*D16
 10
117977.7914895748
 20
-116941.60197214071
 30
0.0
 11
117970.2914895748
 21
-116938.97697214071
 31
0.0
 70
     0
 13
117962.7914895748
 23
-116955.4013513152
 33
0.0
 14
117977.7914895748
 24
-116985.8013513152
 34
0.0
  0
DIMENSION
  5
18745
  8
ér
  2
*D17
 10
117996.4601870301
 20
-116999.8008832324
 30
0.0
 11
117993.8351870301
 21
-116992.3011172738
 31
0.0
 70
     0
 13
117976.7914895748
 23
-116984.8013513152
 33
0.0
 14
117976.69148957481
 24
-116999.8008832324
 34
0.0
 50
90.0
  0
DIMENSION
  5
1875D
  8
ér
  2
*D18
 10
118094.5037613366
 20
-116924.07669748311
 30
0.0
 11
118104.5037613367
 21
-116921.45169748319
 31
0.0
 70
     0
 13
118114.5037613368
 23
-116939.3059400912
 33
0.0
 14
118094.5037613366
 24
-116965.40594009111
 34
0.0
  0
DIMENSION
  5
187A9
  8
ér
  2
*D19
 10
117855.5798000686
 20
-116979.7197926541
 30
0.0
 11
117852.9548000686
 21
-116970.4696830883
 31
0.0
 70
     0
 13
117838.34674200611
 23
-116961.2195735226
 33
0.0
 14
117838.34674200611
 24
-116979.7197926541
 34
0.0
 50
90.0
  0
DIMENSION
  5
187CA
  8
ér
  2
*D20
 10
118079.14675341221
 20
-116994.3059400912
 30
0.0
 11
118076.52175341229
 21
-116979.3059400911
 31
0.0
 70
     0
 13
118095.60376133661
 23
-116964.3059400911
 33
0.0
 14
118095.60376133669
 24
-116994.3059400912
 34
0.0
 50
90.0
  0
DIMENSION
  5
187E2
  8
ér
  2
*D21
 10
118124.5037613367
 20
-117007.296142311
 30
0.0
 11
118109.5037613366
 21
-117004.671142311
 31
0.0
 70
     0
 13
118094.5037613366
 23
-116993.2059400912
 33
0.0
 14
118124.5037613367
 24
-116993.20594009099
 34
0.0
  0
DIMENSION
  5
187FA
  8
ér
  2
*D22
 10
118164.9023296307
 20
-116974.305940091
 30
0.0
 11
118162.2773296308
 21
-116984.305940091
 31
0.0
 70
     0
 13
118123.4037613367
 23
-116994.3059400911
 33
0.0
 14
118149.5037613366
 24
-116974.305940091
 34
0.0
 50
90.0
  0
DIMENSION
  5
1881B
  8
ér
  2
*D23
 10
118079.14675341221
 20
-116964.3059400911
 30
0.0
 11
118076.52175341229
 21
-116951.8059400911
 31
0.0
 70
     0
 13
118114.5037613368
 23
-116939.3059400912
 33
0.0
 14
118095.60376133661
 24
-116964.3059400911
 34
0.0
 50
90.0
  0
DIMENSION
  5
18828
  8
ér
  2
*D24
 10
118124.5037613367
 20
-117007.296142311
 30
0.0
 11
118137.0037613366
 21
-117004.671142311
 31
0.0
 70
     0
 13
118149.5037613366
 23
-116974.305940091
 33
0.0
 14
118124.5037613367
 24
-116993.20594009099
 34
0.0
  0
DIMENSION
  5
18835
  8
ér
  2
*D25
 10
118253.6468395025
 20
-116977.70734260749
 30
0.0
 11
118251.0218395025
 21
-116957.70734260741
 31
0.0
 70
     0
 13
118267.6498501843
 23
-116937.70734260741
 33
0.0
 14
118268.74985018429
 24
-116977.70734260749
 34
0.0
 50
90.0
  0
DIMENSION
  5
18856
  8
ér
  2
*D26
 10
118267.6498501843
 20
-116928.5372869728
 30
0.0
 11
118277.6498501843
 21
-116925.9122869728
 31
0.0
 70
     0
 13
118287.6498501843
 23
-116978.20734260741
 33
0.0
 14
118267.6498501843
 24
-116937.70734260741
 34
0.0
  0
DIMENSION
  5
18898
  8
ér
  2
*D27
 10
118287.6498501843
 20
-117008.3717225107
 30
0.0
 11
118277.6498501843
 21
-117005.7467225107
 31
0.0
 70
     0
 13
118267.6498501843
 23
-116997.00734260739
 33
0.0
 14
118287.6498501843
 24
-116997.00734260739
 34
0.0
  0
DIMENSION
  5
188E3
  8
ér
  2
*D28
 10
118253.6468395025
 20
-116998.1073426074
 30
0.0
 11
118251.0218395025
 21
-116995.1073426074
 31
0.0
 70
     0
 13
118267.6498501843
 23
-116992.1073426074
 33
0.0
 14
118268.74985018429
 24
-116998.1073426074
 34
0.0
 50
90.0
  0
DIMENSION
  5
18911
  8
ér
  2
*D29
 10
118427.92855284479
 20
-116943.7675663065
 30
0.0
 11
118412.92855284479
 21
-116941.1425663065
 31
0.0
 70
     0
 13
118397.92855284479
 23
-116959.4765189226
 33
0.0
 14
118427.92855284479
 24
-116959.4765189226
 34
0.0
  0
DIMENSION
  5
18929
  8
ér
  2
*D30
 10
118437.9286416035
 20
-116943.7675663065
 30
0.0
 11
118432.92859722411
 21
-116941.1425663065
 31
0.0
 70
     0
 13
118427.92855284479
 23
-116959.4765189226
 33
0.0
 14
118437.9286416035
 24
-116966.77673805421
 34
0.0
  0
LINE
  5
1895D
  8
0
  6
CONTINUOUS
 10
118427.92855284479
 20
-116959.4765189226
 30
0.0
 11
118397.92855284479
 21
-116959.4765189226
 31
0.0
  0
LINE
  5
1895E
  8
0
  6
CONTINUOUS
 10
118427.92855284479
 20
-116959.4765189226
 30
0.0
 11
118427.92855284479
 21
-116966.77673805421
 31
0.0
  0
LINE
  5
1895F
  8
0
  6
CONTINUOUS
 10
118427.92855284479
 20
-116966.77673805421
 30
0.0
 11
118437.9286416035
 21
-116966.77673805421
 31
0.0
  0
LINE
  5
18960
  8
0
  6
CONTINUOUS
 10
118437.9286416035
 20
-116968.1767380541
 30
0.0
 11
118437.9286416035
 21
-116966.77673805421
 31
0.0
  0
LINE
  5
18961
  8
0
  6
CONTINUOUS
 10
118427.92855284479
 20
-116968.1767380541
 30
0.0
 11
118437.9286416035
 21
-116968.1767380541
 31
0.0
  0
LINE
  5
18962
  8
0
  6
CONTINUOUS
 10
118427.92855284479
 20
-116978.1767380541
 30
0.0
 11
118427.92855284479
 21
-116968.1767380541
 31
0.0
  0
LINE
  5
18963
  8
0
  6
CONTINUOUS
 10
118412.92855284479
 20
-116978.1767380541
 30
0.0
 11
118427.92855284479
 21
-116978.1767380541
 31
0.0
  0
LINE
  5
18964
  8
0
  6
CONTINUOUS
 10
118412.92855284479
 20
-116978.1767380541
 30
0.0
 11
118412.92855284479
 21
-116975.17667454459
 31
0.0
  0
LINE
  5
18966
  8
0
  6
CONTINUOUS
 10
118397.92855284479
 20
-116959.4765189226
 30
0.0
 11
118397.92855284479
 21
-116960.6765189226
 31
0.0
  0
DIMENSION
  5
189B2
  8
ér
  2
*D31
 10
118460.03647804139
 20
-116968.1767380541
 30
0.0
 11
118457.41147804139
 21
-116963.8266284883
 31
0.0
 70
     0
 13
118427.92855284479
 23
-116959.4765189226
 33
0.0
 14
118437.9286416035
 24
-116968.1767380541
 34
0.0
 50
90.0
  0
DIMENSION
  5
189DA
  8
ér
  2
*D32
 10
118460.03647804139
 20
-116978.1767380541
 30
0.0
 11
118457.41147804139
 21
-116973.176738054
 31
0.0
 70
     0
 13
118437.9286416035
 23
-116968.1767380541
 33
0.0
 14
118427.92855284479
 24
-116978.1767380541
 34
0.0
 50
90.0
  0
DIMENSION
  5
189FB
  8
ér
  2
*D33
 10
118389.4722708976
 20
-116975.17667454459
 30
0.0
 11
118386.8472708976
 21
-116976.6767062993
 31
0.0
 70
     0
 13
118412.92855284479
 23
-116978.1767380541
 33
0.0
 14
118412.92855284479
 24
-116975.17667454459
 34
0.0
 50
90.0
  0
DIMENSION
  5
18A22
  8
ér
  2
*D34
 10
118389.4722708976
 20
-116975.17667454459
 30
0.0
 11
118386.8472708976
 21
-116967.9265967336
 31
0.0
 70
     0
 13
118397.92855284479
 23
-116960.6765189226
 33
0.0
 14
118412.92855284479
 24
-116975.17667454459
 34
0.0
 50
90.0
  0
DIMENSION
  5
18A4C
  8
ér
  2
*D35
 10
118427.92855284479
 20
-116991.91275899509
 30
0.0
 11
118420.42855284479
 21
-116989.28775899509
 31
0.0
 70
     0
 13
118412.92855284479
 23
-116978.1767380541
 33
0.0
 14
118427.92855284479
 24
-116978.1767380541
 34
0.0
  0
DIMENSION
  5
18A76
  8
ér
  2
*D36
 10
117839.570583544
 20
-117081.9319886845
 30
0.0
 11
117819.570583544
 21
-117079.3069886845
 31
0.0
 70
     0
 13
117799.570583544
 23
-117094.7197926542
 33
0.0
 14
117839.570583544
 24
-117094.7197926542
 34
0.0
  0
DIMENSION
  5
18A8E
  8
ér
  2
*D37
 10
117859.53634723451
 20
-117112.91979265409
 30
0.0
 11
117856.91134723451
 21
-117103.8197926541
 31
0.0
 70
     0
 13
117839.570583544
 23
-117094.7197926542
 33
0.0
 14
117829.5705294902
 24
-117112.91979265409
 34
0.0
 50
90.0
  0
DIMENSION
  5
18AA6
  8
ér
  2
*D38
 10
117851.2837026069
 20
-117110.4197926542
 30
0.0
 11
117848.6587026069
 21
-117103.16979265409
 31
0.0
 70
     0
 13
117839.570583544
 23
-117095.91979265409
 33
0.0
 14
117829.5705835441
 24
-117110.4197926542
 34
0.0
 50
90.0
  0
LINE
  5
18AD0
  8
0
  6
CONTINUOUS
 10
117839.570583544
 20
-117095.91979265409
 30
0.0
 11
117834.68958402031
 21
-117095.91979265409
 31
0.0
  0
LINE
  5
18AD1
  8
0
  6
CONTINUOUS
 10
117799.570583544
 20
-117095.91979265409
 30
0.0
 11
117804.270583544
 21
-117095.91979265409
 31
0.0
  0
LINE
  5
18AD2
  8
0
  6
CONTINUOUS
 10
117820.2705835441
 20
-117095.91979265409
 30
0.0
 11
117820.2705835441
 21
-117111.7197926542
 31
0.0
  0
LINE
  5
18AD3
  8
0
  6
CONTINUOUS
 10
117818.87058354401
 20
-117095.91979265409
 30
0.0
 11
117818.87058354401
 21
-117111.7197926542
 31
0.0
  0
LINE
  5
18AD4
  8
0
  6
CONTINUOUS
 10
117828.37058354411
 20
-117111.7197926542
 30
0.0
 11
117820.2705835441
 21
-117111.7197926542
 31
0.0
  0
LINE
  5
18AD5
  8
0
  6
CONTINUOUS
 10
117818.87058354401
 20
-117111.7197926542
 30
0.0
 11
117810.770583544
 21
-117111.7197926542
 31
0.0
  0
DIMENSION
  5
18AD6
  8
ér
  2
*D39
 10
117809.570583544
 20
-117126.8124820511
 30
0.0
 11
117819.57055651709
 21
-117124.1874820511
 31
0.0
 70
     0
 13
117829.5705294902
 23
-117112.91979265409
 33
0.0
 14
117809.570583544
 24
-117112.91979265409
 34
0.0
  0
LINE
  5
18AEE
  8
0
  6
CONTINUOUS
 10
117828.37058354411
 20
-117110.4197926542
 30
0.0
 11
117828.37058354411
 21
-117111.7197926542
 31
0.0
  0
LINE
  5
18AEF
  8
0
  6
CONTINUOUS
 10
117810.770583544
 20
-117110.4197926542
 30
0.0
 11
117810.770583544
 21
-117111.7197926542
 31
0.0
  0
DIMENSION
  5
18AF9
  8
ér
  2
*D40
 10
117851.2837026069
 20
-117112.91979265409
 30
0.0
 11
117848.6587026069
 21
-117116.50089830661
 31
0.0
 70
   128
 13
117829.5705835441
 23
-117110.4197926542
 33
0.0
 14
117829.5705835441
 24
-117112.91979265409
 34
0.0
 50
90.0
  0
LINE
  5
18B2B
  8
0
 10
117804.270583544
 20
-117095.91979265409
 30
0.0
 11
117804.570583544
 21
-117095.61979265411
 31
0.0
  0
LINE
  5
18B2C
  8
0
 10
117804.570583544
 20
-117095.61979265411
 30
0.0
 11
117804.87058354401
 21
-117095.91979265409
 31
0.0
  0
LINE
  5
18B30
  8
0
  6
CONTINUOUS
 10
117804.87058354401
 20
-117095.91979265409
 30
0.0
 11
117818.87058354401
 21
-117095.91979265409
 31
0.0
  0
LINE
  5
18B31
  8
0
 10
117834.68958402031
 20
-117095.91979265409
 30
0.0
 11
117834.3895840203
 21
-117095.61979265411
 31
0.0
  0
LINE
  5
18B32
  8
0
 10
117834.3895840203
 20
-117095.61979265411
 30
0.0
 11
117834.0895840203
 21
-117095.91979265409
 31
0.0
  0
LINE
  5
18B33
  8
0
  6
CONTINUOUS
 10
117834.0895840203
 20
-117095.91979265409
 30
0.0
 11
117820.2705835441
 21
-117095.91979265409
 31
0.0
  0
DIMENSION
  5
18B3E
  8
ér
  2
*D41
 10
117971.47186689659
 20
-117194.6114806212
 30
0.0
 11
117953.97186689659
 21
-117191.9864806212
 31
0.0
 70
     0
 13
117936.47186689659
 23
-117206.6825755957
 33
0.0
 14
117971.47186689659
 24
-117208.2225755957
 34
0.0
  0
DIMENSION
  5
18B68
  8
ér
  2
*D42
 10
117989.68180113941
 20
-117252.6825755957
 30
0.0
 11
117987.05680113949
 21
-117229.6825755957
 31
0.0
 70
     0
 13
117969.9318668967
 23
-117206.6825755957
 33
0.0
 14
117969.9318668967
 24
-117252.6825755957
 34
0.0
 50
90.0
  0
DIMENSION
  5
18B80
  8
ér
  2
*D43
 10
117938.1645712594
 20
-117252.6825755957
 30
0.0
 11
117935.5395712594
 21
-117247.6825755957
 31
0.0
 70
     0
 13
117953.0118668966
 23
-117242.6825755957
 33
0.0
 14
117953.0118668966
 24
-117252.6825755957
 34
0.0
 50
90.0
  0
DIMENSION
  5
18B98
  8
ér
  2
*D44
 10
117971.47186689659
 20
-117265.6487066429
 30
0.0
 11
117961.47186689659
 21
-117263.0237066429
 31
0.0
 70
     0
 13
117951.47186689659
 23
-117251.1425755957
 33
0.0
 14
117971.47186689659
 24
-117251.1425755957
 34
0.0
  0
DIMENSION
  5
18BB0
  8
ér
  2
*D45
 10
117938.1645712594
 20
-117242.6825755957
 30
0.0
 11
117935.5395712594
 21
-117225.1825755957
 31
0.0
 70
     0
  1
ôÓÉí<>
 13
117936.47186689659
 23
-117207.6825755957
 33
0.0
 14
117953.0118668966
 24
-117242.6825755957
 34
0.0
 50
90.0
  0
DIMENSION
  5
18BE5
  8
ér
  2
*D46
 10
117958.47186689659
 20
-117231.02160183431
 30
0.0
 11
117954.97186689659
 21
-117228.39660183431
 31
0.0
 70
     0
 13
117951.47186689659
 23
-117244.2225755957
 33
0.0
 14
117958.47186689659
 24
-117242.6825755957
 34
0.0
  0
DIMENSION
  5
18BFD
  8
ér
  2
*D47
 10
118139.37400967019
 20
-117200.40883673581
 30
0.0
 11
118119.37400967019
 21
-117197.78383673581
 31
0.0
 70
     0
 13
118099.37400967019
 23
-117216.4749671007
 33
0.0
 14
118139.37400967019
 24
-117216.4749671007
 34
0.0
  0
DIMENSION
  5
18C18
  8
ér
  2
*D48
 10
118086.0768447929
 20
-117252.07496710071
 30
0.0
 11
118083.4518447929
 21
-117234.57496710071
 31
0.0
 70
     0
  1
ôÓÉí<>
 13
118099.37400967019
 23
-117217.07496710071
 33
0.0
 14
118107.7740096702
 24
-117252.07496710071
 34
0.0
 50
90.0
  0
DIMENSION
  5
18C42
  8
ér
  2
*D49
 10
118150.0225976416
 20
-117253.8749671007
 30
0.0
 11
118147.3975976416
 21
-117235.1749671007
 31
0.0
 70
     0
 13
118139.37400967019
 23
-117216.4749671007
 33
0.0
 14
118130.9740096702
 24
-117253.8749671007
 34
0.0
 50
90.0
  0
DIMENSION
  5
18C5A
  8
ér
  2
*D50
 10
118131.87400967019
 20
-117273.3365123644
 30
0.0
 11
118119.37400967019
 21
-117270.7115123643
 31
0.0
 70
     0
 13
118106.8740096703
 23
-117252.9749671007
 33
0.0
 14
118131.87400967019
 24
-117252.9749671007
 34
0.0
  0
DIMENSION
  5
18C72
  8
ér
  2
*D51
 10
117953.3238595912
 20
-117080.0686558906
 30
0.0
 11
117938.3238595913
 21
-117077.4436558906
 31
0.0
 70
     0
 13
117923.3238595913
 23
-117092.6946963095
 33
0.0
 14
117953.3238595912
 24
-117093.5946963094
 34
0.0
  0
DIMENSION
  5
18C8A
  8
ér
  2
*D52
 10
117927.0360615659
 20
-117106.5946963094
 30
0.0
 11
117924.4110615659
 21
-117099.8446963095
 31
0.0
 70
     0
 13
117923.3238595913
 23
-117093.09469630961
 33
0.0
 14
117941.1238595913
 24
-117106.5946963094
 34
0.0
 50
90.0
  0
LINE
  5
18CA3
  8
ér
 10
117985.2542443494
 20
-117134.1352660437
 30
0.0
 11
117984.85424434931
 21
-117133.44244572079
 31
0.0
  0
LINE
  5
18CA4
  8
ér
 10
117985.94706467239
 20
-117133.7352660437
 30
0.0
 11
117985.2542443494
 21
-117134.1352660437
 31
0.0
  0
LINE
  5
18CA5
  8
ér
 10
117970.2774494297
 20
-117108.1946963095
 30
0.0
 11
117969.9887742951
 21
-117108.1946963095
 31
0.0
  0
LINE
  5
18CA6
  8
ér
 10
117970.2774494297
 20
-117108.1946963095
 30
0.0
 11
117970.421786997
 21
-117108.4446963095
 31
0.0
  0
DIMENSION
  5
18CA7
  8
ér
  2
*D53
 10
117979.3151442533
 20
-117137.5642070835
 30
0.0
 11
117974.1000634777
 21
-117123.28142221661
 31
0.0
 70
     1
 13
117970.2774494297
 23
-117108.1946963095
 33
0.0
 14
117985.2542443507
 24
-117134.135266043
 34
0.0
  0
LINE
  5
18CC8
  8
ér
 10
117940.3238595913
 20
-117107.39469630941
 30
0.0
 11
117940.3238595913
 21
-117108.1946963095
 31
0.0
  0
LINE
  5
18CC9
  8
ér
 10
117941.1238595913
 20
-117108.1946963095
 30
0.0
 11
117940.3238595913
 21
-117108.1946963095
 31
0.0
  0
DIMENSION
  5
18CCA
  8
ér
  2
*D54
 10
117970.2774494297
 20
-117115.22234016391
 30
0.0
 11
117955.3006545105
 21
-117112.59734016391
 31
0.0
 70
     1
 13
117940.3238595913
 23
-117108.1946963095
 33
0.0
 14
117970.2774494297
 24
-117108.1946963095
 34
0.0
  0
DIMENSION
  5
18CFD
  8
ér
  2
*D55
 10
118022.44236228779
 20
-117132.2946052918
 30
0.0
 11
118017.2156789721
 21
-117117.9917242354
 31
0.0
 70
     1
 13
117992.17763810771
 23
-117115.1269357939
 33
0.0
 14
118007.1776381089
 24
-117141.1076979066
 34
0.0
  0
DIMENSION
  5
18D36
  8
ér
  2
*D56
 10
118005.01094376241
 20
-117138.15487321409
 30
0.0
 11
117997.8527722865
 21
-117139.2565565297
 31
0.0
 70
     1
 13
117986.2398849953
 23
-117132.6424457207
 33
0.0
 14
117997.9312279468
 24
-117125.8924457197
 34
0.0
  0
DIMENSION
  5
18D72
  8
ér
  2
*D57
 10
117941.1238595913
 20
-117108.1946963095
 30
0.0
 11
117960.1405819489
 21
-117125.7522658159
 31
0.0
 70
     2
  1
üª
 13
117970.421786997
 23
-117108.44469630939
 33
0.0
 14
117984.85424434939
 24
-117133.44244572079
 34
0.0
 15
117969.98877429499
 25
-117108.19469630939
 35
0.0
 16
117952.7360007579
 26
-117122.91371942039
 36
0.0
1001
ACAD
1000
DSTYLE
1002
{
1070
   271
1070
     0
1002
}
  0
LINE
  5
18D9C
  8
ér
 10
118272.8295671989
 20
-117134.85262334561
 30
0.0
 11
118273.08937482
 21
-117134.4026233457
 31
0.0
  0
LINE
  5
18D9D
  8
ér
 10
118272.8295671989
 20
-117134.85262334561
 30
0.0
 11
118272.30995195681
 21
-117134.85262334569
 31
0.0
  0
DIMENSION
  5
18D9E
  8
ér
  2
*D58
 10
118272.8295671989
 20
-117146.64881099859
 30
0.0
 11
118257.80636211811
 21
-117144.02381099859
 31
0.0
 70
     0
 13
118242.78315703729
 23
-117134.0526233456
 33
0.0
 14
118272.8295671989
 24
-117134.85262334561
 34
0.0
  0
LINE
  5
18DC0
  8
ér
 10
118287.4527722796
 20
-117109.5244891762
 30
0.0
 11
118287.79821473081
 21
-117108.8001700376
 31
0.0
  0
LINE
  5
18DC1
  8
ér
 10
118287.79821473081
 20
-117108.8001700376
 30
0.0
 11
118287.15995195659
 21
-117108.4316688531
 31
0.0
  0
DIMENSION
  5
18DC4
  8
ér
  2
*D59
 10
118282.0542346227
 20
-117140.1527305421
 30
0.0
 11
118287.26249481741
 21
-117125.8187731744
 31
0.0
 70
     1
 13
118287.79821473081
 23
-117108.8001700376
 33
0.0
 14
118272.8295671989
 24
-117134.85262334561
 34
0.0
  0
DIMENSION
  5
18DEE
  8
ér
  2
*D60
 10
118291.6148471856
 20
-117099.1155639738
 30
0.0
 11
118287.08404838359
 21
-117093.4686171527
 31
0.0
 70
     1
 13
118274.1474048128
 23
-117102.3810205519
 33
0.0
 14
118285.8340024169
 24
-117109.1282808243
 34
0.0
  0
DIMENSION
  5
18E06
  8
ér
  2
*D61
 10
118274.5107347225
 20
-117081.49864403591
 30
0.0
 11
118264.7374180371
 21
-117093.17652509231
 31
0.0
 70
     1
 13
118267.9341614057
 23
-117112.3426738128
 33
0.0
 14
118282.93416140661
 24
-117086.3619116999
 34
0.0
  0
DIMENSION
  5
18E1E
  8
ér
  2
*D62
 10
118255.60327019139
 20
-117110.16935836
 30
0.0
 11
118240.7583410337
 21
-117107.4126595453
 31
0.0
 70
     1
 13
118225.7830819621
 23
-117119.3581028007
 33
0.0
 14
118255.51947806519
 24
-117119.62170669749
 34
0.0
  0
DIMENSION
  5
18E3F
  8
ér
  2
*D63
 10
118230.0660358048
 20
-117119.7581028006
 30
0.0
 11
118227.44103580491
 21
-117126.5053630731
 31
0.0
 70
     1
 13
118243.5831570373
 23
-117133.2526233456
 33
0.0
 14
118243.5831570373
 24
-117119.7581028006
 34
0.0
  0
DIMENSION
  5
18E57
  8
ér
  2
*D64
 10
118243.5831570373
 20
-117134.2526233456
 30
0.0
 11
118265.31914152909
 21
-117121.8441844991
 31
0.0
 70
     2
  1
üª
 13
118272.5986270912
 23
-117134.0526233456
 33
0.0
 14
118286.9331570373
 24
-117109.22448917619
 34
0.0
 15
118272.2522169296
 25
-117134.2526233456
 35
0.0
 16
118270.4509470281
 26
-117122.7273876668
 36
0.0
1001
ACAD
1000
DSTYLE
1002
{
1070
   271
1070
     0
1002
}
  0
DIMENSION
  5
18E97
  8
ér
  2
*D65
 10
118253.6468395025
 20
-116992.1073426074
 30
0.0
 11
118251.0218395025
 21
-116984.9073426074
 31
0.0
 70
     0
  1
14.5
 13
118268.74985018429
 23
-116977.70734260749
 33
0.0
 14
118268.24985018429
 24
-116992.1073426074
 34
0.0
 50
90.0
  0
LINE
  5
19051
  8
ôVêõìÌ
 62
     0
 10
117807.0788565089
 20
-117216.1000345254
 30
0.0
 11
117807.0788565089
 21
-117227.8000345254
 31
0.0
  0
LINE
  5
19052
  8
ôVêõìÌ
 62
     0
 10
117807.87885650891
 20
-117216.1000345254
 30
0.0
 11
117807.87885650891
 21
-117227.8000345254
 31
0.0
  0
LINE
  5
19053
  8
ôVêõìÌ
 62
     0
 10
117808.37885650891
 20
-117229.1000345254
 30
0.0
 11
117818.7788565089
 21
-117229.1000345254
 31
0.0
  0
LINE
  5
19054
  8
ôVêõìÌ
 62
     0
 10
117808.37885650891
 20
-117228.3000345254
 30
0.0
 11
117818.7788565089
 21
-117228.3000345254
 31
0.0
  0
ARC
  5
19055
  8
ôVêõìÌ
 62
     0
 10
117818.7788565089
 20
-117227.8000345254
 30
0.0
 40
1.2999999999999989
 50
270.0
 51
0.0
  0
ARC
  5
19056
  8
ôVêõìÌ
 62
     0
 10
117818.7788565089
 20
-117227.8000345254
 30
0.0
 40
0.4999999999999997
 50
270.0
 51
0.0
  0
ARC
  5
19057
  8
ôVêõìÌ
 62
     0
 10
117808.37885650891
 20
-117227.8000345254
 30
0.0
 40
1.2999999999999989
 50
180.0
 51
270.0
  0
ARC
  5
19058
  8
ôVêõìÌ
 62
     0
 10
117808.37885650891
 20
-117227.8000345254
 30
0.0
 40
0.4999999999999997
 50
180.0
 51
270.0
  0
LINE
  5
19059
  8
ôVêõìÌ
 62
     0
 10
117820.0788565089
 20
-117227.8000345254
 30
0.0
 11
117820.0788565089
 21
-117216.1000345254
 31
0.0
  0
LINE
  5
1905A
  8
ôVêõìÌ
 62
     0
 10
117819.2788565089
 20
-117227.8000345254
 30
0.0
 11
117819.2788565089
 21
-117216.1000345254
 31
0.0
  0
LINE
  5
1905B
  8
ôVêõìÌ
 62
     0
 10
117807.0788565089
 20
-117216.1000345254
 30
0.0
 11
117807.87885650891
 21
-117216.1000345254
 31
0.0
  0
LINE
  5
1905C
  8
ôVêõìÌ
 62
     0
 10
117819.2788565089
 20
-117216.1000345254
 30
0.0
 11
117820.0788565089
 21
-117216.1000345254
 31
0.0
  0
LINE
  5
1905D
  8
ôVêõìÌ
 62
     0
 10
117820.0788565089
 20
-117216.1000345254
 30
0.0
 11
117820.0788565089
 21
-117227.8000345254
 31
0.0
  0
LINE
  5
1905E
  8
ôVêõìÌ
 62
     0
 10
117819.2788565089
 20
-117216.1000345254
 30
0.0
 11
117819.2788565089
 21
-117227.8000345254
 31
0.0
  0
ARC
  5
1905F
  8
ôVêõìÌ
 62
     0
 10
117818.7788565089
 20
-117227.8000345254
 30
0.0
 40
1.2999999999999989
 50
270.0
 51
0.0
  0
ARC
  5
19060
  8
ôVêõìÌ
 62
     0
 10
117818.7788565089
 20
-117227.8000345254
 30
0.0
 40
0.4999999999999997
 50
270.0
 51
0.0
  0
LINE
  5
19061
  8
ôVêõìÌ
 62
     0
 10
117820.0788565089
 20
-117216.1000345254
 30
0.0
 11
117819.2788565089
 21
-117216.1000345254
 31
0.0
  0
LINE
  5
19062
  8
ôVêõìÌ
 62
     0
 10
118266.8152711849
 20
-117214.6839894951
 30
0.0
 11
118266.8152711849
 21
-117246.8839894714
 31
0.0
  0
LINE
  5
19063
  8
ôVêõìÌ
 62
     0
 10
118267.6152711849
 20
-117214.6839894951
 30
0.0
 11
118267.6152711849
 21
-117246.8839894714
 31
0.0
  0
LINE
  5
19064
  8
ôVêõìÌ
 62
     0
 10
118268.1152711849
 20
-117248.18398947141
 30
0.0
 11
118290.51527118489
 21
-117248.18398947141
 31
0.0
  0
LINE
  5
19065
  8
ôVêõìÌ
 62
     0
 10
118268.1152711849
 20
-117247.3839894714
 30
0.0
 11
118290.51527118489
 21
-117247.3839894714
 31
0.0
  0
ARC
  5
19066
  8
ôVêõìÌ
 62
     0
 10
118290.51527118489
 20
-117246.8839894714
 30
0.0
 40
1.3
 50
270.0
 51
0.0
  0
ARC
  5
19067
  8
ôVêõìÌ
 62
     0
 10
118290.51527118489
 20
-117246.8839894714
 30
0.0
 40
0.5
 50
270.0
 51
0.0
  0
ARC
  5
19068
  8
ôVêõìÌ
 62
     0
 10
118268.1152711849
 20
-117246.8839894714
 30
0.0
 40
1.3
 50
180.0
 51
270.0
  0
ARC
  5
19069
  8
ôVêõìÌ
 62
     0
 10
118268.1152711849
 20
-117246.8839894714
 30
0.0
 40
0.5
 50
180.0
 51
270.0
  0
LINE
  5
1906A
  8
ôVêõìÌ
 62
     0
 10
118291.8152711849
 20
-117246.8839894714
 30
0.0
 11
118291.8152711849
 21
-117214.6839894951
 31
0.0
  0
LINE
  5
1906B
  8
ôVêõìÌ
 62
     0
 10
118291.01527118489
 20
-117246.8839894714
 30
0.0
 11
118291.01527118489
 21
-117214.6839894951
 31
0.0
  0
LINE
  5
1906C
  8
ôVêõìÌ
 62
     0
 10
118266.8152711849
 20
-117214.6839894951
 30
0.0
 11
118267.6152711849
 21
-117214.6839894951
 31
0.0
  0
LINE
  5
1906D
  8
ôVêõìÌ
 62
     0
 10
118291.01527118489
 20
-117214.6839894951
 30
0.0
 11
118291.8152711849
 21
-117214.6839894951
 31
0.0
  0
INSERT
  5
19080
  8
ér
  2
*U93
 10
0.0
 20
0.0
 30
0.0
  0
INSERT
  5
19081
  8
ér
  2
*U94
 10
0.0
 20
0.0
 30
0.0
  0
DIMENSION
  5
19084
  8
ér
  2
*D66
 10
117794.21998521819
 20
-117229.1000345254
 30
0.0
 11
117791.59498521819
 21
-117222.6000345254
 31
0.0
 70
     0
 13
117807.0788565089
 23
-117216.1000345254
 33
0.0
 14
117808.37885650891
 24
-117229.1000345254
 34
0.0
 50
90.0
1001
ACAD
1000
DSTYLE
1002
{
1070
   271
1070
     6
1002
}
  0
DIMENSION
  5
190B7
  8
ér
  2
*D67
 10
117820.0788565089
 20
-117240.524961553
 30
0.0
 11
117813.5788565089
 21
-117237.899961553
 31
0.0
 70
     0
 13
117807.0788565089
 23
-117227.8000345254
 33
0.0
 14
117820.0788565089
 24
-117227.8000345254
 34
0.0
  0
DIMENSION
  5
190CF
  8
ér
  2
*D68
 10
117832.94043393611
 20
-117229.1000345254
 30
0.0
 11
117830.31543393611
 21
-117222.6000345254
 31
0.0
 70
     0
 13
117820.0788565089
 23
-117216.1000345254
 33
0.0
 14
117818.7788565089
 24
-117229.1000345254
 34
0.0
 50
90.0
  0
INSERT
  5
19111
  8
ér
  2
*U95
 10
0.0
 20
0.0
 30
0.0
1001
ACAD_MLEADERVER
1070
     2
  0
DIMENSION
  5
19117
  8
ér
  2
*D69
 10
118247.6228921796
 20
-117248.18398947141
 30
0.0
 11
118244.9978921796
 21
-117231.43398948319
 31
0.0
 70
     0
 13
118266.8152711849
 23
-117214.6839894951
 33
0.0
 14
118268.1152711849
 24
-117248.18398947141
 34
0.0
 50
90.0
  0
DIMENSION
  5
19132
  8
ér
  2
*D70
 10
118291.8152711849
 20
-117266.4006669111
 30
0.0
 11
118279.3152711849
 21
-117263.7756669111
 31
0.0
 70
     0
 13
118266.8152711849
 23
-117246.8839894714
 33
0.0
 14
118291.8152711849
 24
-117246.8839894714
 34
0.0
  0
DIMENSION
  5
1914A
  8
ér
  2
*D71
 10
118312.6411154525
 20
-117214.6839894951
 30
0.0
 11
118310.0161154525
 21
-117231.43398948319
 31
0.0
 70
     0
 13
118290.1501431637
 23
-117248.18398947141
 33
0.0
 14
118291.8152711849
 24
-117214.6839894951
 34
0.0
 50
90.0
  0
INSERT
  5
19174
  8
ér
  2
*U96
 10
0.0
 20
0.0
 30
0.0
1001
ACAD_MLEADERVER
1070
     2
  0
ARC
  5
1955E
  8
0
  6
CONTINUOUS
 10
118135.6733898159
 20
-117133.0424457208
 30
0.0
 40
0.1999999999833351
 50
210.0000000012009
 51
30.00000000120097
  0
LINE
  5
1955F
  8
0
  6
CONTINUOUS
 10
118121.0677273827
 20
-117108.14469630941
 30
0.0
 11
118135.50018473509
 21
-117133.1424457207
 31
0.0
  0
ARC
  5
19560
  8
0
 10
118130.6296075983
 20
-117122.906358658
 30
0.0
 40
0.9
 50
120.0000000026776
 51
210.00000000116879
  0
ARC
  5
19561
  8
0
  6
CONTINUOUS
 10
118120.1150994385
 20
-117108.6946963095
 30
0.0
 40
1.1000000000000001
 50
30.000000001171991
 51
90.0
  0
LINE
  5
19562
  8
0
  6
CONTINUOUS
 10
118120.5481121405
 20
-117108.44469630939
 30
0.0
 11
118134.98056949289
 21
-117133.44244572079
 31
0.0
  0
ARC
  5
19563
  8
0
  6
CONTINUOUS
 10
118120.1150994386
 20
-117108.6946963095
 30
0.0
 40
0.5
 50
30.000000001051799
 51
90.000000000205176
  0
LINE
  5
19564
  8
0
  6
CONTINUOUS
 10
118130.19659489641
 20
-117123.156358658
 30
0.0
 11
118135.8465948966
 21
-117132.94244572079
 31
0.0
  0
ARC
  5
19565
  8
0
 10
118130.6296075983
 20
-117122.906358658
 30
0.0
 40
0.5
 50
120.000000002798
 51
210.00000000059549
  0
LINE
  5
19566
  8
0
  6
CONTINUOUS
 10
118133.2662101388
 20
-117127.2730882172
 30
0.0
 11
118136.36621013891
 21
-117132.6424457207
 31
0.0
  0
ARC
  5
19567
  8
0
 10
118135.6733898159
 20
-117133.0424457207
 30
0.0
 40
0.7999999999883585
 50
210.0000000012009
 51
30.00000000120097
  0
ARC
  5
19568
  8
0
 10
118135.6733898159
 20
-117133.0424457207
 30
0.0
 40
0.1999999999825377
 50
210.0000000012009
 51
30.00000000120097
  0
ARC
  5
19569
  8
0
  6
CONTINUOUS
 10
118135.6733898159
 20
-117133.0424457208
 30
0.0
 40
0.1999999999833351
 50
210.0000000012009
 51
30.00000000120097
  0
LINE
  5
1956A
  8
0
  6
CONTINUOUS
 10
118120.1150994385
 20
-117107.5946963095
 30
0.0
 11
118091.2501847348
 21
-117107.5946963095
 31
0.0
  0
ARC
  5
1956B
  8
0
  6
CONTINUOUS
 10
118091.2501847348
 20
-117107.39469630949
 30
0.0
 40
0.1999999999833351
 50
90.0
 51
270.0
  0
ARC
  5
1956C
  8
0
  6
CONTINUOUS
 10
118091.2501847348
 20
-117107.39469630949
 30
0.0
 40
0.1999999999833351
 50
90.0
 51
270.0
  0
LINE
  5
1956D
  8
0
  6
CONTINUOUS
 10
118102.5501847347
 20
-117092.59469630961
 30
0.0
 11
118073.4501847348
 21
-117092.59469630961
 31
0.0
  0
ARC
  5
1956E
  8
0
 10
118091.2501847348
 20
-117107.39469630941
 30
0.0
 40
0.1999999999825377
 50
90.0
 51
270.0
  0
ARC
  5
1956F
  8
0
 10
118091.2501847348
 20
-117107.39469630941
 30
0.0
 40
0.7999999999883585
 50
90.0
 51
270.0
  0
LINE
  5
19570
  8
0
 10
118097.4501847348
 20
-117106.5946963094
 30
0.0
 11
118091.2501847348
 21
-117106.59469630961
 31
0.0
  0
LINE
  5
19571
  8
0
 10
118103.05018473481
 20
-117106.69469630939
 30
0.0
 11
118103.0501847347
 21
-117093.09469630961
 31
0.0
  0
ARC
  5
19572
  8
0
 10
118102.5501847347
 20
-117093.09469630961
 30
0.0
 40
0.5
 50
0.0000000004136248
 51
90.0
  0
LINE
  5
19573
  8
0
  6
CONTINUOUS
 10
118102.55018473481
 20
-117107.19469630939
 30
0.0
 11
118091.2501847348
 21
-117107.1946963095
 31
0.0
  0
ARC
  5
19574
  8
0
 10
118102.55018473481
 20
-117106.69469630939
 30
0.0
 40
0.5
 50
270.00000000049499
 51
0.0000000004299092
  0
LINE
  5
19575
  8
0
 10
118073.4501847348
 20
-117092.59469630961
 30
0.0
 11
118073.4501847347
 21
-117092.1946963095
 31
0.0
  0
LINE
  5
19576
  8
0
  6
CONTINUOUS
 10
118120.1150994386
 20
-117108.19469630939
 30
0.0
 11
118091.2501847348
 21
-117108.1946963095
 31
0.0
  0
TEXT
  5
19577
  8
ér
 10
118065.4602253522
 20
-117051.66068656401
 30
0.0
 40
6.0
  1
B-
  7
òÂÄÜùp_BIGHONT
1001
ACAD
1000
MTEXTBEGIN
1070
    73
1070
     1
1070
    44
1040
1.0
1070
    74
1070
     0
1000
MTEXTEND
  0
TEXT
  5
19578
  8
ér
 10
118077.4602253522
 20
-117051.66068656401
 30
0.0
 40
6.0
  1
16üi0.9âVâèü[âYüj
  7
òÂÄÜùp_BIGHONT
1001
ACAD
1000
MTEXTBEGIN
1070
    73
1070
     1
1070
    44
1040
1.0
1070
    74
1070
     0
1000
MTEXTEND
  0
LINE
  5
19579
  8
0
  6
CONTINUOUS
 10
118102.55018473481
 20
-117092.19469630939
 30
0.0
 11
118073.4501847348
 21
-117092.1946963095
 31
0.0
  0
LINE
  5
1957A
  8
0
 10
118103.4501847347
 20
-117106.69469630939
 30
0.0
 11
118103.4501847348
 21
-117093.0946963094
 31
0.0
  0
ARC
  5
1957B
  8
0
 10
118102.55018473481
 20
-117093.0946963094
 30
0.0
 40
0.9
 50
359.99999999954082
 51
90.000000000201908
  0
LINE
  5
1957C
  8
0
  6
CONTINUOUS
 10
118102.5501847347
 20
-117107.5946963095
 30
0.0
 11
118091.2501847348
 21
-117107.59469630961
 31
0.0
  0
ARC
  5
1957D
  8
0
 10
118102.5501847347
 20
-117106.69469630939
 30
0.0
 40
0.9
 50
270.00000000052438
 51
359.9999999995473
  0
LINE
  5
1957E
  8
0
 10
118097.4501847348
 20
-117107.1946963095
 30
0.0
 11
118097.4501847348
 21
-117106.5946963094
 31
0.0
  0
LINE
  5
1957F
  8
0
  6
CONTINUOUS
 10
118142.8405657917
 20
-117115.8563586572
 30
0.0
 11
118157.3905657929
 21
-117141.0576979066
 31
0.0
  0
ARC
  5
19580
  8
0
 10
118142.4075530898
 20
-117116.1063586572
 30
0.0
 40
0.5
 50
30.000000002688481
 51
120.0000000027641
  0
LINE
  5
19581
  8
0
 10
118157.3905657929
 20
-117141.0576979066
 30
0.0
 11
118157.73697595439
 21
-117140.8576979066
 31
0.0
  0
LINE
  5
19582
  8
0
  6
CONTINUOUS
 10
118143.1869759532
 20
-117115.6563586572
 30
0.0
 11
118157.73697595439
 21
-117140.8576979066
 31
0.0
  0
ARC
  5
19583
  8
0
 10
118142.4075530898
 20
-117116.1063586573
 30
0.0
 40
0.9
 50
30.00000000273392
 51
120.0000000026776
  0
LINE
  5
19584
  8
0
 10
118130.3796075983
 20
-117122.4733459561
 30
0.0
 11
118142.1575530898
 21
-117115.67334595539
 31
0.0
  0
LINE
  5
19585
  8
0
 10
118130.1796075982
 20
-117122.1269357946
 30
0.0
 11
118141.9575530898
 21
-117115.3269357939
 31
0.0
  0
LINE
  5
19586
  8
0
 10
118132.74659489701
 20
-117127.5730882169
 30
0.0
 11
118133.26621013931
 21
-117127.2730882169
 31
0.0
  0
DIMENSION
  5
19587
  8
ér
  2
*D72
 10
118103.4501847348
 20
-117080.0686558906
 30
0.0
 11
118088.4501847348
 21
-117077.4436558906
 31
0.0
 70
     0
 13
118073.4501847348
 23
-117092.1946963095
 33
0.0
 14
118103.4501847348
 24
-117093.0946963094
 34
0.0
  0
DIMENSION
  5
1958A
  8
ér
  2
*D73
 10
118077.1623867094
 20
-117106.5946963094
 30
0.0
 11
118074.5373867094
 21
-117099.5946963095
 31
0.0
 70
     0
 13
118073.4501847348
 23
-117092.59469630961
 33
0.0
 14
118091.2501847348
 24
-117106.5946963094
 34
0.0
 50
90.0
  0
LINE
  5
1958D
  8
ér
 10
118135.3805694929
 20
-117134.1352660437
 30
0.0
 11
118134.98056949289
 21
-117133.44244572079
 31
0.0
  0
LINE
  5
1958E
  8
ér
 10
118136.07338981589
 20
-117133.7352660437
 30
0.0
 11
118135.3805694929
 21
-117134.1352660437
 31
0.0
  0
LINE
  5
1958F
  8
ér
 10
118120.40377457321
 20
-117108.1946963095
 30
0.0
 11
118120.1150994386
 21
-117108.1946963095
 31
0.0
  0
LINE
  5
19590
  8
ér
 10
118120.40377457321
 20
-117108.1946963095
 30
0.0
 11
118120.5481121405
 21
-117108.4446963095
 31
0.0
  0
DIMENSION
  5
19591
  8
ér
  2
*D74
 10
118129.4414693968
 20
-117137.5642070835
 30
0.0
 11
118124.2263886212
 21
-117123.28142221661
 31
0.0
 70
     1
 13
118120.40377457321
 23
-117108.1946963095
 33
0.0
 14
118135.3805694942
 24
-117134.135266043
 34
0.0
  0
LINE
  5
19594
  8
ér
 10
118090.4501847348
 20
-117107.39469630941
 30
0.0
 11
118090.4501847348
 21
-117108.1946963095
 31
0.0
  0
LINE
  5
19595
  8
ér
 10
118091.2501847348
 20
-117108.1946963095
 30
0.0
 11
118090.4501847348
 21
-117108.1946963095
 31
0.0
  0
DIMENSION
  5
19596
  8
ér
  2
*D75
 10
118120.40377457321
 20
-117115.22234016391
 30
0.0
 11
118105.426979654
 21
-117112.59734016391
 31
0.0
 70
     1
 13
118090.4501847348
 23
-117108.1946963095
 33
0.0
 14
118120.40377457321
 24
-117108.1946963095
 34
0.0
  0
DIMENSION
  5
19599
  8
ér
  2
*D76
 10
118173.0017001332
 20
-117132.0446052918
 30
0.0
 11
118167.7750168175
 21
-117117.7417242353
 31
0.0
 70
     1
 13
118142.7369759532
 23
-117114.8769357938
 33
0.0
 14
118157.73697595439
 24
-117140.8576979066
 34
0.0
  0
DIMENSION
  5
1959C
  8
ér
  2
*D77
 10
118155.5702816077
 20
-117137.90487321409
 30
0.0
 11
118148.195603781
 21
-117139.1315565297
 31
0.0
 70
     1
 13
118136.36621013891
 23
-117132.6424457207
 33
0.0
 14
118148.49056579221
 24
-117125.6424457197
 34
0.0
  0
DIMENSION
  5
1959F
  8
ér
  2
*D78
 10
118091.2501847348
 20
-117108.1946963095
 30
0.0
 11
118110.2669070925
 21
-117125.752265816
 31
0.0
 70
     2
  1
üª
 13
118120.5481121405
 23
-117108.44469630939
 33
0.0
 14
118134.98056949289
 24
-117133.44244572079
 34
0.0
 15
118120.1150994386
 25
-117108.19469630939
 35
0.0
 16
118102.8623259014
 26
-117122.91371942039
 36
0.0
1001
ACAD
1000
DSTYLE
1002
{
1070
   271
1070
     0
1002
}
  0
LINE
  5
1983D
  8
ér
 62
     8
 10
118424.93233718519
 20
-117124.03345856391
 30
0.0
 11
118423.2294023081
 21
-117126.9830282929
 31
0.0
  0
LINE
  5
1983E
  8
0
  6
CONTINUOUS
 10
118419.14776970151
 20
-117134.0526233456
 30
0.0
 11
118433.4822996476
 21
-117109.22448917619
 31
0.0
  0
ARC
  5
1983F
  8
0
  6
CONTINUOUS
 10
118433.3090945669
 20
-117109.1244891761
 30
0.0
 40
0.1999999999833351
 50
329.99999999993878
 51
149.99999999993881
  0
ARC
  5
19840
  8
0
  6
CONTINUOUS
 10
118433.3090945669
 20
-117109.1244891761
 30
0.0
 40
0.1999999999833351
 50
329.99999999993878
 51
149.99999999993881
  0
LINE
  5
19841
  8
0
  6
CONTINUOUS
 10
118419.6385174303
 20
-117134.4026233457
 30
0.0
 11
118434.0019148899
 21
-117109.5244891761
 31
0.0
  0
ARC
  5
19842
  8
0
 10
118433.3090945669
 20
-117109.1244891761
 30
0.0
 40
0.1999999999825377
 50
329.99999999993878
 51
149.99999999993881
  0
ARC
  5
19843
  8
0
 10
118433.3090945669
 20
-117109.1244891761
 30
0.0
 40
0.7999999999883585
 50
329.99999999993878
 51
149.99999999993881
  0
LINE
  5
19844
  8
0
  6
CONTINUOUS
 10
118429.5163117815
 20
-117114.0937816627
 30
0.0
 11
118432.6162742439
 21
-117108.72448917609
 31
0.0
  0
LINE
  5
19845
  8
0
  6
CONTINUOUS
 10
118427.48592702371
 20
-117118.81051122191
 30
0.0
 11
118433.13588948621
 21
-117109.0244891763
 31
0.0
  0
ARC
  5
19846
  8
0
 10
118390.13229964759
 20
-117134.0526233456
 30
0.0
 40
0.7999999999883585
 50
90.0
 51
270.0
  0
ARC
  5
19847
  8
0
 10
118390.13229964759
 20
-117134.0526233456
 30
0.0
 40
0.1999999999825377
 50
90.0
 51
270.0
  0
LINE
  5
19848
  8
0
  6
CONTINUOUS
 10
118418.8590945669
 20
-117134.85262334561
 30
0.0
 11
118390.13229964759
 21
-117134.85262334561
 31
0.0
  0
ARC
  5
19849
  8
0
  6
CONTINUOUS
 10
118418.8590945669
 20
-117133.9526233457
 30
0.0
 40
0.9
 50
270.0
 51
330.00000000005213
  0
ARC
  5
1984A
  8
0
  6
CONTINUOUS
 10
118390.13229964759
 20
-117134.0526233456
 30
0.0
 40
0.1999999999833351
 50
90.0
 51
270.0
  0
ARC
  5
1984B
  8
0
  6
CONTINUOUS
 10
118390.13229964759
 20
-117134.0526233456
 30
0.0
 40
0.1999999999833351
 50
90.0
 51
270.0
  0
LINE
  5
1984C
  8
0
  6
CONTINUOUS
 10
118418.8013595399
 20
-117134.2526233456
 30
0.0
 11
118390.13229964759
 21
-117134.2526233456
 31
0.0
  0
ARC
  5
1984D
  8
0
  6
CONTINUOUS
 10
118418.8013595399
 20
-117133.85262334561
 30
0.0
 40
0.4
 50
270.0
 51
330.0000000000764
  0
ARC
  5
1984E
  8
0
 10
118401.4322245724
 20
-117133.35262334561
 30
0.0
 40
0.9
 50
270.00000000017587
 51
0.0
  0
TEXT
  5
1984F
  8
ér
 10
118362.5571626038
 20
-117050.69831817479
 30
0.0
 40
6.0
  1
B-
  7
òÂÄÜùp_BIGHONT
1001
ACAD
1000
MTEXTBEGIN
1070
    73
1070
     1
1070
    44
1040
1.0
1070
    74
1070
     0
1000
MTEXTEND
  0
TEXT
  5
19850
  8
ér
 10
118376.2035488024
 20
-117050.69831817489
 30
0.0
 40
6.0
  1
17üi0.9âVâèü[âYüj
  7
òÂÄÜùp_BIGHONT
1001
ACAD
1000
MTEXTBEGIN
1070
    73
1070
     1
1070
    44
1040
1.0
1070
    74
1070
     0
1000
MTEXTEND
  0
LINE
  5
19851
  8
0
  6
CONTINUOUS
 10
118401.4322245724
 20
-117119.2581028006
 30
0.0
 11
118372.3322245725
 21
-117119.2581028007
 31
0.0
  0
LINE
  5
19852
  8
0
 10
118372.3322245724
 20
-117119.2581028006
 30
0.0
 11
118372.3322245724
 21
-117118.8581028007
 31
0.0
  0
LINE
  5
19853
  8
0
  6
CONTINUOUS
 10
118401.4322245724
 20
-117118.8581028006
 30
0.0
 11
118372.3322245725
 21
-117118.8581028007
 31
0.0
  0
LINE
  5
19854
  8
0
 10
118401.9322245724
 20
-117133.3581028006
 30
0.0
 11
118401.9322245724
 21
-117119.7581028006
 31
0.0
  0
ARC
  5
19855
  8
0
 10
118401.4322245724
 20
-117119.7581028006
 30
0.0
 40
0.5
 50
0.0
 51
90.000000000169351
  0
LINE
  5
19856
  8
0
 10
118402.3322245724
 20
-117133.35262334561
 30
0.0
 11
118402.3322245724
 21
-117119.7581028006
 31
0.0
  0
ARC
  5
19857
  8
0
 10
118401.4322245724
 20
-117119.7581028006
 30
0.0
 40
0.9
 50
0.0
 51
90.000000000198639
  0
LINE
  5
19858
  8
0
 10
118396.3322245725
 20
-117133.8581028006
 30
0.0
 11
118396.3322245725
 21
-117133.2581028006
 31
0.0
  0
LINE
  5
19859
  8
0
 10
118396.3322245725
 20
-117133.2581028006
 30
0.0
 11
118390.13229964759
 21
-117133.2526233456
 31
0.0
  0
LINE
  5
1985A
  8
0
 10
118396.3322245725
 20
-117133.8581028006
 30
0.0
 11
118390.13229964759
 21
-117133.85262334561
 31
0.0
  0
LINE
  5
1985B
  8
0
 10
118401.4322245724
 20
-117133.8581028006
 30
0.0
 11
118396.3322245725
 21
-117133.8581028007
 31
0.0
  0
ARC
  5
1985C
  8
0
 10
118401.4322245724
 20
-117133.3581028006
 30
0.0
 40
0.5
 50
270.00000000104222
 51
0.0
  0
LINE
  5
1985D
  8
0
  6
CONTINUOUS
 10
118414.50029131411
 20
-117111.3132509495
 30
0.0
 11
118429.05029131391
 21
-117086.11191169931
 31
0.0
  0
LINE
  5
1985E
  8
0
 10
118429.3967014755
 20
-117086.3119116993
 30
0.0
 11
118429.05029131399
 21
-117086.11191169931
 31
0.0
  0
LINE
  5
1985F
  8
0
  6
CONTINUOUS
 10
118414.8467014756
 20
-117111.5132509495
 30
0.0
 11
118429.3967014755
 21
-117086.31191169941
 31
0.0
  0
LINE
  5
19860
  8
0
 10
118430.0406723708
 20
-117114.3965213903
 30
0.0
 11
118429.5210571286
 21
-117114.09652139011
 31
0.0
  0
LINE
  5
19861
  8
0
 10
118426.6029143217
 20
-117119.33993408539
 30
0.0
 11
118414.8297141775
 21
-117112.5426738128
 31
0.0
  0
ARC
  5
19862
  8
0
 10
118415.27971417749
 20
-117111.7632509495
 30
0.0
 40
0.9
 50
150.00000000032969
 51
240.0000000001053
  0
ARC
  5
19863
  8
0
 10
118427.0529143218
 20
-117118.56051122199
 30
0.0
 40
0.9
 50
240.00000000011659
 51
329.99999999981492
  0
LINE
  5
19864
  8
0
 10
118426.8029143218
 20
-117118.9935239238
 30
0.0
 11
118415.02971417749
 21
-117112.19626365149
 31
0.0
  0
ARC
  5
19865
  8
0
 10
118427.0529143218
 20
-117118.5605112218
 30
0.0
 40
0.5
 50
240.00000000058671
 51
329.99999999942401
  0
ARC
  5
19866
  8
0
 10
118415.27971417749
 20
-117111.7632509496
 30
0.0
 40
0.5
 50
150.00000000023249
 51
240.00000000056411
  0
LINE
  5
19867
  8
ér
 10
118419.3787098092
 20
-117134.85262334561
 30
0.0
 11
118419.6385174303
 21
-117134.4026233457
 31
0.0
  0
LINE
  5
19868
  8
ér
 10
118419.3787098092
 20
-117134.85262334561
 30
0.0
 11
118418.8590945671
 21
-117134.85262334569
 31
0.0
  0
DIMENSION
  5
19869
  8
ér
  2
*D82
 10
118419.3787098092
 20
-117146.64881099849
 30
0.0
 11
118404.3555047284
 21
-117144.02381099849
 31
0.0
 70
     0
 13
118389.33229964761
 23
-117134.0526233456
 33
0.0
 14
118419.3787098092
 24
-117134.85262334561
 34
0.0
  0
LINE
  5
1986C
  8
ér
 10
118434.0019148899
 20
-117109.5244891761
 30
0.0
 11
118434.3473573411
 21
-117108.8001700376
 31
0.0
  0
LINE
  5
1986D
  8
ér
 10
118434.3473573411
 20
-117108.8001700376
 30
0.0
 11
118433.7090945669
 21
-117108.4316688531
 31
0.0
  0
DIMENSION
  5
1986E
  8
ér
  2
*D83
 10
118428.603377233
 20
-117140.1527305421
 30
0.0
 11
118433.8116374277
 21
-117125.8187731744
 31
0.0
 70
     1
 13
118434.3473573411
 23
-117108.8001700376
 33
0.0
 14
118419.3787098092
 24
-117134.85262334561
 34
0.0
  0
DIMENSION
  5
19871
  8
ér
  2
*D84
 10
118438.1639897959
 20
-117099.1155639738
 30
0.0
 11
118433.4166846429
 21
-117093.3436171526
 31
0.0
 70
     1
 13
118420.26353472131
 23
-117102.13102055179
 33
0.0
 14
118432.3831450272
 24
-117109.1282808242
 34
0.0
  0
DIMENSION
  5
19874
  8
ér
  2
*D85
 10
118420.6280227323
 20
-117081.24933864801
 30
0.0
 11
118410.8526500303
 21
-117092.9308502598
 31
0.0
 70
     1
 13
118414.04618535419
 23
-117112.0999244041
 33
0.0
 14
118429.050291315
 24
-117086.1119116998
 34
0.0
  0
DIMENSION
  5
19877
  8
ér
  2
*D86
 10
118402.3322245724
 20
-117109.66935836
 30
0.0
 11
118387.3322245724
 21
-117107.04435836
 31
0.0
 70
     1
 13
118372.3322245724
 23
-117118.8581028007
 33
0.0
 14
118402.3322245724
 24
-117118.8581028006
 34
0.0
  0
DIMENSION
  5
1987A
  8
ér
  2
*D87
 10
118376.6151784151
 20
-117119.2581028006
 30
0.0
 11
118373.9901784152
 21
-117126.2553630731
 31
0.0
 70
     1
 13
118390.13229964759
 23
-117133.2526233456
 33
0.0
 14
118390.13229964759
 24
-117119.2581028006
 34
0.0
  0
DIMENSION
  5
1987D
  8
ér
  2
*D81
 10
118390.13229964759
 20
-117134.2526233456
 30
0.0
 11
118411.8682841394
 21
-117121.8441844991
 31
0.0
 70
     2
  1
üª
 13
118419.14776970151
 23
-117134.0526233456
 33
0.0
 14
118433.4822996476
 24
-117109.22448917619
 34
0.0
 15
118418.8013595399
 25
-117134.2526233456
 35
0.0
 16
118417.0000896384
 26
-117122.7273876668
 36
0.0
1001
ACAD
1000
DSTYLE
1002
{
1070
   271
1070
     0
1002
}
  0
ENDSEC
  0
EOF
