  0
SECTION
  2
HEADER
  9
$ACADVER
  1
AC1009
  9
$INSBASE
 10
0.0
 20
0.0
 30
0.0
  9
$EXTMIN
 10
24.207403564523929
 20
306.19967825314922
 30
-0.0015258207003583
  9
$EXTMAX
 10
499.02602442835922
 20
529.25784432522232
 30
0.0000000349246037
  9
$LIMMIN
 10
0.0
 20
0.0
  9
$LIMMAX
 10
420.0
 20
594.0
  9
$ORTHOMODE
 70
     0
  9
$REGENMODE
 70
     1
  9
$FILLMODE
 70
     1
  9
$QTEXTMODE
 70
     0
  9
$MIRRTEXT
 70
     0
  9
$DRAGMODE
 70
     2
  9
$LTSCALE
 40
20.0
  9
$OSMODE
 70
   943
  9
$ATTMODE
 70
     1
  9
$TEXTSIZE
 40
3.0999999046325679
  9
$TRACEWID
 40
0.05
  9
$TEXTSTYLE
  7
STANDARD
  9
$CLAYER
  8
0
  9
$CELTYPE
  6
CONTINUOUS
  9
$CECOLOR
 62
   256
  9
$DIMSCALE
 40
1.0
  9
$DIMASZ
 40
1.0
  9
$DIMEXO
 40
0.8
  9
$DIMDLI
 40
0.38
  9
$DIMRND
 40
0.0
  9
$DIMDLE
 40
0.0
  9
$DIMEXE
 40
1.0
  9
$DIMTP
 40
0.0
  9
$DIMTM
 40
0.0
  9
$DIMTXT
 40
3.1000000000000001
  9
$DIMCEN
 40
0.09
  9
$DIMTSZ
 40
0.0
  9
$DIMTOL
 70
     0
  9
$DIMLIM
 70
     0
  9
$DIMTIH
 70
     0
  9
$DIMTOH
 70
     0
  9
$DIMSE1
 70
     0
  9
$DIMSE2
 70
     0
  9
$DIMTAD
 70
     1
  9
$DIMZIN
 70
     8
  9
$DIMBLK
  1
DOT
  9
$DIMASO
 70
     1
  9
$DIMSHO
 70
     1
  9
$DIMPOST
  1

  9
$DIMAPOST
  1

  9
$DIMALT
 70
     0
  9
$DIMALTD
 70
     2
  9
$DIMALTF
 40
25.399999999999999
  9
$DIMLFAC
 40
1.0
  9
$DIMTOFL
 70
     1
  9
$DIMTVP
 40
0.5
  9
$DIMTIX
 70
     0
  9
$DIMSOXD
 70
     0
  9
$DIMSAH
 70
     0
  9
$DIMBLK1
  1

  9
$DIMBLK2
  1

  9
$DIMSTYLE
  2
STANDARD
  9
$DIMCLRD
 70
     0
  9
$DIMCLRE
 70
     0
  9
$DIMCLRT
 70
     0
  9
$DIMTFAC
 40
1.0
  9
$DIMGAP
 40
0.09
  9
$LUNITS
 70
     2
  9
$LUPREC
 70
     4
  9
$SKETCHINC
 40
0.1
  9
$FILLETRAD
 40
0.0
  9
$AUNITS
 70
     0
  9
$AUPREC
 70
     0
  9
$MENU
  1
.
  9
$ELEVATION
 40
0.0
  9
$PELEVATION
 40
0.0
  9
$THICKNESS
 40
0.0
  9
$LIMCHECK
 70
     0
  9
$BLIPMODE
 70
     0
  9
$CHAMFERA
 40
0.0
  9
$CHAMFERB
 40
0.0
  9
$SKPOLY
 70
     0
  9
$TDCREATE
 40
2458037.667757384
  9
$TDUPDATE
 40
2458698.6923711109
  9
$TDINDWG
 40
0.0412681829
  9
$TDUSRTIMER
 40
0.0412681829
  9
$USRTIMER
 70
     1
  9
$ANGBASE
 50
0.0
  9
$ANGDIR
 70
     0
  9
$PDMODE
 70
     0
  9
$PDSIZE
 40
0.0
  9
$PLINEWID
 40
0.0
  9
$COORDS
 70
     2
  9
$SPLFRAME
 70
     0
  9
$SPLINETYPE
 70
     6
  9
$SPLINESEGS
 70
     8
  9
$ATTDIA
 70
     1
  9
$ATTREQ
 70
     1
  9
$HANDLING
 70
     1
  9
$HANDSEED
  5
DAA
  9
$SURFTAB1
 70
     6
  9
$SURFTAB2
 70
     6
  9
$SURFTYPE
 70
     6
  9
$SURFU
 70
     6
  9
$SURFV
 70
     6
  9
$UCSNAME
  2

  9
$UCSORG
 10
0.0
 20
0.0
 30
0.0
  9
$UCSXDIR
 10
1.0
 20
0.0
 30
0.0
  9
$UCSYDIR
 10
0.0
 20
1.0
 30
0.0
  9
$PUCSNAME
  2

  9
$PUCSORG
 10
0.0
 20
0.0
 30
0.0
  9
$PUCSXDIR
 10
1.0
 20
0.0
 30
0.0
  9
$PUCSYDIR
 10
0.0
 20
1.0
 30
0.0
  9
$USERI1
 70
     0
  9
$USERI2
 70
     0
  9
$USERI3
 70
     0
  9
$USERI4
 70
     0
  9
$USERI5
 70
     0
  9
$USERR1
 40
0.0
  9
$USERR2
 40
0.0
  9
$USERR3
 40
0.0
  9
$USERR4
 40
0.0
  9
$USERR5
 40
0.0
  9
$WORLDVIEW
 70
     1
  9
$SHADEDGE
 70
     3
  9
$SHADEDIF
 70
    70
  9
$TILEMODE
 70
     1
  9
$MAXACTVP
 70
    64
  9
$PLIMCHECK
 70
     0
  9
$PEXTMIN
 10
1.0000000000000000E+020
 20
1.0000000000000000E+020
 30
1.0000000000000000E+020
  9
$PEXTMAX
 10
-1.0000000000000000E+020
 20
-1.0000000000000000E+020
 30
-1.0000000000000000E+020
  9
$PLIMMIN
 10
0.0
 20
0.0
  9
$PLIMMAX
 10
12.0
 20
9.0
  9
$UNITMODE
 70
     0
  9
$VISRETAIN
 70
     1
  9
$PLINEGEN
 70
     0
  9
$PSLTSCALE
 70
     1
  0
ENDSEC
  0
SECTION
  2
TABLES
  0
TABLE
  2
VPORT
 70
     1
  0
VPORT
  2
*ACTIVE
 70
     0
 10
0.0
 20
0.0
 11
1.0
 21
1.0
 12
261.61671399644149
 22
417.72876128918568
 13
0.0
 23
0.0
 14
1.0
 24
1.0
 15
0.0
 25
0.0
 16
0.0
 26
0.0
 36
1.0
 17
0.0
 27
0.0
 37
0.0
 40
290.87487766803321
 41
1.6401564537157749
 42
50.0
 43
0.0
 44
0.0
 50
0.0
 51
0.0
 71
     0
 72
   100
 73
     1
 74
     1
 75
     0
 76
     0
 77
     0
 78
     0
  0
ENDTAB
  0
TABLE
  2
LTYPE
 70
     2
  0
LTYPE
  2
CONTINUOUS
 70
     0
  3

 72
    65
 73
     0
 40
0.0
  0
LTYPE
  2
実線
 70
     0
  3
Solid line (NEC CAE2D for Win R10.2 : 2010.10.26)
 72
    65
 73
     0
 40
0.0
  0
ENDTAB
  0
TABLE
  2
LAYER
 70
     6
  0
LAYER
  2
0
 70
     0
 62
     7
  6
CONTINUOUS
  0
LAYER
  2
DXF0
 70
     0
 62
     7
  6
CONTINUOUS
  0
LAYER
  2
MAWARIBUCHI
 70
     0
 62
     3
  6
CONTINUOUS
  0
LAYER
  2
SUNPO
 70
     0
 62
     6
  6
CONTINUOUS
  0
LAYER
  2
DXF1023
 70
     0
 62
     8
  6
CONTINUOUS
  0
LAYER
  2
DEFPOINTS
 70
     0
 62
     7
  6
CONTINUOUS
  0
ENDTAB
  0
TABLE
  2
STYLE
 70
     5
  0
STYLE
  2
STANDARD
 70
     0
 40
0.0
 41
1.0
 50
0.0
 71
     0
 42
3.0999999046325679
  3
TXT
  4

  0
STYLE
  2
ANKTATE
 70
     4
 40
0.0
 41
1.0
 50
0.0
 71
     0
 42
3.0999999046325679
  3
TXT
  4

  0
STYLE
  2
KNJYOKO
 70
     0
 40
0.0
 41
1.0
 50
0.0
 71
     0
 42
3.0999999046325679
  3
TXT
  4
BIGFONT
  0
STYLE
  2
KNJTATE
 70
     4
 40
0.0
 41
1.0
 50
0.0
 71
     0
 42
3.0999999046325679
  3
TXT
  4
BIGFONT
  0
ENDTAB
  0
TABLE
  2
VIEW
 70
     0
  0
ENDTAB
  0
TABLE
  2
UCS
 70
     0
  0
ENDTAB
  0
TABLE
  2
APPID
 70
     4
  0
APPID
  2
ACAD
 70
     0
  0
APPID
  2
ACAD_NAV_VCDISPLAY
 70
     0
  0
APPID
  2
ACAD_EXEMPT_FROM_CAD_STANDARDS
 70
     0
  0
APPID
  2
ACAD_MLEADERVER
 70
     0
  0
ENDTAB
  0
TABLE
  2
DIMSTYLE
 70
     3
  0
DIMSTYLE
  2
STANDARD
 70
     0
  3

  4

  5

  6

  7

 40
1.0
 41
1.0
 42
0.8
 43
0.38
 44
1.0
 45
0.0
 46
0.0
 47
0.0
 48
0.0
140
3.1000000000000001
141
0.09
142
0.0
143
25.399999999999999
144
1.0
145
0.66129
146
0.645161
147
0.09
 71
     0
 72
     0
 73
     1
 74
     1
 75
     0
 76
     0
 77
     0
 78
     0
170
     0
171
     2
172
     0
173
     0
174
     0
175
     0
176
     0
177
     0
178
     0
  0
DIMSTYLE
  2
DXF001
 70
     0
  3

  4

  5

  6

  7

 40
1.0
 41
1.0
 42
0.8
 43
0.38
 44
1.0
 45
0.0
 46
0.0
 47
0.0
 48
0.0
140
3.1000000000000001
141
0.09
142
0.0
143
25.399999999999999
144
1.0
145
0.66129
146
0.645161
147
0.09
 71
     0
 72
     0
 73
     0
 74
     0
 75
     0
 76
     0
 77
     1
 78
     8
170
     0
171
     2
172
     1
173
     0
174
     0
175
     0
176
     0
177
     0
178
     0
  0
ENDTAB
  0
ENDSEC
  0
SECTION
  2
BLOCKS
  0
BLOCK
  8
0
  2
$MODEL_SPACE
 70
     0
 10
0.0
 20
0.0
 30
0.0
  3
$MODEL_SPACE
  1

  0
ENDBLK
  5
694
  8
0
  0
BLOCK
 67
     1
  8
0
  2
$PAPER_SPACE
 70
     0
 10
0.0
 20
0.0
 30
0.0
  3
$PAPER_SPACE
  1

  0
ENDBLK
  5
696
 67
     1
  8
0
  0
BLOCK
  8
0
  2
_NONE
 70
     0
 10
0.0
 20
0.0
 30
0.0
  3
_NONE
  1

  0
ENDBLK
  5
3
  8
0
  0
BLOCK
  8
0
  2
_CLOSED
 70
     0
 10
0.0
 20
0.0
 30
0.0
  3
_CLOSED
  1

  0
LINE
  5
6
  8
0
  6
BYBLOCK
 62
     0
 10
-1.0
 20
0.166667
 30
0.0
 11
0.0
 21
0.0
 31
0.0
  0
LINE
  5
7
  8
0
  6
BYBLOCK
 62
     0
 10
0.0
 20
0.0
 30
0.0
 11
-1.0
 21
-0.166667
 31
0.0
  0
LINE
  5
8
  8
0
  6
BYBLOCK
 62
     0
 10
-1.0
 20
0.166667
 30
0.0
 11
-1.0
 21
-0.166667
 31
0.0
  0
LINE
  5
9
  8
0
  6
BYBLOCK
 62
     0
 10
0.0
 20
0.0
 30
0.0
 11
-1.0
 21
0.0
 31
0.0
  0
ENDBLK
  5
A
  8
0
  0
BLOCK
  8
0
  2
_DOT
 70
     0
 10
0.0
 20
0.0
 30
0.0
  3
_DOT
  1

  0
POLYLINE
  5
D
  8
0
  6
BYBLOCK
 62
     0
 66
     1
 10
0.0
 20
0.0
 30
0.0
 70
     1
 40
0.5
 41
0.5
  0
VERTEX
  5
E
  8
0
  6
BYBLOCK
 62
     0
 10
-0.25
 20
0.0
 30
0.0
 42
1.0
  0
VERTEX
  5
F
  8
0
  6
BYBLOCK
 62
     0
 10
0.25
 20
0.0
 30
0.0
 42
1.0
  0
SEQEND
  5
10
  8
0
  6
BYBLOCK
 62
     0
  0
LINE
  5
11
  8
0
  6
BYBLOCK
 62
     0
 10
-0.5
 20
0.0
 30
0.0
 11
-1.0
 21
0.0
 31
0.0
  0
ENDBLK
  5
12
  8
0
  0
BLOCK
  8
0
  2
_OPEN
 70
     0
 10
0.0
 20
0.0
 30
0.0
  3
_OPEN
  1

  0
LINE
  5
15
  8
0
  6
BYBLOCK
 62
     0
 10
-1.0
 20
0.166667
 30
0.0
 11
0.0
 21
0.0
 31
0.0
  0
LINE
  5
16
  8
0
  6
BYBLOCK
 62
     0
 10
0.0
 20
0.0
 30
0.0
 11
-1.0
 21
-0.166667
 31
0.0
  0
LINE
  5
17
  8
0
  6
BYBLOCK
 62
     0
 10
0.0
 20
0.0
 30
0.0
 11
-1.0
 21
0.0
 31
0.0
  0
ENDBLK
  5
18
  8
0
  0
BLOCK
  8
0
  2
_ORIGIN
 70
     0
 10
0.0
 20
0.0
 30
0.0
  3
_ORIGIN
  1

  0
CIRCLE
  5
1B
  8
0
  6
BYBLOCK
 62
     0
 10
0.0
 20
0.0
 30
0.0
 40
0.5
  0
LINE
  5
1C
  8
0
  6
BYBLOCK
 62
     0
 10
0.0
 20
0.0
 30
0.0
 11
-1.0
 21
0.0
 31
0.0
  0
ENDBLK
  5
1D
  8
0
  0
BLOCK
  8
0
  2
_OPEN30
 70
     0
 10
0.0
 20
0.0
 30
0.0
  3
_OPEN30
  1

  0
LINE
  5
20
  8
0
  6
BYBLOCK
 62
     0
 10
-1.0
 20
0.267949
 30
0.0
 11
0.0
 21
0.0
 31
0.0
  0
LINE
  5
21
  8
0
  6
BYBLOCK
 62
     0
 10
0.0
 20
0.0
 30
0.0
 11
-1.0
 21
-0.267949
 31
0.0
  0
LINE
  5
22
  8
0
  6
BYBLOCK
 62
     0
 10
0.0
 20
0.0
 30
0.0
 11
-1.0
 21
0.0
 31
0.0
  0
ENDBLK
  5
23
  8
0
  0
BLOCK
  8
0
  2
_BOXFILLED
 70
     0
 10
0.0
 20
0.0
 30
0.0
  3
_BOXFILLED
  1

  0
SOLID
  5
26
  8
0
  6
BYBLOCK
 62
     0
 10
-0.5
 20
0.5
 30
0.0
 11
0.5
 21
0.5
 31
0.0
 12
-0.5
 22
-0.5
 32
0.0
 13
0.5
 23
-0.5
 33
0.0
  0
LINE
  5
27
  8
0
  6
BYBLOCK
 62
     0
 10
-0.5
 20
0.0
 30
0.0
 11
-1.0
 21
0.0
 31
0.0
  0
ENDBLK
  5
28
  8
0
  0
BLOCK
  8
0
  2
_BOXBLANK
 70
     0
 10
0.0
 20
0.0
 30
0.0
  3
_BOXBLANK
  1

  0
LINE
  5
2B
  8
0
  6
BYBLOCK
 62
     0
 10
-0.5
 20
-0.5
 30
0.0
 11
0.5
 21
-0.5
 31
0.0
  0
LINE
  5
2C
  8
0
  6
BYBLOCK
 62
     0
 10
0.5
 20
-0.5
 30
0.0
 11
0.5
 21
0.5
 31
0.0
  0
LINE
  5
2D
  8
0
  6
BYBLOCK
 62
     0
 10
0.5
 20
0.5
 30
0.0
 11
-0.5
 21
0.5
 31
0.0
  0
LINE
  5
2E
  8
0
  6
BYBLOCK
 62
     0
 10
-0.5
 20
0.5
 30
0.0
 11
-0.5
 21
-0.5
 31
0.0
  0
LINE
  5
2F
  8
0
  6
BYBLOCK
 62
     0
 10
-0.5
 20
0.0
 30
0.0
 11
-1.0
 21
0.0
 31
0.0
  0
ENDBLK
  5
30
  8
0
  0
BLOCK
  8
0
  2
_OBLIQUE
 70
     0
 10
0.0
 20
0.0
 30
0.0
  3
_OBLIQUE
  1

  0
LINE
  5
33
  8
0
  6
BYBLOCK
 62
     0
 10
-0.5
 20
-0.5
 30
0.0
 11
0.5
 21
0.5
 31
0.0
  0
ENDBLK
  5
34
  8
0
  0
BLOCK
  8
0
  2
_OPEN90
 70
     0
 10
0.0
 20
0.0
 30
0.0
  3
_OPEN90
  1

  0
LINE
  5
37
  8
0
  6
BYBLOCK
 62
     0
 10
-0.5
 20
0.5
 30
0.0
 11
0.0
 21
0.0
 31
0.0
  0
LINE
  5
38
  8
0
  6
BYBLOCK
 62
     0
 10
0.0
 20
0.0
 30
0.0
 11
-0.5
 21
-0.5
 31
0.0
  0
LINE
  5
39
  8
0
  6
BYBLOCK
 62
     0
 10
0.0
 20
0.0
 30
0.0
 11
-1.0
 21
0.0
 31
0.0
  0
ENDBLK
  5
3A
  8
0
  0
BLOCK
  8
0
  2
_CLOSEDBLANK
 70
     0
 10
0.0
 20
0.0
 30
0.0
  3
_CLOSEDBLANK
  1

  0
LINE
  5
3D
  8
0
  6
BYBLOCK
 62
     0
 10
-1.0
 20
0.1666666666666666
 30
0.0
 11
0.0
 21
0.0
 31
0.0
  0
LINE
  5
3E
  8
0
  6
BYBLOCK
 62
     0
 10
0.0
 20
0.0
 30
0.0
 11
-1.0
 21
-0.1666666666666666
 31
0.0
  0
LINE
  5
3F
  8
0
  6
BYBLOCK
 62
     0
 10
-1.0
 20
0.1666666666666666
 30
0.0
 11
-1.0
 21
-0.1666666666666666
 31
0.0
  0
ENDBLK
  5
40
  8
0
  0
BLOCK
  8
0
  2
_DOTBLANK
 70
     0
 10
0.0
 20
0.0
 30
0.0
  3
_DOTBLANK
  1

  0
CIRCLE
  5
43
  8
0
  6
BYBLOCK
 62
     0
 10
0.0
 20
0.0
 30
0.0
 40
0.5
  0
LINE
  5
44
  8
0
  6
BYBLOCK
 62
     0
 10
-0.5
 20
0.0
 30
0.0
 11
-1.0
 21
0.0
 31
0.0
  0
ENDBLK
  5
45
  8
0
  0
BLOCK
  8
SUNPO
  6
CONTINUOUS
  2
*D13
 70
     1
 10
0.0
 20
0.0
 30
0.0
  3
*D13
  1

  0
LINE
  5
99B
  8
SUNPO
  6
CONTINUOUS
 62
     0
 10
187.3890654467676
 20
349.1219634535322
 30
0.0
 11
187.3890654467676
 21
334.70779087439411
 31
0.0
  0
LINE
  5
99C
  8
SUNPO
  6
CONTINUOUS
 62
     0
 10
217.88906544676689
 20
349.12196345353169
 30
0.0
 11
217.88906544676689
 21
334.70779087439411
 31
0.0
  0
LINE
  5
99D
  8
SUNPO
  6
CONTINUOUS
 62
     0
 10
188.3890654467676
 20
335.70779087439399
 30
0.0
 11
216.88906544676701
 21
335.70779087439399
 31
0.0
  0
INSERT
  5
99E
  8
SUNPO
  6
CONTINUOUS
 62
     0
  2
_DOT
 10
187.3890654467676
 20
335.70779087439399
 30
0.0
 50
180.0
  0
INSERT
  5
99F
  8
SUNPO
  6
CONTINUOUS
 62
     0
  2
_DOT
 10
217.88906544676689
 20
335.70779087439399
 30
0.0
  0
INSERT
  5
9A0
  8
0
  6
CONTINUOUS
  2
*U101
 10
0.0
 20
0.0
 30
0.0
  0
POINT
  5
9A1
  8
DEFPOINTS
  6
CONTINUOUS
 62
     0
 10
187.3890654467676
 20
349.92196345353221
 30
0.0
  0
POINT
  5
9A2
  8
DEFPOINTS
  6
CONTINUOUS
 62
     0
 10
217.88906544676689
 20
349.9219634535317
 30
0.0
  0
POINT
  5
9A3
  8
DEFPOINTS
  6
CONTINUOUS
 62
     0
 10
217.88906544676689
 20
335.70779087439399
 30
0.0
  0
ENDBLK
  5
3A9
  8
SUNPO
  6
CONTINUOUS
  0
BLOCK
  8
SUNPO
  6
CONTINUOUS
  2
*D14
 70
     1
 10
0.0
 20
0.0
 30
0.0
  3
*D14
  1

  0
LINE
  5
9A4
  8
SUNPO
  6
CONTINUOUS
 62
     0
 10
223.1890654467681
 20
354.4219634535329
 30
0.0
 11
232.4536231658291
 21
354.4219634535329
 31
0.0
  0
LINE
  5
9A5
  8
SUNPO
  6
CONTINUOUS
 62
     0
 10
223.1890654467679
 20
384.92196345353199
 30
0.0
 11
232.4536231658291
 21
384.92196345353199
 31
0.0
  0
LINE
  5
9A6
  8
SUNPO
  6
CONTINUOUS
 62
     0
 10
231.4536231658291
 20
355.4219634535329
 30
0.0
 11
231.4536231658291
 21
383.9219634535321
 31
0.0
  0
INSERT
  5
9A7
  8
SUNPO
  6
CONTINUOUS
 62
     0
  2
_DOT
 10
231.4536231658291
 20
354.4219634535329
 30
0.0
 50
270.0
  0
INSERT
  5
9A8
  8
SUNPO
  6
CONTINUOUS
 62
     0
  2
_DOT
 10
231.4536231658291
 20
384.92196345353199
 30
0.0
 50
90.0
  0
INSERT
  5
9A9
  8
0
  6
CONTINUOUS
  2
*U102
 10
0.0
 20
0.0
 30
0.0
  0
POINT
  5
9AA
  8
DEFPOINTS
  6
CONTINUOUS
 62
     0
 10
222.389065446768
 20
354.4219634535329
 30
0.0
  0
POINT
  5
9AB
  8
DEFPOINTS
  6
CONTINUOUS
 62
     0
 10
222.38906544676789
 20
384.92196345353199
 30
0.0
  0
POINT
  5
9AC
  8
DEFPOINTS
  6
CONTINUOUS
 62
     0
 10
231.4536231658291
 20
384.92196345353199
 30
0.0
  0
ENDBLK
  5
3B2
  8
SUNPO
  6
CONTINUOUS
  0
BLOCK
  8
SUNPO
  6
CONTINUOUS
  2
*D15
 70
     1
 10
0.0
 20
0.0
 30
0.0
  3
*D15
  1

  0
LINE
  5
9AD
  8
SUNPO
  6
CONTINUOUS
 62
     0
 10
186.58906544676759
 20
352.9219634535321
 30
0.0
 11
161.20098052443549
 21
352.9219634535321
 31
0.0
  0
LINE
  5
9AE
  8
SUNPO
  6
CONTINUOUS
 62
     0
 10
171.58906544676759
 20
366.92196340584871
 30
0.0
 11
161.20098052443549
 21
366.92196340584871
 31
0.0
  0
LINE
  5
9AF
  8
SUNPO
  6
CONTINUOUS
 62
     0
 10
162.20098052443549
 20
353.92196345353221
 30
0.0
 11
162.20098052443549
 21
365.92196340584871
 31
0.0
  0
INSERT
  5
9B0
  8
SUNPO
  6
CONTINUOUS
 62
     0
  2
_DOT
 10
162.20098052443549
 20
352.9219634535321
 30
0.0
 50
270.0
  0
INSERT
  5
9B1
  8
SUNPO
  6
CONTINUOUS
 62
     0
  2
_DOT
 10
162.20098052443549
 20
366.92196340584871
 30
0.0
 50
90.0
  0
INSERT
  5
9B2
  8
0
  6
CONTINUOUS
  2
*U103
 10
0.0
 20
0.0
 30
0.0
  0
POINT
  5
9B3
  8
DEFPOINTS
  6
CONTINUOUS
 62
     0
 10
187.3890654467676
 20
352.9219634535321
 30
0.0
  0
POINT
  5
9B4
  8
DEFPOINTS
  6
CONTINUOUS
 62
     0
 10
172.3890654467676
 20
366.92196340584871
 30
0.0
  0
POINT
  5
9B5
  8
DEFPOINTS
  6
CONTINUOUS
 62
     0
 10
162.20098052443549
 20
366.92196340584871
 30
0.0
  0
ENDBLK
  5
3BB
  8
SUNPO
  6
CONTINUOUS
  0
BLOCK
  8
SUNPO
  6
CONTINUOUS
  2
*D16
 70
     1
 10
0.0
 20
0.0
 30
0.0
  3
*D16
  1

  0
LINE
  5
C93
  8
SUNPO
  6
CONTINUOUS
 62
     0
 10
186.58906544676799
 20
349.92196345353221
 30
0.0
 11
161.20098052443541
 21
349.92196345353221
 31
0.0
  0
LINE
  5
C94
  8
SUNPO
  6
CONTINUOUS
 62
     0
 10
186.58906544676759
 20
352.9219634535321
 30
0.0
 11
161.20098052443541
 21
352.9219634535321
 31
0.0
  0
LINE
  5
C95
  8
SUNPO
  6
CONTINUOUS
 62
     0
 10
162.20098052443541
 20
353.92196345353221
 30
0.0
 11
162.20098052443541
 21
354.9219634535321
 31
0.0
  0
LINE
  5
C96
  8
SUNPO
  6
CONTINUOUS
 62
     0
 10
162.20098052443541
 20
348.9219634535321
 30
0.0
 11
162.20098052443541
 21
344.5634756067962
 31
0.0
  0
LINE
  5
C97
  8
SUNPO
  6
CONTINUOUS
 62
     0
 10
162.20098052443541
 20
352.9219634535321
 30
0.0
 11
162.20098052443541
 21
349.92196345353221
 31
0.0
  0
INSERT
  5
C98
  8
SUNPO
  6
CONTINUOUS
 62
     0
  2
_DOT
 10
162.20098052443541
 20
352.9219634535321
 30
0.0
 50
270.0
  0
INSERT
  5
C99
  8
SUNPO
  6
CONTINUOUS
 62
     0
  2
_DOT
 10
162.20098052443541
 20
349.92196345353221
 30
0.0
 50
90.0
  0
TEXT
  8
SUNPO
  40
3.1
  5
DA6
  62
0
  72
0
  71
0
 10
148.161
 20
338.743
 30
0.000000
  1
3
  0
POINT
  5
C9B
  8
DEFPOINTS
  6
CONTINUOUS
 62
     0
 10
187.389065446768
 20
349.92196345353221
 30
0.0
  0
POINT
  5
C9C
  8
DEFPOINTS
  6
CONTINUOUS
 62
     0
 10
187.3890654467676
 20
352.9219634535321
 30
0.0
  0
POINT
  5
C9D
  8
DEFPOINTS
  6
CONTINUOUS
 62
     0
 10
162.20098052443541
 20
352.9219634535321
 30
0.0
  0
ENDBLK
  5
3C6
  8
SUNPO
  6
CONTINUOUS
  0
BLOCK
  8
SUNPO
  6
CONTINUOUS
  2
*D17
 70
     1
 10
0.0
 20
0.0
 30
0.0
  3
*D17
  1

  0
LINE
  5
9C1
  8
SUNPO
  6
CONTINUOUS
 62
     0
 10
172.3890654467676
 20
368.9219634535325
 30
0.0
 11
172.3890654467676
 21
378.32012520447699
 31
0.0
  0
LINE
  5
9C2
  8
SUNPO
  6
CONTINUOUS
 62
     0
 10
202.3890654467676
 20
368.9219634535325
 30
0.0
 11
202.3890654467676
 21
378.32012520447699
 31
0.0
  0
LINE
  5
9C3
  8
SUNPO
  6
CONTINUOUS
 62
     0
 10
173.3890654467676
 20
377.32012520447711
 30
0.0
 11
201.3890654467676
 21
377.32012520447711
 31
0.0
  0
INSERT
  5
9C4
  8
SUNPO
  6
CONTINUOUS
 62
     0
  2
_DOT
 10
172.3890654467676
 20
377.32012520447711
 30
0.0
 50
180.0
  0
INSERT
  5
9C5
  8
SUNPO
  6
CONTINUOUS
 62
     0
  2
_DOT
 10
202.3890654467676
 20
377.32012520447711
 30
0.0
  0
INSERT
  5
9C6
  8
0
  6
CONTINUOUS
  2
*U104
 10
0.0
 20
0.0
 30
0.0
  0
POINT
  5
9C7
  8
DEFPOINTS
  6
CONTINUOUS
 62
     0
 10
172.3890654467676
 20
368.12196345353249
 30
0.0
  0
POINT
  5
9C8
  8
DEFPOINTS
  6
CONTINUOUS
 62
     0
 10
202.3890654467676
 20
368.12196345353249
 30
0.0
  0
POINT
  5
9C9
  8
DEFPOINTS
  6
CONTINUOUS
 62
     0
 10
202.3890654467676
 20
377.32012520447711
 30
0.0
  0
ENDBLK
  5
3CF
  8
SUNPO
  6
CONTINUOUS
  0
BLOCK
  8
SUNPO
  6
CONTINUOUS
  2
*D18
 70
     1
 10
0.0
 20
0.0
 30
0.0
  3
*D18
  1

  0
LINE
  5
9DE
  8
SUNPO
  6
CONTINUOUS
 62
     0
 10
298.76167235936242
 20
338.91212936227362
 30
0.0
 11
286.05311488601689
 21
338.91212936227362
 31
0.0
  0
LINE
  5
9DF
  8
SUNPO
  6
CONTINUOUS
 62
     0
 10
298.76167235936208
 20
368.91212936227362
 30
0.0
 11
286.05311488601689
 21
368.91212936227362
 31
0.0
  0
LINE
  5
9E0
  8
SUNPO
  6
CONTINUOUS
 62
     0
 10
287.053114886017
 20
339.91212936227362
 30
0.0
 11
287.053114886017
 21
367.91212936227362
 31
0.0
  0
INSERT
  5
9E1
  8
SUNPO
  6
CONTINUOUS
 62
     0
  2
_DOT
 10
287.053114886017
 20
338.91212936227362
 30
0.0
 50
270.0
  0
INSERT
  5
9E2
  8
SUNPO
  6
CONTINUOUS
 62
     0
  2
_DOT
 10
287.053114886017
 20
368.91212936227362
 30
0.0
 50
90.0
  0
INSERT
  5
9E3
  8
0
  6
CONTINUOUS
  2
*U106
 10
0.0
 20
0.0
 30
0.0
  0
POINT
  5
9E4
  8
DEFPOINTS
  6
CONTINUOUS
 62
     0
 10
299.56167235936238
 20
338.91212936227362
 30
0.0
  0
POINT
  5
9E5
  8
DEFPOINTS
  6
CONTINUOUS
 62
     0
 10
299.56167235936221
 20
368.91212936227362
 30
0.0
  0
POINT
  5
9E6
  8
DEFPOINTS
  6
CONTINUOUS
 62
     0
 10
287.053114886017
 20
368.91212936227362
 30
0.0
  0
ENDBLK
  5
3D8
  8
SUNPO
  6
CONTINUOUS
  0
BLOCK
  8
SUNPO
  6
CONTINUOUS
  2
*D19
 70
     1
 10
0.0
 20
0.0
 30
0.0
  3
*D19
  1

  0
LINE
  5
9E7
  8
SUNPO
  6
CONTINUOUS
 62
     0
 10
317.7616723593618
 20
353.11212936227361
 30
0.0
 11
317.7616723593618
 21
328.96087957188632
 31
0.0
  0
LINE
  5
9E8
  8
SUNPO
  6
CONTINUOUS
 62
     0
 10
337.76167235936219
 20
373.11212936227361
 30
0.0
 11
337.76167235936219
 21
328.96087957188632
 31
0.0
  0
LINE
  5
9E9
  8
SUNPO
  6
CONTINUOUS
 62
     0
 10
318.7616723593618
 20
329.96087957188632
 30
0.0
 11
336.76167235936208
 21
329.96087957188632
 31
0.0
  0
INSERT
  5
9EA
  8
SUNPO
  6
CONTINUOUS
 62
     0
  2
_DOT
 10
317.7616723593618
 20
329.96087957188632
 30
0.0
 50
180.0
  0
INSERT
  5
9EB
  8
SUNPO
  6
CONTINUOUS
 62
     0
  2
_DOT
 10
337.76167235936219
 20
329.96087957188632
 30
0.0
  0
INSERT
  5
9EC
  8
0
  6
CONTINUOUS
  2
*U107
 10
0.0
 20
0.0
 30
0.0
  0
POINT
  5
9ED
  8
DEFPOINTS
  6
CONTINUOUS
 62
     0
 10
317.7616723593618
 20
353.91212936227362
 30
0.0
  0
POINT
  5
9EE
  8
DEFPOINTS
  6
CONTINUOUS
 62
     0
 10
337.76167235936219
 20
373.91212936227362
 30
0.0
  0
POINT
  5
9EF
  8
DEFPOINTS
  6
CONTINUOUS
 62
     0
 10
337.76167235936219
 20
329.96087957188632
 30
0.0
  0
ENDBLK
  5
3E1
  8
SUNPO
  6
CONTINUOUS
  0
BLOCK
  8
SUNPO
  6
CONTINUOUS
  2
*D20
 70
     1
 10
0.0
 20
0.0
 30
0.0
  3
*D20
  1

  0
LINE
  5
C9E
  8
SUNPO
  6
CONTINUOUS
 62
     0
 10
314.76167235936219
 20
353.11212936227361
 30
0.0
 11
314.76167235936219
 21
328.96087957188632
 31
0.0
  0
LINE
  5
C9F
  8
SUNPO
  6
CONTINUOUS
 62
     0
 10
317.7616723593618
 20
353.11212936227361
 30
0.0
 11
317.7616723593618
 21
328.96087957188632
 31
0.0
  0
LINE
  5
CA0
  8
SUNPO
  6
CONTINUOUS
 62
     0
 10
313.76167235936231
 20
329.96087957188632
 30
0.0
 11
312.76167235936219
 21
329.96087957188632
 31
0.0
  0
LINE
  5
CA1
  8
SUNPO
  6
CONTINUOUS
 62
     0
 10
318.7616723593618
 20
329.96087957188632
 30
0.0
 11
324.52644403352667
 21
329.96087957188632
 31
0.0
  0
LINE
  5
CA2
  8
SUNPO
  6
CONTINUOUS
 62
     0
 10
314.76167235936219
 20
329.96087957188632
 30
0.0
 11
317.7616723593618
 21
329.96087957188632
 31
0.0
  0
INSERT
  5
CA3
  8
SUNPO
  6
CONTINUOUS
 62
     0
  2
_DOT
 10
314.76167235936219
 20
329.96087957188632
 30
0.0
  0
INSERT
  5
CA4
  8
SUNPO
  6
CONTINUOUS
 62
     0
  2
_DOT
 10
317.7616723593618
 20
329.96087957188632
 30
0.0
 50
180.0
  0
TEXT
  8
SUNPO
  40
3.1
  5
DA7
  62
0
  72
0
  71
0
 10
311.003
 20
324.657
 30
0.000000
  1
3
  0
POINT
  5
CA6
  8
DEFPOINTS
  6
CONTINUOUS
 62
     0
 10
314.76167235936219
 20
353.91212936227362
 30
0.0
  0
POINT
  5
CA7
  8
DEFPOINTS
  6
CONTINUOUS
 62
     0
 10
317.7616723593618
 20
353.91212936227362
 30
0.0
  0
POINT
  5
CA8
  8
DEFPOINTS
  6
CONTINUOUS
 62
     0
 10
317.7616723593618
 20
329.96087957188632
 30
0.0
  0
ENDBLK
  5
3EC
  8
SUNPO
  6
CONTINUOUS
  0
BLOCK
  8
SUNPO
  6
CONTINUOUS
  2
*D21
 70
     1
 10
0.0
 20
0.0
 30
0.0
  3
*D21
  1

  0
LINE
  5
9FB
  8
SUNPO
  6
CONTINUOUS
 62
     0
 10
300.76167240704558
 20
338.11212936227361
 30
0.0
 11
300.76167240704558
 21
328.96087957188632
 31
0.0
  0
LINE
  5
9FC
  8
SUNPO
  6
CONTINUOUS
 62
     0
 10
314.76167235936219
 20
353.11212936227361
 30
0.0
 11
314.76167235936219
 21
328.96087957188632
 31
0.0
  0
LINE
  5
9FD
  8
SUNPO
  6
CONTINUOUS
 62
     0
 10
301.76167240704558
 20
329.96087957188632
 30
0.0
 11
313.76167235936231
 21
329.96087957188632
 31
0.0
  0
INSERT
  5
9FE
  8
SUNPO
  6
CONTINUOUS
 62
     0
  2
_DOT
 10
300.76167240704558
 20
329.96087957188632
 30
0.0
 50
180.0
  0
INSERT
  5
9FF
  8
SUNPO
  6
CONTINUOUS
 62
     0
  2
_DOT
 10
314.76167235936219
 20
329.96087957188632
 30
0.0
  0
INSERT
  5
A00
  8
0
  6
CONTINUOUS
  2
*U108
 10
0.0
 20
0.0
 30
0.0
  0
POINT
  5
A01
  8
DEFPOINTS
  6
CONTINUOUS
 62
     0
 10
300.76167240704558
 20
338.91212936227362
 30
0.0
  0
POINT
  5
A02
  8
DEFPOINTS
  6
CONTINUOUS
 62
     0
 10
314.76167235936219
 20
353.91212936227362
 30
0.0
  0
POINT
  5
A03
  8
DEFPOINTS
  6
CONTINUOUS
 62
     0
 10
314.76167235936219
 20
329.96087957188632
 30
0.0
  0
ENDBLK
  5
3F5
  8
SUNPO
  6
CONTINUOUS
  0
BLOCK
  8
SUNPO
  6
CONTINUOUS
  2
*D22
 70
     1
 10
0.0
 20
0.0
 30
0.0
  3
*D22
  1

  0
LINE
  5
A04
  8
SUNPO
  6
CONTINUOUS
 62
     0
 10
322.76167235936242
 20
392.91212936227379
 30
0.0
 11
322.76167235936242
 21
407.61184347073441
 31
0.0
  0
LINE
  5
A05
  8
SUNPO
  6
CONTINUOUS
 62
     0
 10
352.76167235936202
 20
392.91212936227379
 30
0.0
 11
352.76167235936202
 21
407.61184347073441
 31
0.0
  0
LINE
  5
A06
  8
SUNPO
  6
CONTINUOUS
 62
     0
 10
323.76167235936242
 20
406.61184347073453
 30
0.0
 11
351.76167235936191
 21
406.61184347073453
 31
0.0
  0
INSERT
  5
A07
  8
SUNPO
  6
CONTINUOUS
 62
     0
  2
_DOT
 10
322.76167235936242
 20
406.61184347073453
 30
0.0
 50
180.0
  0
INSERT
  5
A08
  8
SUNPO
  6
CONTINUOUS
 62
     0
  2
_DOT
 10
352.76167235936202
 20
406.61184347073453
 30
0.0
  0
INSERT
  5
A09
  8
0
  6
CONTINUOUS
  2
*U109
 10
0.0
 20
0.0
 30
0.0
  0
POINT
  5
A0A
  8
DEFPOINTS
  6
CONTINUOUS
 62
     0
 10
322.76167235936242
 20
392.11212936227378
 30
0.0
  0
POINT
  5
A0B
  8
DEFPOINTS
  6
CONTINUOUS
 62
     0
 10
352.76167235936202
 20
392.11212936227378
 30
0.0
  0
POINT
  5
A0C
  8
DEFPOINTS
  6
CONTINUOUS
 62
     0
 10
352.76167235936202
 20
406.61184347073453
 30
0.0
  0
ENDBLK
  5
3FE
  8
SUNPO
  6
CONTINUOUS
  0
BLOCK
  8
SUNPO
  6
CONTINUOUS
  2
*D23
 70
     1
 10
0.0
 20
0.0
 30
0.0
  3
*D23
  1

  0
LINE
  5
A0D
  8
SUNPO
  6
CONTINUOUS
 62
     0
 10
338.56167235936198
 20
376.9121293622735
 30
0.0
 11
361.33057949296102
 21
376.9121293622735
 31
0.0
  0
LINE
  5
A0E
  8
SUNPO
  6
CONTINUOUS
 62
     0
 10
353.56167235936221
 20
390.91212931459
 30
0.0
 11
361.33057949296108
 21
390.91212931459
 31
0.0
  0
LINE
  5
A0F
  8
SUNPO
  6
CONTINUOUS
 62
     0
 10
360.33057949296102
 20
377.91212936227339
 30
0.0
 11
360.33057949296108
 21
389.91212931459
 31
0.0
  0
INSERT
  5
A10
  8
SUNPO
  6
CONTINUOUS
 62
     0
  2
_DOT
 10
360.33057949296102
 20
376.9121293622735
 30
0.0
 50
270.0
  0
INSERT
  5
A11
  8
SUNPO
  6
CONTINUOUS
 62
     0
  2
_DOT
 10
360.33057949296108
 20
390.91212931459
 30
0.0
 50
90.0
  0
INSERT
  5
A12
  8
0
  6
CONTINUOUS
  2
*U110
 10
0.0
 20
0.0
 30
0.0
  0
POINT
  5
A13
  8
DEFPOINTS
  6
CONTINUOUS
 62
     0
 10
337.76167235936202
 20
376.9121293622735
 30
0.0
  0
POINT
  5
A14
  8
DEFPOINTS
  6
CONTINUOUS
 62
     0
 10
352.76167235936208
 20
390.91212931459
 30
0.0
  0
POINT
  5
A15
  8
DEFPOINTS
  6
CONTINUOUS
 62
     0
 10
360.33057949296108
 20
390.91212931459
 30
0.0
  0
ENDBLK
  5
407
  8
SUNPO
  6
CONTINUOUS
  0
BLOCK
  8
SUNPO
  6
CONTINUOUS
  2
*D24
 70
     1
 10
0.0
 20
0.0
 30
0.0
  3
*D24
  1

  0
LINE
  5
CA9
  8
SUNPO
  6
CONTINUOUS
 62
     0
 10
338.56167235936198
 20
373.91212936227362
 30
0.0
 11
361.33057949296102
 21
373.91212936227362
 31
0.0
  0
LINE
  5
CAA
  8
SUNPO
  6
CONTINUOUS
 62
     0
 10
338.56167235936198
 20
376.9121293622735
 30
0.0
 11
361.33057949296102
 21
376.9121293622735
 31
0.0
  0
LINE
  5
CAB
  8
SUNPO
  6
CONTINUOUS
 62
     0
 10
360.33057949296102
 20
377.91212936227339
 30
0.0
 11
360.33057949296102
 21
378.9121293622735
 31
0.0
  0
LINE
  5
CAC
  8
SUNPO
  6
CONTINUOUS
 62
     0
 10
360.33057949296102
 20
372.91212936227362
 30
0.0
 11
360.33057949296102
 21
369.16499588890161
 31
0.0
  0
LINE
  5
CAD
  8
SUNPO
  6
CONTINUOUS
 62
     0
 10
360.33057949296102
 20
376.9121293622735
 30
0.0
 11
360.33057949296102
 21
373.91212936227362
 31
0.0
  0
INSERT
  5
CAE
  8
SUNPO
  6
CONTINUOUS
 62
     0
  2
_DOT
 10
360.33057949296102
 20
376.9121293622735
 30
0.0
 50
270.0
  0
INSERT
  5
CAF
  8
SUNPO
  6
CONTINUOUS
 62
     0
  2
_DOT
 10
360.33057949296102
 20
373.91212936227362
 30
0.0
 50
90.0
  0
TEXT
  8
SUNPO
  40
3.1
  5
DA8
  62
0
  72
0
  71
0
 10
346.291
 20
363.344
 30
0.000000
  1
3
  0
POINT
  5
CB1
  8
DEFPOINTS
  6
CONTINUOUS
 62
     0
 10
337.76167235936202
 20
373.91212936227362
 30
0.0
  0
POINT
  5
CB2
  8
DEFPOINTS
  6
CONTINUOUS
 62
     0
 10
337.76167235936202
 20
376.9121293622735
 30
0.0
  0
POINT
  5
CB3
  8
DEFPOINTS
  6
CONTINUOUS
 62
     0
 10
360.33057949296102
 20
376.9121293622735
 30
0.0
  0
ENDBLK
  5
412
  8
SUNPO
  6
CONTINUOUS
  0
BLOCK
  8
SUNPO
  6
CONTINUOUS
  2
*D25
 70
     1
 10
0.0
 20
0.0
 30
0.0
  3
*D25
  1

  0
LINE
  5
A21
  8
SUNPO
  6
CONTINUOUS
 62
     0
 10
318.56167235936169
 20
353.91212936227339
 30
0.0
 11
361.33057949296102
 21
353.91212936227339
 31
0.0
  0
LINE
  5
A22
  8
SUNPO
  6
CONTINUOUS
 62
     0
 10
338.56167235936198
 20
373.91212936227362
 30
0.0
 11
361.33057949296102
 21
373.91212936227362
 31
0.0
  0
LINE
  5
A23
  8
SUNPO
  6
CONTINUOUS
 62
     0
 10
360.33057949296102
 20
354.91212936227339
 30
0.0
 11
360.33057949296102
 21
372.91212936227362
 31
0.0
  0
INSERT
  5
A24
  8
SUNPO
  6
CONTINUOUS
 62
     0
  2
_DOT
 10
360.33057949296102
 20
353.91212936227339
 30
0.0
 50
270.0
  0
INSERT
  5
A25
  8
SUNPO
  6
CONTINUOUS
 62
     0
  2
_DOT
 10
360.33057949296102
 20
373.91212936227362
 30
0.0
 50
90.0
  0
INSERT
  5
A26
  8
0
  6
CONTINUOUS
  2
*U111
 10
0.0
 20
0.0
 30
0.0
  0
POINT
  5
A27
  8
DEFPOINTS
  6
CONTINUOUS
 62
     0
 10
317.76167235936168
 20
353.91212936227339
 30
0.0
  0
POINT
  5
A28
  8
DEFPOINTS
  6
CONTINUOUS
 62
     0
 10
337.76167235936202
 20
373.91212936227362
 30
0.0
  0
POINT
  5
A29
  8
DEFPOINTS
  6
CONTINUOUS
 62
     0
 10
360.33057949296102
 20
373.91212936227362
 30
0.0
  0
ENDBLK
  5
41B
  8
SUNPO
  6
CONTINUOUS
  0
BLOCK
  8
SUNPO
  6
CONTINUOUS
  2
*D26
 70
     1
 10
0.0
 20
0.0
 30
0.0
  3
*D26
  1

  0
LINE
  5
CB4
  8
SUNPO
  6
CONTINUOUS
 62
     0
 10
219.38906544676809
 20
385.72196345353223
 30
0.0
 11
219.38906544676809
 21
412.06488514088659
 31
0.0
  0
LINE
  5
CB5
  8
SUNPO
  6
CONTINUOUS
 62
     0
 10
222.389065446768
 20
385.72196345353223
 30
0.0
 11
222.389065446768
 21
412.06488514088659
 31
0.0
  0
LINE
  5
CB6
  8
SUNPO
  6
CONTINUOUS
 62
     0
 10
218.38906544676809
 20
411.06488514088659
 30
0.0
 11
217.38906544676809
 21
411.06488514088659
 31
0.0
  0
LINE
  5
CB7
  8
SUNPO
  6
CONTINUOUS
 62
     0
 10
223.38906544676809
 20
411.06488514088659
 30
0.0
 11
227.71091053917499
 21
411.06488514088659
 31
0.0
  0
LINE
  5
CB8
  8
SUNPO
  6
CONTINUOUS
 62
     0
 10
219.38906544676809
 20
411.06488514088659
 30
0.0
 11
222.389065446768
 21
411.06488514088659
 31
0.0
  0
INSERT
  5
CB9
  8
SUNPO
  6
CONTINUOUS
 62
     0
  2
_DOT
 10
219.38906544676809
 20
411.06488514088659
 30
0.0
  0
INSERT
  5
CBA
  8
SUNPO
  6
CONTINUOUS
 62
     0
  2
_DOT
 10
222.389065446768
 20
411.06488514088659
 30
0.0
 50
180.0
  0
TEXT
  8
SUNPO
  40
3.1
  5
DA9
  62
0
  72
0
  71
0
 10
214.188
 20
405.761
 30
0.000000
  1
3
  0
POINT
  5
CBC
  8
DEFPOINTS
  6
CONTINUOUS
 62
     0
 10
219.38906544676809
 20
384.92196345353221
 30
0.0
  0
POINT
  5
CBD
  8
DEFPOINTS
  6
CONTINUOUS
 62
     0
 10
222.389065446768
 20
384.92196345353221
 30
0.0
  0
POINT
  5
CBE
  8
DEFPOINTS
  6
CONTINUOUS
 62
     0
 10
222.389065446768
 20
411.06488514088659
 30
0.0
  0
ENDBLK
  5
426
  8
SUNPO
  6
CONTINUOUS
  0
BLOCK
  8
SUNPO
  6
CONTINUOUS
  2
*D27
 70
     1
 10
0.0
 20
0.0
 30
0.0
  3
*D27
  1

  0
LINE
  5
9D5
  8
SUNPO
  6
CONTINUOUS
 62
     0
 10
219.38906544676809
 20
385.72196345353223
 30
0.0
 11
219.38906544676809
 21
412.0648851408863
 31
0.0
  0
LINE
  5
9D6
  8
SUNPO
  6
CONTINUOUS
 62
     0
 10
205.38906549445139
 20
400.72196345353228
 30
0.0
 11
205.38906549445139
 21
412.0648851408863
 31
0.0
  0
LINE
  5
9D7
  8
SUNPO
  6
CONTINUOUS
 62
     0
 10
218.38906544676809
 20
411.06488514088619
 30
0.0
 11
206.38906549445139
 21
411.06488514088619
 31
0.0
  0
INSERT
  5
9D8
  8
SUNPO
  6
CONTINUOUS
 62
     0
  2
_DOT
 10
219.38906544676809
 20
411.06488514088619
 30
0.0
  0
INSERT
  5
9D9
  8
SUNPO
  6
CONTINUOUS
 62
     0
  2
_DOT
 10
205.38906549445139
 20
411.06488514088619
 30
0.0
 50
180.0
  0
INSERT
  5
9DA
  8
0
  6
CONTINUOUS
  2
*U105
 10
0.0
 20
0.0
 30
0.0
  0
POINT
  5
9DB
  8
DEFPOINTS
  6
CONTINUOUS
 62
     0
 10
219.38906544676809
 20
384.92196345353221
 30
0.0
  0
POINT
  5
9DC
  8
DEFPOINTS
  6
CONTINUOUS
 62
     0
 10
205.38906549445139
 20
399.92196345353233
 30
0.0
  0
POINT
  5
9DD
  8
DEFPOINTS
  6
CONTINUOUS
 62
     0
 10
205.38906549445139
 20
411.06488514088619
 30
0.0
  0
ENDBLK
  5
42F
  8
SUNPO
  6
CONTINUOUS
  0
BLOCK
  8
SUNPO
  6
CONTINUOUS
  2
*D28
 70
     1
 10
0.0
 20
0.0
 30
0.0
  3
*D28
  1

  0
LINE
  5
8D0
  8
SUNPO
  6
CONTINUOUS
 62
     0
 10
491.720667492568
 20
126.42204676230629
 30
0.0
 11
509.02269877875381
 21
126.42204676230629
 31
0.0
  0
LINE
  5
8D1
  8
SUNPO
  6
CONTINUOUS
 62
     0
 10
501.72066749256811
 20
140.42204676230619
 30
0.0
 11
509.02269877875381
 21
140.42204676230619
 31
0.0
  0
LINE
  5
8D2
  8
SUNPO
  6
CONTINUOUS
 62
     0
 10
508.02269877875381
 20
127.42204676230629
 30
0.0
 11
508.02269877875381
 21
139.42204676230619
 31
0.0
  0
INSERT
  5
8D3
  8
SUNPO
  6
CONTINUOUS
 62
     0
  2
_DOT
 10
508.02269877875381
 20
126.42204676230629
 30
0.0
 50
270.0
  0
INSERT
  5
8D4
  8
SUNPO
  6
CONTINUOUS
 62
     0
  2
_DOT
 10
508.02269877875381
 20
140.42204676230619
 30
0.0
 50
90.0
  0
INSERT
  5
8D5
  8
0
  6
CONTINUOUS
  2
*U97
 10
0.0
 20
0.0
 30
0.0
  0
POINT
  5
8D6
  8
DEFPOINTS
  6
CONTINUOUS
 62
     0
 10
490.9206674925681
 20
126.42204676230629
 30
0.0
  0
POINT
  5
8D7
  8
DEFPOINTS
  6
CONTINUOUS
 62
     0
 10
500.9206674925681
 20
140.42204676230619
 30
0.0
  0
POINT
  5
8D8
  8
DEFPOINTS
  6
CONTINUOUS
 62
     0
 10
508.02269877875381
 20
140.42204676230619
 30
0.0
  0
ENDBLK
  5
624
  8
SUNPO
  6
CONTINUOUS
  0
BLOCK
  8
SUNPO
  6
CONTINUOUS
  2
*D29
 70
     1
 10
0.0
 20
0.0
 30
0.0
  3
*D29
  1

  0
LINE
  5
8D9
  8
SUNPO
  6
CONTINUOUS
 62
     0
 10
491.720667492568
 20
121.42204676230629
 30
0.0
 11
509.02269877875381
 21
121.42204676230629
 31
0.0
  0
LINE
  5
8DA
  8
SUNPO
  6
CONTINUOUS
 62
     0
 10
491.720667492568
 20
126.42204676230629
 30
0.0
 11
509.02269877875381
 21
126.42204676230629
 31
0.0
  0
LINE
  5
8DB
  8
SUNPO
  6
CONTINUOUS
 62
     0
 10
508.02269877875381
 20
122.42204676230629
 30
0.0
 11
508.02269877875381
 21
125.42204676230629
 31
0.0
  0
INSERT
  5
8DC
  8
SUNPO
  6
CONTINUOUS
 62
     0
  2
_DOT
 10
508.02269877875381
 20
121.42204676230629
 30
0.0
 50
270.0
  0
INSERT
  5
8DD
  8
SUNPO
  6
CONTINUOUS
 62
     0
  2
_DOT
 10
508.02269877875381
 20
126.42204676230629
 30
0.0
 50
90.0
  0
INSERT
  5
8DE
  8
0
  6
CONTINUOUS
  2
*U98
 10
0.0
 20
0.0
 30
0.0
  0
POINT
  5
8DF
  8
DEFPOINTS
  6
CONTINUOUS
 62
     0
 10
490.9206674925681
 20
121.42204676230629
 30
0.0
  0
POINT
  5
8E0
  8
DEFPOINTS
  6
CONTINUOUS
 62
     0
 10
490.9206674925681
 20
126.42204676230629
 30
0.0
  0
POINT
  5
8E1
  8
DEFPOINTS
  6
CONTINUOUS
 62
     0
 10
508.02269877875381
 20
126.42204676230629
 30
0.0
  0
ENDBLK
  5
62F
  8
SUNPO
  6
CONTINUOUS
  0
BLOCK
  8
SUNPO
  6
CONTINUOUS
  2
*D30
 70
     1
 10
0.0
 20
0.0
 30
0.0
  3
*D30
  1

  0
LINE
  5
8E2
  8
SUNPO
  6
CONTINUOUS
 62
     0
 10
500.9206674925681
 20
139.6220467623063
 30
0.0
 11
500.9206674925681
 21
106.7445910676108
 31
0.0
  0
LINE
  5
8E3
  8
SUNPO
  6
CONTINUOUS
 62
     0
 10
470.92066749256787
 20
120.6220467623063
 30
0.0
 11
470.92066749256787
 21
106.7445910676108
 31
0.0
  0
LINE
  5
8E4
  8
SUNPO
  6
CONTINUOUS
 62
     0
 10
499.9206674925681
 20
107.7445910676108
 30
0.0
 11
471.92066749256787
 21
107.7445910676108
 31
0.0
  0
INSERT
  5
8E5
  8
SUNPO
  6
CONTINUOUS
 62
     0
  2
_DOT
 10
500.9206674925681
 20
107.7445910676108
 30
0.0
  0
INSERT
  5
8E6
  8
SUNPO
  6
CONTINUOUS
 62
     0
  2
_DOT
 10
470.92066749256787
 20
107.7445910676108
 30
0.0
 50
180.0
  0
INSERT
  5
8E7
  8
0
  6
CONTINUOUS
  2
*U99
 10
0.0
 20
0.0
 30
0.0
  0
POINT
  5
8E8
  8
DEFPOINTS
  6
CONTINUOUS
 62
     0
 10
500.9206674925681
 20
140.42204676230619
 30
0.0
  0
POINT
  5
8E9
  8
DEFPOINTS
  6
CONTINUOUS
 62
     0
 10
470.92066749256787
 20
121.42204676230629
 30
0.0
  0
POINT
  5
8EA
  8
DEFPOINTS
  6
CONTINUOUS
 62
     0
 10
470.92066749256787
 20
107.7445910676108
 30
0.0
  0
ENDBLK
  5
638
  8
SUNPO
  6
CONTINUOUS
  0
BLOCK
  8
SUNPO
  6
CONTINUOUS
  2
*D31
 70
     1
 10
0.0
 20
0.0
 30
0.0
  3
*D31
  1

  0
LINE
  5
8EB
  8
SUNPO
  6
CONTINUOUS
 62
     0
 10
470.92066749256787
 20
120.6220467623063
 30
0.0
 11
470.92066749256787
 21
114.003099958391
 31
0.0
  0
LINE
  5
8EC
  8
SUNPO
  6
CONTINUOUS
 62
     0
 10
490.9206674925681
 20
120.6220467623063
 30
0.0
 11
490.9206674925681
 21
114.003099958391
 31
0.0
  0
LINE
  5
8ED
  8
SUNPO
  6
CONTINUOUS
 62
     0
 10
471.92066749256787
 20
115.003099958391
 30
0.0
 11
489.9206674925681
 21
115.003099958391
 31
0.0
  0
INSERT
  5
8EE
  8
SUNPO
  6
CONTINUOUS
 62
     0
  2
_DOT
 10
470.92066749256787
 20
115.003099958391
 30
0.0
 50
180.0
  0
INSERT
  5
8EF
  8
SUNPO
  6
CONTINUOUS
 62
     0
  2
_DOT
 10
490.9206674925681
 20
115.003099958391
 30
0.0
  0
INSERT
  5
8F0
  8
0
  6
CONTINUOUS
  2
*U100
 10
0.0
 20
0.0
 30
0.0
  0
POINT
  5
8F1
  8
DEFPOINTS
  6
CONTINUOUS
 62
     0
 10
470.92066749256787
 20
121.42204676230629
 30
0.0
  0
POINT
  5
8F2
  8
DEFPOINTS
  6
CONTINUOUS
 62
     0
 10
490.9206674925681
 20
121.42204676230629
 30
0.0
  0
POINT
  5
8F3
  8
DEFPOINTS
  6
CONTINUOUS
 62
     0
 10
490.9206674925681
 20
115.003099958391
 30
0.0
  0
ENDBLK
  5
641
  8
SUNPO
  6
CONTINUOUS
  0
BLOCK
  8
0
  2
*U32
 70
     1
 10
0.0
 20
0.0
 30
0.0
  3
*U32
  1

  0
TEXT
  5
BF7
  8
SUNPO
  6
CONTINUOUS
 10
85.379072014215637
 20
308.70011764605999
 30
0.0
 40
1.7599999999999989
  1
27
  0
ENDBLK
  5
BF9
  8
0
  0
BLOCK
  8
0
  2
*U33
 70
     1
 10
0.0
 20
0.0
 30
0.0
  3
*U33
  1

  0
TEXT
  5
BFB
  8
SUNPO
  6
CONTINUOUS
 10
98.179071966532035
 20
407.3708735603667
 30
0.0
 40
1.639999999999999
  1
5
  0
ENDBLK
  5
BFD
  8
0
  0
BLOCK
  8
0
  2
*U34
 70
     1
 10
0.0
 20
0.0
 30
0.0
  3
*U34
  1

  0
TEXT
  5
BFF
  8
SUNPO
  6
CONTINUOUS
 10
86.879072014215936
 20
407.3708735603667
 30
0.0
 40
1.7599999999999989
  1
14
  0
ENDBLK
  5
C01
  8
0
  0
BLOCK
  8
0
  2
*U35
 70
     1
 10
0.0
 20
0.0
 30
0.0
  3
*U35
  1

  0
TEXT
  5
C03
  8
SUNPO
  6
CONTINUOUS
 10
56.016433829932161
 20
355.78964364759861
 30
0.0
 40
1.7599999999999989
  1
79
 50
90.0
  0
ENDBLK
  5
C05
  8
0
  0
BLOCK
  8
0
  2
*U36
 70
     1
 10
0.0
 20
0.0
 30
0.0
  3
*U36
  1

  0
TEXT
  5
C07
  8
SUNPO
  6
CONTINUOUS
 10
66.284123250282775
 20
320.58964359991478
 30
0.0
 40
1.639999999999999
  1
5
 50
90.0
  0
ENDBLK
  5
C09
  8
0
  0
BLOCK
  8
0
  2
*U37
 70
     1
 10
0.0
 20
0.0
 30
0.0
  3
*U37
  1

  0
TEXT
  5
C0B
  8
SUNPO
  6
CONTINUOUS
 10
66.284123250282775
 20
328.28964364759872
 30
0.0
 40
1.7599999999999989
  1
14
 50
90.0
  0
ENDBLK
  5
C0D
  8
0
  0
BLOCK
  8
0
  2
*U38
 70
     1
 10
0.0
 20
0.0
 30
0.0
  3
*U38
  1

  0
TEXT
  5
C0F
  8
SUNPO
  6
CONTINUOUS
 10
66.284123250282775
 20
365.2896436475985
 30
0.0
 40
1.7599999999999989
  1
60
 50
90.0
  0
ENDBLK
  5
C11
  8
0
  0
BLOCK
  8
0
  2
*U39
 70
     1
 10
0.0
 20
0.0
 30
0.0
  3
*U39
  1

  0
TEXT
  5
C13
  8
SUNPO
  6
CONTINUOUS
 10
109.97903148597111
 20
334.1667627970416
 30
0.0
 40
1.8
  1
4.7
 50
90.0
  0
ENDBLK
  5
C15
  8
0
  0
BLOCK
  8
0
  2
*U40
 70
     1
 10
0.0
 20
0.0
 30
0.0
  3
*U40
  1

  0
TEXT
  5
C17
  8
SUNPO
  6
CONTINUOUS
 10
118.818349243358
 20
328.78964364759838
 30
0.0
 40
1.7599999999999989
  1
25
 50
90.0
  0
ENDBLK
  5
C19
  8
0
  0
BLOCK
  8
0
  2
*U41
 70
     1
 10
0.0
 20
0.0
 30
0.0
  3
*U41
  1

  0
TEXT
  5
C1B
  8
SUNPO
  6
CONTINUOUS
 10
93.584717660589718
 20
500.07654137323561
 30
0.0
 40
1.7599999999999989
  1
14
 50
90.0
  0
ENDBLK
  5
C1D
  8
0
  0
BLOCK
  8
0
  2
*U42
 70
     1
 10
0.0
 20
0.0
 30
0.0
  3
*U42
  1

  0
TEXT
  5
C1F
  8
SUNPO
  6
CONTINUOUS
 10
93.584717660589718
 20
492.37654134939379
 30
0.0
 40
1.639999999999999
  1
5
 50
90.0
  0
ENDBLK
  5
C21
  8
0
  0
BLOCK
  8
0
  2
*U43
 70
     1
 10
0.0
 20
0.0
 30
0.0
  3
*U43
  1

  0
TEXT
  5
C23
  8
SUNPO
  6
CONTINUOUS
 10
54.528073879882371
 20
484.39587657594478
 30
0.0
 40
1.7599999999999989
  1
15
  0
ENDBLK
  5
C25
  8
0
  0
BLOCK
  8
0
  2
*U44
 70
     1
 10
0.0
 20
0.0
 30
0.0
  3
*U44
  1

  0
TEXT
  5
C27
  8
SUNPO
  6
CONTINUOUS
 10
62.028073879882278
 20
475.91910151282269
 30
0.0
 40
1.7599999999999989
  1
30
  0
ENDBLK
  5
C29
  8
0
  0
BLOCK
  8
0
  2
*U45
 70
     1
 10
0.0
 20
0.0
 30
0.0
  3
*U45
  1

  0
TEXT
  5
C2B
  8
SUNPO
  6
CONTINUOUS
 10
184.2167268560402
 20
470.77967528575698
 30
0.0
 40
1.7599999999999989
  1
45
  0
ENDBLK
  5
C2D
  8
0
  0
BLOCK
  8
0
  2
*U46
 70
     1
 10
0.0
 20
0.0
 30
0.0
  3
*U46
  1

  0
TEXT
  5
C2F
  8
SUNPO
  6
CONTINUOUS
 10
169.21672685604011
 20
477.76942601872008
 30
0.0
 40
1.7599999999999989
  1
15
  0
ENDBLK
  5
C31
  8
0
  0
BLOCK
  8
0
  2
*U47
 70
     1
 10
0.0
 20
0.0
 30
0.0
  3
*U47
  1

  0
TEXT
  5
C33
  8
SUNPO
  6
CONTINUOUS
 10
184.2167268560402
 20
477.76942601872008
 30
0.0
 40
1.7599999999999989
  1
15
  0
ENDBLK
  5
C35
  8
0
  0
BLOCK
  8
0
  2
*U48
 70
     1
 10
0.0
 20
0.0
 30
0.0
  3
*U48
  1

  0
TEXT
  5
C37
  8
SUNPO
  6
CONTINUOUS
 10
172.3960954256255
 20
487.46364875020259
 30
0.0
 40
1.7599999999999989
  1
10
 50
90.0
  0
ENDBLK
  5
C39
  8
0
  0
BLOCK
  8
0
  2
*U49
 70
     1
 10
0.0
 20
0.0
 30
0.0
  3
*U49
  1

  0
TEXT
  5
C3B
  8
SUNPO
  6
CONTINUOUS
 10
220.9372462849885
 20
494.41364872636098
 30
0.0
 40
1.7599999999999989
  1
14
 50
90.0
  0
ENDBLK
  5
C3D
  8
0
  0
BLOCK
  8
0
  2
*U50
 70
     1
 10
0.0
 20
0.0
 30
0.0
  3
*U50
  1

  0
TEXT
  5
C3F
  8
SUNPO
  6
CONTINUOUS
 10
220.9372462849885
 20
486.76364870251882
 30
0.0
 40
1.639999999999999
  1
5
 50
90.0
  0
ENDBLK
  5
C41
  8
0
  0
BLOCK
  8
0
  2
*U51
 70
     1
 10
0.0
 20
0.0
 30
0.0
  3
*U51
  1

  0
TEXT
  5
C43
  8
SUNPO
  6
CONTINUOUS
 10
320.33994208068373
 20
472.23848175983079
 30
0.0
 40
1.7599999999999989
  1
20
  0
ENDBLK
  5
C45
  8
0
  0
BLOCK
  8
0
  2
*U52
 70
     1
 10
0.0
 20
0.0
 30
0.0
  3
*U52
  1

  0
TEXT
  5
C47
  8
SUNPO
  6
CONTINUOUS
 10
320.33994208068373
 20
506.01332171392369
 30
0.0
 40
1.7599999999999989
  1
40
  0
ENDBLK
  5
C49
  8
0
  0
BLOCK
  8
0
  2
*U53
 70
     1
 10
0.0
 20
0.0
 30
0.0
  3
*U53
  1

  0
TEXT
  5
C4B
  8
SUNPO
  6
CONTINUOUS
 10
354.46053793476148
 20
487.10507003309891
 30
0.0
 40
1.7599999999999989
  1
14
 50
90.0
  0
ENDBLK
  5
C4D
  8
0
  0
BLOCK
  8
0
  2
*U54
 70
     1
 10
0.0
 20
0.0
 30
0.0
  3
*U54
  1

  0
TEXT
  5
C4F
  8
SUNPO
  6
CONTINUOUS
 10
353.96053793476148
 20
476.02899197587999
 30
0.0
 40
1.639999999999999
  1
3
 50
90.0
  0
ENDBLK
  5
C51
  8
0
  0
BLOCK
  8
0
  2
*U55
 70
     1
 10
0.0
 20
0.0
 30
0.0
  3
*U55
  1

  0
TEXT
  5
C53
  8
SUNPO
  6
CONTINUOUS
 10
468.36296101169989
 20
517.5723999034326
 30
0.0
 40
1.7599999999999989
  1
14
  0
ENDBLK
  5
C55
  8
0
  0
BLOCK
  8
0
  2
*U56
 70
     1
 10
0.0
 20
0.0
 30
0.0
  3
*U56
  1

  0
TEXT
  5
C57
  8
SUNPO
  6
CONTINUOUS
 10
483.0673460130439
 20
518.0723999034301
 30
0.0
 40
1.639999999999999
  1
3
  0
ENDBLK
  5
C59
  8
0
  0
BLOCK
  8
0
  2
*U57
 70
     1
 10
0.0
 20
0.0
 30
0.0
  3
*U57
  1

  0
TEXT
  5
C5B
  8
SUNPO
  6
CONTINUOUS
 10
422.2290130582839
 20
466.42938730999862
 30
0.0
 40
1.7599999999999989
  1
14
 50
90.0
  0
ENDBLK
  5
C5D
  8
0
  0
BLOCK
  8
0
  2
*U58
 70
     1
 10
0.0
 20
0.0
 30
0.0
  3
*U58
  1

  0
TEXT
  5
C5F
  8
SUNPO
  6
CONTINUOUS
 10
421.94329877256718
 20
455.17331227474142
 30
0.0
 40
1.639999999999999
  1
3
 50
90.0
  0
ENDBLK
  5
C61
  8
0
  0
BLOCK
  8
0
  2
*U59
 70
     1
 10
0.0
 20
0.0
 30
0.0
  3
*U59
  1

  0
TEXT
  5
C63
  8
SUNPO
  6
CONTINUOUS
 10
465.86296101168352
 20
452.07522230964622
 30
0.0
 40
1.7599999999999989
  1
25
  0
ENDBLK
  5
C65
  8
0
  0
BLOCK
  8
0
  2
*U60
 70
     1
 10
0.0
 20
0.0
 30
0.0
  3
*U60
  1

  0
TEXT
  5
C67
  8
SUNPO
  6
CONTINUOUS
 10
453.36296101166653
 20
443.19462426687642
 30
0.0
 40
1.7599999999999989
  1
50
  0
ENDBLK
  5
C69
  8
0
  0
BLOCK
  8
0
  2
*U61
 70
     1
 10
0.0
 20
0.0
 30
0.0
  3
*U61
  1

  0
TEXT
  5
C6B
  8
SUNPO
  6
CONTINUOUS
 10
488.88168806487869
 20
468.9293873100608
 30
0.0
 40
1.7599999999999989
  1
25
 50
90.0
  0
ENDBLK
  5
C6D
  8
0
  0
BLOCK
  8
0
  2
*U62
 70
     1
 10
0.0
 20
0.0
 30
0.0
  3
*U62
  1

  0
TEXT
  5
C6F
  8
SUNPO
  6
CONTINUOUS
 10
497.50732153852272
 20
481.4293873100591
 30
0.0
 40
1.7599999999999989
  1
50
 50
90.0
  0
ENDBLK
  5
C71
  8
0
  0
BLOCK
  8
0
  2
*U63
 70
     1
 10
0.0
 20
0.0
 30
0.0
  3
*U63
  1

  0
TEXT
  5
C73
  8
SUNPO
  6
CONTINUOUS
 10
24.211428038766559
 20
524.4328824203667
 30
0.0
 40
4.7700001716613771
  1
MM-16
  0
ENDBLK
  5
C75
  8
0
  0
BLOCK
  8
0
  2
*U64
 70
     1
 10
0.0
 20
0.0
 30
0.0
  3
*U64
  1

  0
TEXT
  5
C77
  8
SUNPO
  6
CONTINUOUS
 10
142.3849954460579
 20
524.37988241845926
 30
0.0
 40
4.823000173568726
  1
MM-19-1
  0
ENDBLK
  5
C79
  8
0
  0
BLOCK
  8
0
  2
*U65
 70
     1
 10
0.0
 20
0.0
 30
0.0
  3
*U65
  1

  0
TEXT
  5
C7B
  8
SUNPO
  6
CONTINUOUS
 10
267.40921891414968
 20
524.4328824203667
 30
0.0
 40
4.823000173568726
  1
M
  0
TEXT
  5
C7C
  8
SUNPO
  6
CONTINUOUS
 10
272.23221908771842
 20
524.4328824203667
 30
0.0
 40
4.7699954016612063
  1
M-64
  0
ENDBLK
  5
C7E
  8
0
  0
BLOCK
  8
0
  2
*U66
 70
     1
 10
0.0
 20
0.0
 30
0.0
  3
*U66
  1

  0
TEXT
  5
C80
  8
SUNPO
  6
CONTINUOUS
 10
405.31925226468309
 20
524.4328824203667
 30
0.0
 40
4.823000173568726
  1
M
  0
TEXT
  5
C81
  8
SUNPO
  6
CONTINUOUS
 10
410.14225243825189
 20
524.4328824203667
 30
0.0
 40
4.7699954016612063
  1
M-70
  0
ENDBLK
  5
C83
  8
0
  0
BLOCK
  8
0
  2
*U67
 70
     1
 10
0.0
 20
0.0
 30
0.0
  3
*U67
  1

  0
TEXT
  5
C85
  8
SUNPO
  6
CONTINUOUS
 10
24.211428038766542
 20
418.38768860135019
 30
0.0
 40
4.823000173568726
  1
M
  0
TEXT
  5
C86
  8
SUNPO
  6
CONTINUOUS
 10
29.034428212335271
 20
418.38768860135019
 30
0.0
 40
4.7699954016612063
  1
M-71
  0
ENDBLK
  5
C88
  8
0
  0
BLOCK
  8
0
  2
*U68
 70
     1
 10
0.0
 20
0.0
 30
0.0
  3
*U68
  1

  0
TEXT
  5
C8A
  8
SUNPO
  6
CONTINUOUS
 10
142.38499544605779
 20
418.3346355994409
 30
0.0
 40
4.823000173568726
  1
M
  0
TEXT
  5
C8B
  8
SUNPO
  6
CONTINUOUS
 10
147.2079956196265
 20
418.3346355994409
 30
0.0
 40
4.8760531754779812
  1
M-122-123
  0
ENDBLK
  5
C8D
  8
0
  0
BLOCK
  8
0
  2
*U69
 70
     1
 10
0.0
 20
0.0
 30
0.0
  3
*U69
  1

  0
TEXT
  5
C8F
  8
SUNPO
  6
CONTINUOUS
 10
267.40921891414968
 20
418.3346355994409
 30
0.0
 40
4.823000173568726
  1
M
  0
TEXT
  5
C90
  8
SUNPO
  6
CONTINUOUS
 10
272.23221908771842
 20
418.3346355994409
 30
0.0
 40
4.8760531754779812
  1
M-124-125
  0
ENDBLK
  5
C92
  8
0
  0
BLOCK
  8
0
  2
*U70
 70
     1
 10
0.0
 20
0.0
 30
0.0
  3
*U70
  1

  0
TEXT
  5
CC0
  8
SUNPO
  6
CONTINUOUS
 10
673.35151288442864
 20
218.4178829322075
 30
0.0
 40
3.0999999046325679
  1
7.5
  0
ENDBLK
  5
CC2
  8
0
  0
BLOCK
  8
0
  2
*U71
 70
     1
 10
0.0
 20
0.0
 30
0.0
  3
*U71
  1

  0
TEXT
  5
CC4
  8
SUNPO
  6
CONTINUOUS
 10
659.28216412756785
 20
218.41788293220731
 30
0.0
 40
3.0999999046325679
  1
3
  0
ENDBLK
  5
CC6
  8
0
  0
BLOCK
  8
0
  2
*U72
 70
     1
 10
0.0
 20
0.0
 30
0.0
  3
*U72
  1

  0
TEXT
  5
CC8
  8
SUNPO
  6
CONTINUOUS
 10
652.00716415141005
 20
218.4178829322075
 30
0.0
 40
3.0999999046325679
  1
10
  0
ENDBLK
  5
CCA
  8
0
  0
BLOCK
  8
0
  2
*U73
 70
     1
 10
0.0
 20
0.0
 30
0.0
  3
*U73
  1

  0
TEXT
  5
CCC
  8
SUNPO
  6
CONTINUOUS
 10
639.24883082602435
 20
218.41788293220731
 30
0.0
 40
3.0999999046325679
  1
15
  0
ENDBLK
  5
CCE
  8
0
  0
BLOCK
  8
0
  2
*U74
 70
     1
 10
0.0
 20
0.0
 30
0.0
  3
*U74
  1

  0
TEXT
  5
CD0
  8
SUNPO
  6
CONTINUOUS
 10
614.16922754477218
 20
241.98623958351899
 30
0.0
 40
3.0999999046325679
  1
13
 50
90.0
  0
ENDBLK
  5
CD2
  8
0
  0
BLOCK
  8
0
  2
*U75
 70
     1
 10
0.0
 20
0.0
 30
0.0
  3
*U75
  1

  0
TEXT
  5
CD4
  8
SUNPO
  6
CONTINUOUS
 10
625.671195216554
 20
238.20290628197441
 30
0.0
 40
3.0999999046325679
  1
7.5
 50
90.0
  0
ENDBLK
  5
CD6
  8
0
  0
BLOCK
  8
0
  2
*U76
 70
     1
 10
0.0
 20
0.0
 30
0.0
  3
*U76
  1

  0
TEXT
  5
CD8
  8
SUNPO
  6
CONTINUOUS
 10
646.9154975722239
 20
204.40194349247631
 30
0.0
 40
3.0999999046325679
  1
35.5
  0
ENDBLK
  5
CDA
  8
0
  0
BLOCK
  8
0
  2
*U77
 70
     1
 10
0.0
 20
0.0
 30
0.0
  3
*U77
  1

  0
TEXT
  5
CDC
  8
SUNPO
  6
CONTINUOUS
 10
696.32616187205917
 20
250.6529063297186
 30
0.0
 40
3.0999999046325679
  1
35.5
 50
90.0
  0
ENDBLK
  5
CDE
  8
0
  0
BLOCK
  8
0
  2
*U78
 70
     1
 10
0.0
 20
0.0
 30
0.0
  3
*U78
  1

  0
TEXT
  5
CE0
  8
SUNPO
  6
CONTINUOUS
 10
683.7972325211864
 20
263.48623958363908
 30
0.0
 40
3.0999999046325679
  1
15
 50
90.0
  0
ENDBLK
  5
CE2
  8
0
  0
BLOCK
  8
0
  2
*U79
 70
     1
 10
0.0
 20
0.0
 30
0.0
  3
*U79
  1

  0
TEXT
  5
CE4
  8
SUNPO
  6
CONTINUOUS
 10
683.79723252118629
 20
251.24457290902529
 30
0.0
 40
3.0999999046325679
  1
10
 50
90.0
  0
ENDBLK
  5
CE6
  8
0
  0
BLOCK
  8
0
  2
*U80
 70
     1
 10
0.0
 20
0.0
 30
0.0
  3
*U80
  1

  0
TEXT
  5
CE8
  8
SUNPO
  6
CONTINUOUS
 10
683.7972325211864
 20
245.51957288518361
 30
0.0
 40
3.0999999046325679
  1
3
 50
90.0
  0
ENDBLK
  5
CEA
  8
0
  0
BLOCK
  8
0
  2
*U81
 70
     1
 10
0.0
 20
0.0
 30
0.0
  3
*U81
  1

  0
TEXT
  5
CEC
  8
SUNPO
  6
CONTINUOUS
 10
683.79723252118629
 20
228.31849917396519
 30
0.0
 40
3.0999999046325679
  1
7.5
 50
90.0
  0
ENDBLK
  5
CEE
  8
0
  0
BLOCK
  8
0
  2
*U82
 70
     1
 10
0.0
 20
0.0
 30
0.0
  3
*U82
  1

  0
TEXT
  5
CF0
  8
SUNPO
  6
CONTINUOUS
 10
660.74883082614372
 20
293.03668196948843
 30
0.0
 40
3.0999999046325679
  1
13
  0
ENDBLK
  5
CF2
  8
0
  0
BLOCK
  8
0
  2
*U83
 70
     1
 10
0.0
 20
0.0
 30
0.0
  3
*U83
  1

  0
TEXT
  5
CF4
  8
SUNPO
  6
CONTINUOUS
 10
662.46549752459987
 20
282.35627893992188
 30
0.0
 40
3.0999999046325679
  1
7.5
  0
ENDBLK
  5
CF6
  8
0
  0
BLOCK
  8
0
  2
*U84
 70
     1
 10
0.0
 20
0.0
 30
0.0
  3
*U84
  1

  0
TEXT
  5
CF8
  8
SUNPO
  6
CONTINUOUS
 10
761.644826823823
 20
457.45388143007671
 30
0.0
 40
3.0999999046325679
  1
28
  0
ENDBLK
  5
CFA
  8
0
  0
BLOCK
  8
0
  2
*U85
 70
     1
 10
0.0
 20
0.0
 30
0.0
  3
*U85
  1

  0
TEXT
  5
CFC
  8
SUNPO
  6
CONTINUOUS
 10
742.34891837505631
 20
470.57213168822329
 30
0.0
 40
3.0999999046325679
  1
3
  0
ENDBLK
  5
CFE
  8
0
  0
BLOCK
  8
0
  2
*U86
 70
     1
 10
0.0
 20
0.0
 30
0.0
  3
*U86
  1

  0
TEXT
  5
D00
  8
SUNPO
  6
CONTINUOUS
 10
796.42723102156026
 20
488.82475719354818
 30
0.0
 40
3.0999999046325679
  1
19
 50
90.0
  0
ENDBLK
  5
D02
  8
0
  0
BLOCK
  8
0
  2
*U87
 70
     1
 10
0.0
 20
0.0
 30
0.0
  3
*U87
  1

  0
TEXT
  5
D04
  8
SUNPO
  6
CONTINUOUS
 10
655.05040116670875
 20
77.412645124295864
 30
0.0
 40
3.0999999046325679
  1
47
  0
ENDBLK
  5
D06
  8
0
  0
BLOCK
  8
0
  2
*U88
 70
     1
 10
0.0
 20
0.0
 30
0.0
  3
*U88
  1

  0
TEXT
  5
D08
  8
SUNPO
  6
CONTINUOUS
 10
669.56706781747982
 20
93.605940039889205
 30
0.0
 40
3.0999999046325679
  1
19
  0
ENDBLK
  5
D0A
  8
0
  0
BLOCK
  8
0
  2
*U89
 70
     1
 10
0.0
 20
0.0
 30
0.0
  3
*U89
  1

  0
TEXT
  5
D0C
  8
SUNPO
  6
CONTINUOUS
 10
663.72470829326062
 20
93.605940039889205
 30
0.0
 40
3.0999999046325679
  1
3
  0
ENDBLK
  5
D0E
  8
0
  0
BLOCK
  8
0
  2
*U90
 70
     1
 10
0.0
 20
0.0
 30
0.0
  3
*U90
  1

  0
TEXT
  5
D10
  8
SUNPO
  6
CONTINUOUS
 10
644.0504011667075
 20
93.605940039889205
 30
0.0
 40
3.0999999046325679
  1
25
  0
ENDBLK
  5
D12
  8
0
  0
BLOCK
  8
0
  2
*U91
 70
     1
 10
0.0
 20
0.0
 30
0.0
  3
*U91
  1

  0
TEXT
  5
D14
  8
SUNPO
  6
CONTINUOUS
 10
621.38766043777366
 20
113.9350637399136
 30
0.0
 40
3.0999999046325679
  1
19
 50
90.0
  0
ENDBLK
  5
D16
  8
0
  0
BLOCK
  8
0
  2
*U92
 70
     1
 10
0.0
 20
0.0
 30
0.0
  3
*U92
  1

  0
TEXT
  5
D18
  8
SUNPO
  6
CONTINUOUS
 10
669.56706781748414
 20
166.36579419969189
 30
0.0
 40
3.0999999046325679
  1
19
  0
ENDBLK
  5
D1A
  8
0
  0
BLOCK
  8
0
  2
*U93
 70
     1
 10
0.0
 20
0.0
 30
0.0
  3
*U93
  1

  0
TEXT
  5
D1C
  8
SUNPO
  6
CONTINUOUS
 10
694.70914167935609
 20
138.41839708914509
 30
0.0
 40
3.0999999046325679
  1
25
 50
90.0
  0
ENDBLK
  5
D1E
  8
0
  0
BLOCK
  8
0
  2
*U94
 70
     1
 10
0.0
 20
0.0
 30
0.0
  3
*U94
  1

  0
TEXT
  5
D20
  8
SUNPO
  6
CONTINUOUS
 10
694.70914167935609
 20
119.9923234532431
 30
0.0
 40
3.0999999046325679
  1
3
 50
90.0
  0
ENDBLK
  5
D22
  8
0
  0
BLOCK
  8
0
  2
*U95
 70
     1
 10
0.0
 20
0.0
 30
0.0
  3
*U95
  1

  0
TEXT
  5
D24
  8
SUNPO
  6
CONTINUOUS
 10
694.70914167935609
 20
113.9350637399173
 30
0.0
 40
3.0999999046325679
  1
19
 50
90.0
  0
ENDBLK
  5
D26
  8
0
  0
BLOCK
  8
0
  2
*U96
 70
     1
 10
0.0
 20
0.0
 30
0.0
  3
*U96
  1

  0
TEXT
  5
D28
  8
SUNPO
  6
CONTINUOUS
 10
710.07505068904595
 20
127.4183970891438
 30
0.0
 40
3.0999999046325679
  1
47
 50
90.0
  0
ENDBLK
  5
D2A
  8
0
  0
BLOCK
  8
0
  2
*U97
 70
     1
 10
0.0
 20
0.0
 30
0.0
  3
*U97
  1

  0
TEXT
  5
D6B
  8
SUNPO
  6
CONTINUOUS
 62
     0
 10
507.93269877875372
 20
131.3553800956397
 30
0.0
 40
3.1000000000000001
  1
14
 50
90.0
  0
ENDBLK
  5
D6D
  8
0
  0
BLOCK
  8
0
  2
*U98
 70
     1
 10
0.0
 20
0.0
 30
0.0
  3
*U98
  1

  0
TEXT
  5
D6F
  8
SUNPO
  6
CONTINUOUS
 62
     0
 10
507.93269877875372
 20
122.88871342897291
 30
0.0
 40
3.1000000000000001
  1
5
 50
90.0
  0
ENDBLK
  5
D71
  8
0
  0
BLOCK
  8
0
  2
*U99
 70
     1
 10
0.0
 20
0.0
 30
0.0
  3
*U99
  1

  0
TEXT
  5
D73
  8
SUNPO
  6
CONTINUOUS
 62
     0
 10
483.59566749256811
 20
107.8345910676108
 30
0.0
 40
3.1000000000000001
  1
30
  0
ENDBLK
  5
D75
  8
0
  0
BLOCK
  8
0
  2
*U100
 70
     1
 10
0.0
 20
0.0
 30
0.0
  3
*U100
  1

  0
TEXT
  5
D77
  8
SUNPO
  6
CONTINUOUS
 62
     0
 10
478.59566749256823
 20
115.09309995839099
 30
0.0
 40
3.1000000000000001
  1
20
  0
ENDBLK
  5
D79
  8
0
  0
BLOCK
  8
0
  2
*U101
 70
     1
 10
0.0
 20
0.0
 30
0.0
  3
*U101
  1

  0
TEXT
  5
D7B
  8
SUNPO
  6
CONTINUOUS
 62
     0
 10
198.2473987801007
 20
335.79779087439402
 30
0.0
 40
3.1000000000000001
  1
30.5
  0
ENDBLK
  5
D7D
  8
0
  0
BLOCK
  8
0
  2
*U102
 70
     1
 10
0.0
 20
0.0
 30
0.0
  3
*U102
  1

  0
TEXT
  5
D7F
  8
SUNPO
  6
CONTINUOUS
 62
     0
 10
231.3636231658291
 20
365.28029678686579
 30
0.0
 40
3.1000000000000001
  1
30.5
 50
90.0
  0
ENDBLK
  5
D81
  8
0
  0
BLOCK
  8
0
  2
*U103
 70
     1
 10
0.0
 20
0.0
 30
0.0
  3
*U103
  1

  0
TEXT
  5
D83
  8
SUNPO
  6
CONTINUOUS
 62
     0
 10
162.1109805244354
 20
357.85529676302372
 30
0.0
 40
3.1000000000000001
  1
14
 50
90.0
  0
ENDBLK
  5
D85
  8
0
  0
BLOCK
  8
0
  2
*U104
 70
     1
 10
0.0
 20
0.0
 30
0.0
  3
*U104
  1

  0
TEXT
  5
D87
  8
SUNPO
  6
CONTINUOUS
 62
     0
 10
185.06406544676759
 20
377.41012520447703
 30
0.0
 40
3.1000000000000001
  1
30
  0
ENDBLK
  5
D89
  8
0
  0
BLOCK
  8
0
  2
*U105
 70
     1
 10
0.0
 20
0.0
 30
0.0
  3
*U105
  1

  0
TEXT
  5
D8B
  8
SUNPO
  6
CONTINUOUS
 62
     0
 10
210.3223988039432
 20
411.15488514088622
 30
0.0
 40
3.1000000000000001
  1
14
  0
ENDBLK
  5
D8D
  8
0
  0
BLOCK
  8
0
  2
*U106
 70
     1
 10
0.0
 20
0.0
 30
0.0
  3
*U106
  1

  0
TEXT
  5
D8F
  8
SUNPO
  6
CONTINUOUS
 62
     0
 10
286.96311488601691
 20
351.58712936227357
 30
0.0
 40
3.1000000000000001
  1
30
 50
90.0
  0
ENDBLK
  5
D91
  8
0
  0
BLOCK
  8
0
  2
*U107
 70
     1
 10
0.0
 20
0.0
 30
0.0
  3
*U107
  1

  0
TEXT
  5
D93
  8
SUNPO
  6
CONTINUOUS
 62
     0
 10
325.43667235936181
 20
330.0508795718863
 30
0.0
 40
3.1000000000000001
  1
20
  0
ENDBLK
  5
D95
  8
0
  0
BLOCK
  8
0
  2
*U108
 70
     1
 10
0.0
 20
0.0
 30
0.0
  3
*U108
  1

  0
TEXT
  5
D97
  8
SUNPO
  6
CONTINUOUS
 62
     0
 10
305.69500571653731
 20
330.0508795718863
 30
0.0
 40
3.1000000000000001
  1
14
  0
ENDBLK
  5
D99
  8
0
  0
BLOCK
  8
0
  2
*U109
 70
     1
 10
0.0
 20
0.0
 30
0.0
  3
*U109
  1

  0
TEXT
  5
D9B
  8
SUNPO
  6
CONTINUOUS
 62
     0
 10
335.43667235936221
 20
406.70184347073439
 30
0.0
 40
3.1000000000000001
  1
30
  0
ENDBLK
  5
D9D
  8
0
  0
BLOCK
  8
0
  2
*U110
 70
     1
 10
0.0
 20
0.0
 30
0.0
  3
*U110
  1

  0
TEXT
  5
D9F
  8
SUNPO
  6
CONTINUOUS
 62
     0
 10
360.24057949296099
 20
381.84546267176501
 30
0.0
 40
3.1000000000000001
  1
14
 50
90.0
  0
ENDBLK
  5
DA1
  8
0
  0
BLOCK
  8
0
  2
*U111
 70
     1
 10
0.0
 20
0.0
 30
0.0
  3
*U111
  1

  0
TEXT
  5
DA3
  8
SUNPO
  6
CONTINUOUS
 62
     0
 10
360.24057949296088
 20
361.5871293622734
 30
0.0
 40
3.1000000000000001
  1
20
 50
90.0
  0
ENDBLK
  5
DA5
  8
0
  0
ENDSEC
  0
SECTION
  2
ENTITIES
  0
LINE
  5
46
  8
MAWARIBUCHI
  6
実線
 10
102.2290719188485
 20
319.63964355223101
 30
0.0
 11
75.229071918848149
 21
319.63964355223101
 31
0.0
  0
LINE
  5
47
  8
MAWARIBUCHI
  6
実線
 10
100.92907191884829
 20
320.93964355223102
 30
0.0
 11
76.529071918848445
 21
320.93964355223102
 31
0.0
  0
LINE
  5
48
  8
MAWARIBUCHI
  6
実線
 10
102.22907191884831
 20
319.63964355223112
 30
0.0
 11
102.22907191884831
 21
344.63964355223112
 31
0.0
  0
LINE
  5
49
  8
MAWARIBUCHI
  6
実線
 10
75.229071918848319
 20
319.63964355223112
 30
0.0
 11
75.229071918848319
 21
324.63964355223101
 31
0.0
  0
LINE
  5
4A
  8
MAWARIBUCHI
  6
実線
 10
102.22907191884831
 20
344.63964355223112
 30
0.0
 11
97.229071918848504
 21
344.63964355223112
 31
0.0
  0
LINE
  5
4B
  8
MAWARIBUCHI
  6
実線
 10
81.929071918848081
 20
398.63964355223101
 30
0.0
 11
83.229071918848319
 21
398.63964355223101
 31
0.0
  0
LINE
  5
4C
  8
MAWARIBUCHI
  6
実線
 10
97.229071918848504
 20
344.63964355223112
 30
0.0
 11
97.229071918848504
 21
343.33964355223122
 31
0.0
  0
LINE
  5
4D
  8
MAWARIBUCHI
  6
実線
 10
75.229071918848319
 20
324.63964355223101
 30
0.0
 11
76.52907191884816
 21
324.63964355223101
 31
0.0
  0
LINE
  5
4E
  8
MAWARIBUCHI
  6
実線
 10
76.529071918848331
 20
320.93964355223108
 30
0.0
 11
76.529071918848331
 21
324.63964355223101
 31
0.0
  0
LINE
  5
4F
  8
MAWARIBUCHI
  6
実線
 10
81.929071918848308
 20
398.63964355223101
 30
0.0
 11
81.929071918848308
 21
338.63964355223112
 31
0.0
  0
LINE
  5
50
  8
MAWARIBUCHI
  6
実線
 10
100.92907191884829
 20
343.33964355223122
 30
0.0
 11
97.229071918848504
 21
343.33964355223122
 31
0.0
  0
LINE
  5
51
  8
MAWARIBUCHI
  6
実線
 10
100.92907191884829
 20
339.93964355223119
 30
0.0
 11
83.229071918848319
 21
339.93964355223119
 31
0.0
  0
LINE
  5
52
  8
MAWARIBUCHI
  6
実線
 10
100.92907191884829
 20
338.63964355223118
 30
0.0
 11
81.929071918848308
 21
338.63964355223118
 31
0.0
  0
LINE
  5
53
  8
MAWARIBUCHI
  6
実線
 10
100.92907191884829
 20
338.63964355223112
 30
0.0
 11
100.92907191884829
 21
320.93964355223108
 31
0.0
  0
LINE
  5
54
  8
MAWARIBUCHI
  6
実線
 10
100.92907191884829
 20
343.33964355223122
 30
0.0
 11
100.92907191884829
 21
339.93964355223119
 31
0.0
  0
LINE
  5
55
  8
MAWARIBUCHI
  6
実線
 10
83.229071918848319
 20
368.33964355223122
 30
0.0
 11
83.229071918848319
 21
339.93964355223119
 31
0.0
  0
LINE
  5
56
  8
MAWARIBUCHI
  6
実線
 10
83.229071918848319
 20
398.63964355223101
 30
0.0
 11
83.229071918848319
 21
368.9396435522309
 31
0.0
  0
LINE
  5
57
  8
SUNPO
  6
実線
 10
102.22907191884831
 20
318.83964354031002
 30
0.0
 11
102.22907191884831
 21
306.20011764605999
 31
0.0
  0
LINE
  5
58
  8
SUNPO
  6
実線
 10
102.22907191884831
 20
308.20011764605999
 30
0.0
 11
75.229071918848319
 21
308.20011764605999
 31
0.0
  0
CIRCLE
  5
59
  8
SUNPO
  6
実線
 10
102.2290719188485
 20
308.20011764605999
 30
0.0
 40
0.4000000059604787
  0
CIRCLE
  5
5A
  8
SUNPO
  6
実線
 10
75.22907191884849
 20
308.20011764605999
 30
0.0
 40
0.4000000059604218
  0
INSERT
  5
5B
  8
0
  6
CONTINUOUS
  2
*U32
 10
0.0
 20
0.0
 30
0.0
  0
LINE
  5
5C
  8
SUNPO
  6
実線
 10
75.229071918848319
 20
318.83964354031002
 30
0.0
 11
75.229071918848319
 21
306.20011764605999
 31
0.0
  0
LINE
  5
5D
  8
SUNPO
  6
実線
 10
102.22907191884831
 20
345.43964356415199
 30
0.0
 11
102.22907191884831
 21
408.8708735603667
 31
0.0
  0
LINE
  5
5E
  8
SUNPO
  6
実線
 10
102.22907191884831
 20
406.87087356036659
 30
0.0
 11
97.229071918848504
 21
406.87087356036659
 31
0.0
  0
CIRCLE
  5
5F
  8
SUNPO
  6
実線
 10
102.2290719188485
 20
406.87087356036659
 30
0.0
 40
0.4000000059604787
  0
CIRCLE
  5
60
  8
SUNPO
  6
実線
 10
97.229071918848504
 20
406.87087356036659
 30
0.0
 40
0.4000000059605355
  0
INSERT
  5
61
  8
0
  6
CONTINUOUS
  2
*U33
 10
0.0
 20
0.0
 30
0.0
  0
LINE
  5
62
  8
SUNPO
  6
実線
 10
97.229071918848504
 20
345.43964356415199
 30
0.0
 11
97.229071918848504
 21
408.8708735603667
 31
0.0
  0
LINE
  5
63
  8
SUNPO
  6
実線
 10
97.229071918848504
 20
406.87087356036659
 30
0.0
 11
83.229071918848319
 21
406.87087356036659
 31
0.0
  0
CIRCLE
  5
64
  8
SUNPO
  6
実線
 10
97.229071918848504
 20
406.87087356036659
 30
0.0
 40
0.4000000059605355
  0
CIRCLE
  5
65
  8
SUNPO
  6
実線
 10
83.229071918848504
 20
406.87087356036659
 30
0.0
 40
0.4000000059604787
  0
INSERT
  5
66
  8
0
  6
CONTINUOUS
  2
*U34
 10
0.0
 20
0.0
 30
0.0
  0
LINE
  5
67
  8
SUNPO
  6
実線
 10
83.229071918848319
 20
399.43964356415188
 30
0.0
 11
83.229071918848319
 21
408.8708735603667
 31
0.0
  0
LINE
  5
68
  8
SUNPO
  6
実線
 10
81.129071906927138
 20
398.63964355223101
 30
0.0
 11
54.516433829932168
 21
398.63964355223101
 31
0.0
  0
LINE
  5
69
  8
SUNPO
  6
実線
 10
56.516433829931991
 20
398.63964355223101
 30
0.0
 11
56.516433829931991
 21
319.63964355223112
 31
0.0
  0
CIRCLE
  5
6A
  8
SUNPO
  6
実線
 10
56.516433829932168
 20
398.63964355223101
 30
0.0
 40
0.4000000059604929
  0
CIRCLE
  5
6B
  8
SUNPO
  6
実線
 10
56.516433829932168
 20
319.63964355223112
 30
0.0
 40
0.4000000059604929
  0
INSERT
  5
6C
  8
0
  6
CONTINUOUS
  2
*U35
 10
0.0
 20
0.0
 30
0.0
  0
LINE
  5
6D
  8
SUNPO
  6
実線
 10
74.429071906927447
 20
319.63964355223112
 30
0.0
 11
54.516433829932168
 21
319.63964355223112
 31
0.0
  0
LINE
  5
6E
  8
SUNPO
  6
実線
 10
74.429071906927447
 20
319.63964355223112
 30
0.0
 11
65.784123250282619
 21
319.63964355223112
 31
0.0
  0
LINE
  5
6F
  8
SUNPO
  6
実線
 10
66.784123250282605
 20
319.63964355223112
 30
0.0
 11
66.784123250282605
 21
324.63964355223101
 31
0.0
  0
CIRCLE
  5
70
  8
SUNPO
  6
実線
 10
66.784123250282605
 20
319.63964355223112
 30
0.0
 40
0.4000000059604787
  0
CIRCLE
  5
71
  8
SUNPO
  6
実線
 10
66.784123250282605
 20
324.63964355223101
 30
0.0
 40
0.4000000059604787
  0
INSERT
  5
72
  8
0
  6
CONTINUOUS
  2
*U36
 10
0.0
 20
0.0
 30
0.0
  0
LINE
  5
73
  8
SUNPO
  6
実線
 10
74.429071906927447
 20
324.63964355223101
 30
0.0
 11
65.784123250282619
 21
324.63964355223101
 31
0.0
  0
LINE
  5
74
  8
SUNPO
  6
実線
 10
66.784123250282605
 20
324.63964355223118
 30
0.0
 11
66.784123250282605
 21
338.63964355223129
 31
0.0
  0
CIRCLE
  5
75
  8
SUNPO
  6
実線
 10
66.784123250282605
 20
324.63964355223118
 30
0.0
 40
0.4000000059604787
  0
CIRCLE
  5
76
  8
SUNPO
  6
実線
 10
66.784123250282605
 20
338.63964355223129
 30
0.0
 40
0.4000000059604787
  0
INSERT
  5
77
  8
0
  6
CONTINUOUS
  2
*U37
 10
0.0
 20
0.0
 30
0.0
  0
LINE
  5
78
  8
SUNPO
  6
実線
 10
81.129071906927436
 20
338.63964355223118
 30
0.0
 11
65.784123250282619
 21
338.63964355223129
 31
0.0
  0
LINE
  5
79
  8
SUNPO
  6
実線
 10
66.784123250282605
 20
338.63964355223112
 30
0.0
 11
66.784123250282605
 21
398.63964355223101
 31
0.0
  0
CIRCLE
  5
7A
  8
SUNPO
  6
実線
 10
66.784123250282605
 20
338.63964355223112
 30
0.0
 40
0.4000000059604787
  0
CIRCLE
  5
7B
  8
SUNPO
  6
実線
 10
66.784123250282605
 20
398.63964355223101
 30
0.0
 40
0.4000000059604787
  0
INSERT
  5
7C
  8
0
  6
CONTINUOUS
  2
*U38
 10
0.0
 20
0.0
 30
0.0
  0
LINE
  5
7D
  8
SUNPO
  6
実線
 10
81.129071906927138
 20
398.63964355223101
 30
0.0
 11
65.784123250282619
 21
398.63964355223101
 31
0.0
  0
LINE
  5
7E
  8
SUNPO
  6
実線
 10
103.02907193076911
 20
344.63964355223112
 30
0.0
 11
111.47903148597111
 21
344.63964355223112
 31
0.0
  0
LINE
  5
7F
  8
SUNPO
  6
実線
 10
110.47903148597101
 20
345.24463236563128
 30
0.0
 11
110.47903148597101
 21
335.99463265173358
 31
0.0
  0
CIRCLE
  5
80
  8
SUNPO
  6
実線
 10
110.47903148597101
 20
344.63964355223112
 30
0.0
 40
0.4000000059604363
  0
CIRCLE
  5
81
  8
SUNPO
  6
実線
 10
110.47903148597101
 20
339.93964355223119
 30
0.0
 40
0.4000000059604363
  0
INSERT
  5
82
  8
0
  6
CONTINUOUS
  2
*U39
 10
0.0
 20
0.0
 30
0.0
  0
LINE
  5
83
  8
SUNPO
  6
実線
 10
101.72907193076929
 20
339.93964355223119
 30
0.0
 11
111.47903148597111
 21
339.93964355223119
 31
0.0
  0
LINE
  5
84
  8
SUNPO
  6
実線
 10
103.0290719307694
 20
344.63964355223101
 30
0.0
 11
120.3183492433579
 21
344.63964355223101
 31
0.0
  0
LINE
  5
85
  8
SUNPO
  6
実線
 10
119.318349243358
 20
344.63964355223112
 30
0.0
 11
119.318349243358
 21
319.63964355223112
 31
0.0
  0
CIRCLE
  5
86
  8
SUNPO
  6
実線
 10
119.318349243358
 20
344.63964355223112
 30
0.0
 40
0.4000000059604787
  0
CIRCLE
  5
87
  8
SUNPO
  6
実線
 10
119.318349243358
 20
319.63964355223112
 30
0.0
 40
0.4000000059604787
  0
INSERT
  5
88
  8
0
  6
CONTINUOUS
  2
*U40
 10
0.0
 20
0.0
 30
0.0
  0
LINE
  5
89
  8
SUNPO
  6
実線
 10
103.02907193076911
 20
319.63964355223112
 30
0.0
 11
120.3183492433579
 21
319.63964355223112
 31
0.0
  0
LINE
  5
151
  8
MAWARIBUCHI
  6
実線
 10
50.378073784514818
 20
511.62654130171012
 30
0.0
 11
80.378073784514982
 21
511.62654130171012
 31
0.0
  0
LINE
  5
152
  8
MAWARIBUCHI
  6
実線
 10
50.378073784514932
 20
511.62654130171012
 30
0.0
 11
50.378073784514932
 21
491.42654130171007
 31
0.0
  0
LINE
  5
153
  8
MAWARIBUCHI
  6
実線
 10
50.378073784514818
 20
491.4265413017099
 30
0.0
 11
65.378073784514854
 21
491.4265413017099
 31
0.0
  0
LINE
  5
154
  8
MAWARIBUCHI
  6
実線
 10
65.378073784514982
 20
491.42654130171007
 30
0.0
 11
65.378073784514982
 21
496.42654130171007
 31
0.0
  0
LINE
  5
155
  8
MAWARIBUCHI
  6
実線
 10
80.378073784514982
 20
510.42654125402618
 30
0.0
 11
51.578073832198641
 21
510.42654125402618
 31
0.0
  0
LINE
  5
156
  8
MAWARIBUCHI
  6
実線
 10
51.578073832198612
 20
510.42654125402612
 30
0.0
 11
51.578073832198612
 21
492.62654134939339
 31
0.0
  0
LINE
  5
157
  8
MAWARIBUCHI
  6
実線
 10
51.578073832198577
 20
492.62654134939339
 30
0.0
 11
64.178073736831152
 21
492.62654134939339
 31
0.0
  0
LINE
  5
158
  8
MAWARIBUCHI
  6
実線
 10
64.178073736831195
 20
492.62654134939379
 30
0.0
 11
64.178073736831195
 21
496.42654130171007
 31
0.0
  0
LINE
  5
159
  8
MAWARIBUCHI
  6
実線
 10
80.378073784514982
 20
511.62654130171012
 30
0.0
 11
80.378073784514982
 21
510.42654125402618
 31
0.0
  0
LINE
  5
15A
  8
MAWARIBUCHI
  6
実線
 10
64.178073736831195
 20
496.42654130171007
 30
0.0
 11
65.378073784514982
 21
496.42654130171007
 31
0.0
  0
LINE
  5
15B
  8
SUNPO
  6
実線
 10
81.178073796435854
 20
510.42654125402618
 30
0.0
 11
95.084717660589718
 21
510.42654125402618
 31
0.0
  0
LINE
  5
15C
  8
SUNPO
  6
実線
 10
94.084717660589703
 20
510.42654125402618
 30
0.0
 11
94.084717660589703
 21
496.42654130171007
 31
0.0
  0
CIRCLE
  5
15D
  8
SUNPO
  6
実線
 10
94.084717660589646
 20
510.42654125402618
 30
0.0
 40
0.4000000059603793
  0
CIRCLE
  5
15E
  8
SUNPO
  6
実線
 10
94.084717660589646
 20
496.42654130171007
 30
0.0
 40
0.4000000059603793
  0
INSERT
  5
15F
  8
0
  6
CONTINUOUS
  2
*U41
 10
0.0
 20
0.0
 30
0.0
  0
LINE
  5
160
  8
SUNPO
  6
実線
 10
66.178073796435854
 20
496.42654130170979
 30
0.0
 11
95.084717660589632
 21
496.42654130170979
 31
0.0
  0
LINE
  5
161
  8
SUNPO
  6
実線
 10
94.084717660589703
 20
496.42654130171007
 30
0.0
 11
94.084717660589703
 21
491.42654130171007
 31
0.0
  0
CIRCLE
  5
162
  8
SUNPO
  6
実線
 10
94.084717660589646
 20
496.42654130171007
 30
0.0
 40
0.4000000059603793
  0
CIRCLE
  5
163
  8
SUNPO
  6
実線
 10
94.084717660589646
 20
491.42654130171007
 30
0.0
 40
0.4000000059603793
  0
INSERT
  5
164
  8
0
  6
CONTINUOUS
  2
*U42
 10
0.0
 20
0.0
 30
0.0
  0
LINE
  5
165
  8
SUNPO
  6
実線
 10
66.178073796435783
 20
491.42654130171007
 30
0.0
 11
95.084717660589718
 21
491.42654130171007
 31
0.0
  0
LINE
  5
166
  8
SUNPO
  6
実線
 10
50.378073784514932
 20
490.62654128978892
 30
0.0
 11
50.378073784514932
 21
482.89587657594478
 31
0.0
  0
LINE
  5
167
  8
SUNPO
  6
実線
 10
50.378073784514861
 20
483.8958765759445
 30
0.0
 11
65.378073784514953
 21
483.8958765759445
 31
0.0
  0
CIRCLE
  5
168
  8
SUNPO
  6
実線
 10
50.378073784514932
 20
483.8958765759449
 30
0.0
 40
0.4000000059604645
  0
CIRCLE
  5
169
  8
SUNPO
  6
実線
 10
65.378073784514854
 20
483.8958765759449
 30
0.0
 40
0.4000000059604292
  0
INSERT
  5
16A
  8
0
  6
CONTINUOUS
  2
*U43
 10
0.0
 20
0.0
 30
0.0
  0
LINE
  5
16B
  8
SUNPO
  6
実線
 10
65.378073784514982
 20
490.62654128978892
 30
0.0
 11
65.378073784514982
 21
482.89587657594478
 31
0.0
  0
LINE
  5
16C
  8
SUNPO
  6
実線
 10
50.378073784514932
 20
490.62654128978892
 30
0.0
 11
50.378073784514932
 21
474.41910151282292
 31
0.0
  0
LINE
  5
16D
  8
SUNPO
  6
実線
 10
50.378073784514932
 20
475.41910151282281
 30
0.0
 11
80.378073784514982
 21
475.41910151282281
 31
0.0
  0
CIRCLE
  5
16E
  8
SUNPO
  6
実線
 10
50.378073784514932
 20
475.41910151282281
 30
0.0
 40
0.4000000059604645
  0
CIRCLE
  5
16F
  8
SUNPO
  6
実線
 10
80.378073784514939
 20
475.41910151282281
 30
0.0
 40
0.4000000059604787
  0
INSERT
  5
170
  8
0
  6
CONTINUOUS
  2
*U44
 10
0.0
 20
0.0
 30
0.0
  0
LINE
  5
171
  8
SUNPO
  6
実線
 10
80.378073784514982
 20
509.31888459894441
 30
0.0
 11
80.378073784514982
 21
474.41910151282292
 31
0.0
  0
LINE
  5
172
  8
MAWARIBUCHI
  6
実線
 10
180.06672676067259
 20
505.81364865483522
 30
0.0
 11
210.06672676067279
 21
505.81364865483522
 31
0.0
  0
LINE
  5
173
  8
MAWARIBUCHI
  6
実線
 10
180.06672676067279
 20
485.81364865483522
 30
0.0
 11
195.06672676067271
 21
485.81364865483522
 31
0.0
  0
LINE
  5
174
  8
MAWARIBUCHI
  6
実線
 10
195.06672676067271
 20
485.81364865483522
 30
0.0
 11
195.06672676067271
 21
490.81364865483522
 31
0.0
  0
LINE
  5
175
  8
MAWARIBUCHI
  6
実線
 10
210.06672676067279
 20
504.71364860715141
 30
0.0
 11
181.2667268083564
 21
504.71364860715141
 31
0.0
  0
LINE
  5
176
  8
MAWARIBUCHI
  6
実線
 10
181.2667268083564
 20
504.71364860715141
 30
0.0
 11
181.2667268083564
 21
487.01364870251882
 31
0.0
  0
LINE
  5
177
  8
MAWARIBUCHI
  6
実線
 10
181.2667268083564
 20
487.01364870251848
 30
0.0
 11
193.86672671298899
 21
487.01364870251848
 31
0.0
  0
LINE
  5
178
  8
MAWARIBUCHI
  6
実線
 10
193.86672671298899
 20
487.01364870251882
 30
0.0
 11
193.86672671298899
 21
490.81364865483522
 31
0.0
  0
LINE
  5
179
  8
MAWARIBUCHI
  6
実線
 10
210.06672676067279
 20
505.81364865483522
 30
0.0
 11
210.06672676067279
 21
504.71364860715141
 31
0.0
  0
LINE
  5
17A
  8
MAWARIBUCHI
  6
実線
 10
193.86672671298899
 20
490.81364865483522
 30
0.0
 11
195.06672676067271
 21
490.81364865483522
 31
0.0
  0
LINE
  5
17B
  8
MAWARIBUCHI
  6
実線
 10
180.06672676067279
 20
495.81364865483522
 30
0.0
 11
165.06672676067279
 21
495.81364865483522
 31
0.0
  0
LINE
  5
17C
  8
MAWARIBUCHI
  6
実線
 10
165.06672676067279
 20
497.01364865483509
 30
0.0
 11
180.06672676067279
 21
497.01364865483509
 31
0.0
  0
LINE
  5
17D
  8
MAWARIBUCHI
  6
実線
 10
165.06672676067271
 20
495.81364865483522
 30
0.0
 11
165.06672676067271
 21
497.01364865483521
 31
0.0
  0
LINE
  5
17E
  8
MAWARIBUCHI
  6
実線
 10
180.06672676067259
 20
495.81364865483522
 30
0.0
 11
180.06672676067259
 21
485.81364865483522
 31
0.0
  0
LINE
  5
17F
  8
MAWARIBUCHI
  6
実線
 10
180.06672676067259
 20
505.81364865483522
 30
0.0
 11
180.06672676067259
 21
497.01364865483521
 31
0.0
  0
LINE
  5
180
  8
SUNPO
  6
実線
 10
165.06672676067271
 20
495.01364864291412
 30
0.0
 11
165.06672676067271
 21
469.27967528575658
 31
0.0
  0
LINE
  5
181
  8
SUNPO
  6
実線
 10
165.06672676067271
 20
470.27967528575698
 30
0.0
 11
210.06672676067279
 21
470.27967528575698
 31
0.0
  0
CIRCLE
  5
182
  8
SUNPO
  6
実線
 10
165.06672676067271
 20
470.27967528575698
 30
0.0
 40
0.4000000059604716
  0
CIRCLE
  5
183
  8
SUNPO
  6
実線
 10
210.06672676067271
 20
470.27967528575698
 30
0.0
 40
0.4000000059604787
  0
INSERT
  5
184
  8
0
  6
CONTINUOUS
  2
*U45
 10
0.0
 20
0.0
 30
0.0
  0
LINE
  5
185
  8
SUNPO
  6
実線
 10
210.06672676067279
 20
503.9136485952306
 30
0.0
 11
210.06672676067279
 21
469.27967528575658
 31
0.0
  0
LINE
  5
186
  8
SUNPO
  6
実線
 10
165.06672676067271
 20
495.01364864291412
 30
0.0
 11
165.06672676067271
 21
476.26942601872008
 31
0.0
  0
LINE
  5
187
  8
SUNPO
  6
実線
 10
165.06672676067271
 20
477.26942601872008
 30
0.0
 11
180.06672676067259
 21
477.26942601872008
 31
0.0
  0
CIRCLE
  5
188
  8
SUNPO
  6
実線
 10
165.06672676067271
 20
477.26942601872008
 30
0.0
 40
0.4000000059604716
  0
CIRCLE
  5
189
  8
SUNPO
  6
実線
 10
180.06672676067259
 20
477.26942601872008
 30
0.0
 40
0.4000000059604645
  0
INSERT
  5
18A
  8
0
  6
CONTINUOUS
  2
*U46
 10
0.0
 20
0.0
 30
0.0
  0
LINE
  5
18B
  8
SUNPO
  6
実線
 10
180.06672676067259
 20
485.01364864291418
 30
0.0
 11
180.06672676067259
 21
476.26942601872008
 31
0.0
  0
LINE
  5
18C
  8
SUNPO
  6
実線
 10
180.06672676067259
 20
477.26942601872008
 30
0.0
 11
195.06672676067271
 21
477.26942601872008
 31
0.0
  0
CIRCLE
  5
18D
  8
SUNPO
  6
実線
 10
180.06672676067259
 20
477.26942601872008
 30
0.0
 40
0.4000000059604645
  0
CIRCLE
  5
18E
  8
SUNPO
  6
実線
 10
195.06672676067271
 20
477.26942601872008
 30
0.0
 40
0.4000000059604575
  0
INSERT
  5
18F
  8
0
  6
CONTINUOUS
  2
*U47
 10
0.0
 20
0.0
 30
0.0
  0
LINE
  5
190
  8
SUNPO
  6
実線
 10
195.06672676067271
 20
485.01364864291418
 30
0.0
 11
195.06672676067271
 21
476.26942601872008
 31
0.0
  0
LINE
  5
191
  8
SUNPO
  6
実線
 10
172.8960954256255
 20
495.81364865483522
 30
0.0
 11
172.8960954256255
 21
485.81364865483522
 31
0.0
  0
CIRCLE
  5
192
  8
SUNPO
  6
実線
 10
172.8960954256255
 20
495.81364865483522
 30
0.0
 40
0.4000000059604645
  0
CIRCLE
  5
193
  8
SUNPO
  6
実線
 10
172.8960954256255
 20
485.81364865483522
 30
0.0
 40
0.4000000059604645
  0
INSERT
  5
194
  8
0
  6
CONTINUOUS
  2
*U48
 10
0.0
 20
0.0
 30
0.0
  0
LINE
  5
195
  8
SUNPO
  6
実線
 10
179.26672674875181
 20
485.81364865483499
 30
0.0
 11
171.89609542562539
 21
485.81364865483499
 31
0.0
  0
LINE
  5
196
  8
SUNPO
  6
実線
 10
210.86672677259369
 20
504.71364860715141
 30
0.0
 11
222.4372462849887
 21
504.71364860715141
 31
0.0
  0
LINE
  5
197
  8
SUNPO
  6
実線
 10
221.43724628498859
 20
504.71364860715141
 30
0.0
 11
221.43724628498859
 21
490.81364865483522
 31
0.0
  0
CIRCLE
  5
198
  8
SUNPO
  6
実線
 10
221.43724628498859
 20
504.71364860715141
 30
0.0
 40
0.4000000059604858
  0
CIRCLE
  5
199
  8
SUNPO
  6
実線
 10
221.43724628498859
 20
490.81364865483522
 30
0.0
 40
0.4000000059604858
  0
INSERT
  5
19A
  8
0
  6
CONTINUOUS
  2
*U49
 10
0.0
 20
0.0
 30
0.0
  0
LINE
  5
19B
  8
SUNPO
  6
実線
 10
195.86672677259361
 20
490.81364865483522
 30
0.0
 11
222.4372462849887
 21
490.81364865483522
 31
0.0
  0
LINE
  5
19C
  8
SUNPO
  6
実線
 10
221.43724628498859
 20
490.81364865483522
 30
0.0
 11
221.43724628498859
 21
485.81364865483522
 31
0.0
  0
CIRCLE
  5
19D
  8
SUNPO
  6
実線
 10
221.43724628498859
 20
490.81364865483522
 30
0.0
 40
0.4000000059604858
  0
CIRCLE
  5
19E
  8
SUNPO
  6
実線
 10
221.43724628498859
 20
485.81364865483522
 30
0.0
 40
0.4000000059604858
  0
INSERT
  5
19F
  8
0
  6
CONTINUOUS
  2
*U50
 10
0.0
 20
0.0
 30
0.0
  0
LINE
  5
1A0
  8
SUNPO
  6
実線
 10
195.86672677259361
 20
485.81364865483522
 30
0.0
 11
222.4372462849887
 21
485.81364865483522
 31
0.0
  0
LINE
  5
1BD
  8
MAWARIBUCHI
  6
実線
 10
303.6899419853163
 20
498.65506993773118
 30
0.0
 11
343.68994198531618
 21
498.65506993773118
 31
0.0
  0
LINE
  5
1BE
  8
MAWARIBUCHI
  6
実線
 10
313.68994198531612
 20
480.45506993773142
 30
0.0
 11
333.68994198531612
 21
480.45506993773142
 31
0.0
  0
LINE
  5
1BF
  8
MAWARIBUCHI
  6
実線
 10
323.0899419853161
 20
497.45506993773142
 30
0.0
 11
323.0899419853161
 21
481.65506993773118
 31
0.0
  0
LINE
  5
1C0
  8
MAWARIBUCHI
  6
実線
 10
324.2899419853162
 20
497.45506993773142
 30
0.0
 11
324.2899419853162
 21
481.65506993773118
 31
0.0
  0
LINE
  5
1C1
  8
MAWARIBUCHI
  6
実線
 10
303.6899419853163
 20
498.65506993773118
 30
0.0
 11
303.6899419853163
 21
497.45506993773142
 31
0.0
  0
LINE
  5
1C2
  8
MAWARIBUCHI
  6
実線
 10
343.68994198531618
 20
498.65506993773118
 30
0.0
 11
343.68994198531618
 21
497.45506993773142
 31
0.0
  0
LINE
  5
1C3
  8
MAWARIBUCHI
  6
実線
 10
333.6899419853163
 20
483.45506993773142
 30
0.0
 11
333.6899419853163
 21
480.45506993773142
 31
0.0
  0
LINE
  5
1C4
  8
MAWARIBUCHI
  6
実線
 10
313.6899419853163
 20
483.45506993773142
 30
0.0
 11
313.6899419853163
 21
480.45506993773142
 31
0.0
  0
LINE
  5
1C5
  8
MAWARIBUCHI
  6
実線
 10
303.6899419853163
 20
497.45506993773142
 30
0.0
 11
323.0899419853161
 21
497.45506993773142
 31
0.0
  0
LINE
  5
1C6
  8
MAWARIBUCHI
  6
実線
 10
324.2899419853162
 20
497.45506993773142
 30
0.0
 11
343.68994198531618
 21
497.45506993773142
 31
0.0
  0
LINE
  5
1C7
  8
MAWARIBUCHI
  6
実線
 10
314.88994198531623
 20
481.65506993773118
 30
0.0
 11
323.0899419853161
 21
481.65506993773118
 31
0.0
  0
LINE
  5
1C8
  8
MAWARIBUCHI
  6
実線
 10
324.2899419853162
 20
481.65506993773118
 30
0.0
 11
332.4799419853162
 21
481.65506993773118
 31
0.0
  0
LINE
  5
1C9
  8
MAWARIBUCHI
  6
実線
 10
314.88994198531623
 20
483.45506993773142
 30
0.0
 11
314.88994198531623
 21
481.65506993773118
 31
0.0
  0
LINE
  5
1CA
  8
MAWARIBUCHI
  6
実線
 10
332.4799419853162
 20
483.45506993773142
 30
0.0
 11
332.4799419853162
 21
481.65506993773118
 31
0.0
  0
LINE
  5
1CB
  8
MAWARIBUCHI
  6
実線
 10
313.6899419853163
 20
483.45506993773142
 30
0.0
 11
314.88994198531623
 21
483.45506993773142
 31
0.0
  0
LINE
  5
1CC
  8
MAWARIBUCHI
  6
実線
 10
332.4799419853162
 20
483.45506993773142
 30
0.0
 11
333.6899419853163
 21
483.45506993773142
 31
0.0
  0
LINE
  5
1CD
  8
SUNPO
  6
実線
 10
313.6899419853163
 20
479.65506992581032
 30
0.0
 11
313.6899419853163
 21
470.73848175983079
 31
0.0
  0
LINE
  5
1CE
  8
SUNPO
  6
実線
 10
313.6899419853163
 20
471.73848175983079
 30
0.0
 11
333.6899419853163
 21
471.73848175983079
 31
0.0
  0
CIRCLE
  5
1CF
  8
SUNPO
  6
実線
 10
313.6899419853163
 20
471.73848175983079
 30
0.0
 40
0.4000000059605355
  0
CIRCLE
  5
1D0
  8
SUNPO
  6
実線
 10
333.68994198531618
 20
471.73848175983079
 30
0.0
 40
0.4000000059604218
  0
INSERT
  5
1D1
  8
0
  6
CONTINUOUS
  2
*U51
 10
0.0
 20
0.0
 30
0.0
  0
LINE
  5
1D2
  8
SUNPO
  6
実線
 10
333.6899419853163
 20
479.65506992581032
 30
0.0
 11
333.6899419853163
 21
470.73848175983079
 31
0.0
  0
LINE
  5
1D3
  8
SUNPO
  6
実線
 10
303.6899419853163
 20
499.4550699496524
 30
0.0
 11
303.6899419853163
 21
506.51332171392369
 31
0.0
  0
LINE
  5
1D4
  8
SUNPO
  6
実線
 10
303.6899419853163
 20
505.51332171392369
 30
0.0
 11
343.68994198531618
 21
505.51332171392369
 31
0.0
  0
CIRCLE
  5
1D5
  8
SUNPO
  6
実線
 10
303.68994198531618
 20
505.51332171392369
 30
0.0
 40
0.4000000059604787
  0
CIRCLE
  5
1D6
  8
SUNPO
  6
実線
 10
343.68994198531618
 20
505.51332171392369
 30
0.0
 40
0.4000000059604787
  0
INSERT
  5
1D7
  8
0
  6
CONTINUOUS
  2
*U52
 10
0.0
 20
0.0
 30
0.0
  0
LINE
  5
1D8
  8
SUNPO
  6
実線
 10
343.68994198531618
 20
499.4550699496524
 30
0.0
 11
343.68994198531618
 21
506.51332171392369
 31
0.0
  0
LINE
  5
1D9
  8
SUNPO
  6
実線
 10
344.489941997237
 20
497.45506993773142
 30
0.0
 11
355.96053793476148
 21
497.45506993773142
 31
0.0
  0
LINE
  5
1DA
  8
SUNPO
  6
実線
 10
354.96053793476148
 20
497.45506993773142
 30
0.0
 11
354.96053793476148
 21
483.45506993773142
 31
0.0
  0
CIRCLE
  5
1DB
  8
SUNPO
  6
実線
 10
354.96053793476148
 20
497.45506993773142
 30
0.0
 40
0.4000000059605355
  0
CIRCLE
  5
1DC
  8
SUNPO
  6
実線
 10
354.96053793476148
 20
483.45506993773142
 30
0.0
 40
0.4000000059605355
  0
INSERT
  5
1DD
  8
0
  6
CONTINUOUS
  2
*U53
 10
0.0
 20
0.0
 30
0.0
  0
LINE
  5
1DE
  8
SUNPO
  6
実線
 10
334.489941997237
 20
483.45506993773142
 30
0.0
 11
355.96053793476148
 21
483.45506993773142
 31
0.0
  0
LINE
  5
1DF
  8
SUNPO
  6
実線
 10
354.96053793476148
 20
483.45506993773142
 30
0.0
 11
354.96053793476148
 21
475.77899209501902
 31
0.0
  0
CIRCLE
  5
1E0
  8
SUNPO
  6
実線
 10
354.96053793476148
 20
483.45506993773142
 30
0.0
 40
0.4000000059605355
  0
CIRCLE
  5
1E1
  8
SUNPO
  6
実線
 10
354.96053793476148
 20
480.45506993773142
 30
0.0
 40
0.4000000059605355
  0
INSERT
  5
1E2
  8
0
  6
CONTINUOUS
  2
*U54
 10
0.0
 20
0.0
 30
0.0
  0
LINE
  5
1E3
  8
SUNPO
  6
実線
 10
334.489941997237
 20
480.45506993773142
 30
0.0
 11
355.96053793476148
 21
480.45506993773142
 31
0.0
  0
LINE
  5
250
  8
MAWARIBUCHI
  6
実線
 10
480.51296091632622
 20
483.57938721469509
 30
0.0
 11
480.51296091632219
 21
463.03502213330052
 31
0.0
  0
LINE
  5
251
  8
MAWARIBUCHI
  6
実線
 10
478.71296091632621
 20
483.5793872146956
 30
0.0
 11
478.71296091632632
 21
484.77938721469548
 31
0.0
  0
LINE
  5
252
  8
MAWARIBUCHI
  6
実線
 10
463.51296091632491
 20
477.97938721466159
 30
0.0
 11
463.51296091633128
 21
509.77938721469837
 31
0.0
  0
LINE
  5
253
  8
MAWARIBUCHI
  6
実線
 10
481.21296091632121
 20
459.77938721469502
 30
0.0
 11
456.71296091632138
 21
459.77938721470002
 31
0.0
  0
LINE
  5
254
  8
MAWARIBUCHI
  6
実線
 10
481.71296091632621
 20
484.77938721469502
 30
0.0
 11
478.71296091632632
 21
484.77938721469542
 31
0.0
  0
LINE
  5
255
  8
MAWARIBUCHI
  6
実線
 10
480.51296091632571
 20
483.57938721469509
 30
0.0
 11
478.71296091632593
 21
483.5793872146956
 31
0.0
  0
LINE
  5
256
  8
MAWARIBUCHI
  6
実線
 10
464.71296091632507
 20
477.62791535208731
 30
0.0
 11
479.6594075257288
 21
462.68146874270741
 31
0.0
  0
LINE
  5
257
  8
MAWARIBUCHI
  6
実線
 10
464.71296091633121
 20
509.7793872146982
 30
0.0
 11
463.51296091633088
 21
509.77938721469837
 31
0.0
  0
ARC
  5
258
  8
MAWARIBUCHI
  6
実線
 10
464.71296091632888
 20
499.77938721469809
 30
0.0
 40
0.3
 50
89.999999999990223
 51
269.99999999999022
  0
LINE
  5
259
  8
MAWARIBUCHI
  6
実線
 10
464.71296091632502
 20
477.6279153520872
 30
0.0
 11
464.71296091632922
 21
499.47938721469637
 31
0.0
  0
LINE
  5
25A
  8
MAWARIBUCHI
  6
実線
 10
464.71296091632922
 20
500.07938721469992
 30
0.0
 11
464.71296091633121
 21
509.7793872146982
 31
0.0
  0
ARC
  5
25B
  8
MAWARIBUCHI
  6
実線
 10
480.01296091632179
 20
463.03502213330069
 30
0.0
 40
0.5
 50
225.00000000004599
 51
359.99999999998857
  0
LINE
  5
25C
  8
MAWARIBUCHI
  6
実線
 10
457.91296091631909
 20
460.97938721465169
 30
0.0
 11
478.45732599771372
 21
460.9793872146891
 31
0.0
  0
LINE
  5
25D
  8
MAWARIBUCHI
  6
実線
 10
457.91296091631591
 20
462.77938721465188
 30
0.0
 11
456.71296091631569
 21
462.7793872146496
 31
0.0
  0
LINE
  5
25E
  8
MAWARIBUCHI
  6
実線
 10
463.51296091632469
 20
477.97938721466193
 30
0.0
 11
431.71296091628818
 21
477.97938721460429
 31
0.0
  0
LINE
  5
25F
  8
MAWARIBUCHI
  6
実線
 10
481.71296091632018
 20
460.2793872146961
 30
0.0
 11
481.71296091627579
 21
484.77938721469508
 31
0.0
  0
LINE
  5
260
  8
MAWARIBUCHI
  6
実線
 10
456.71296091632138
 20
459.77938721464977
 30
0.0
 11
456.71296091631569
 21
462.77938721464977
 31
0.0
  0
LINE
  5
261
  8
MAWARIBUCHI
  6
実線
 10
457.91296091631909
 20
460.97938721465192
 30
0.0
 11
457.91296091631591
 21
462.77938721465159
 31
0.0
  0
LINE
  5
262
  8
MAWARIBUCHI
  6
実線
 10
463.86443277890157
 20
476.77938721466268
 30
0.0
 11
478.81087938830569
 21
461.83294060528272
 31
0.0
  0
LINE
  5
263
  8
MAWARIBUCHI
  6
実線
 10
431.71296091629023
 20
476.77938721460418
 30
0.0
 11
431.71296091628818
 21
477.9793872146044
 31
0.0
  0
ARC
  5
264
  8
MAWARIBUCHI
  6
実線
 10
441.7129609162904
 20
476.77938721462249
 30
0.0
 40
0.3
 50
0.0000000001042204
 51
180.00000000010419
  0
LINE
  5
265
  8
MAWARIBUCHI
  6
実線
 10
463.8644327789014
 20
476.77938721466268
 30
0.0
 11
442.012960916292
 21
476.77938721462289
 31
0.0
  0
LINE
  5
266
  8
MAWARIBUCHI
  6
実線
 10
441.41296091628868
 20
476.77938721462209
 30
0.0
 11
431.71296091629029
 21
476.77938721460441
 31
0.0
  0
ARC
  5
267
  8
MAWARIBUCHI
  6
実線
 10
478.45732599771281
 20
461.47938721468893
 30
0.0
 40
0.5
 50
270.00000000010419
 51
45.000000000046057
  0
ARC
  5
268
  8
MAWARIBUCHI
  6
実線
 10
481.21296091632138
 20
460.27938721469502
 30
0.0
 40
0.5
 50
269.99999999999022
 51
359.99999999998857
  0
LINE
  5
269
  8
SUNPO
  6
実線
 10
464.71296091633133
 20
510.57938722661908
 30
0.0
 11
464.71296091633269
 21
518.07239990343373
 31
0.0
  0
LINE
  5
26A
  8
SUNPO
  6
実線
 10
464.71296091633252
 20
517.07239990343407
 30
0.0
 11
478.71296091633269
 21
517.07239990343123
 31
0.0
  0
CIRCLE
  5
26B
  8
SUNPO
  6
実線
 10
464.71296091633252
 20
517.07239990343407
 30
0.0
 40
0.4000000059604929
  0
CIRCLE
  5
26C
  8
SUNPO
  6
実線
 10
478.71296091633229
 20
517.07239990343123
 30
0.0
 40
0.4000000059605355
  0
INSERT
  5
26D
  8
0
  6
CONTINUOUS
  2
*U55
 10
0.0
 20
0.0
 30
0.0
  0
LINE
  5
26E
  8
SUNPO
  6
実線
 10
478.71296091632638
 20
485.57938722661618
 30
0.0
 11
478.7129609163328
 21
518.07239990343089
 31
0.0
  0
LINE
  5
26F
  8
SUNPO
  6
実線
 10
478.71296091633269
 20
517.07239990343123
 30
0.0
 11
486.41734572005419
 21
517.07239990342975
 31
0.0
  0
CIRCLE
  5
270
  8
SUNPO
  6
実線
 10
478.71296091633229
 20
517.07239990343123
 30
0.0
 40
0.4000000059605355
  0
CIRCLE
  5
271
  8
SUNPO
  6
実線
 10
481.71296091628233
 20
517.07239990343066
 30
0.0
 40
0.4000000059604363
  0
INSERT
  5
272
  8
0
  6
CONTINUOUS
  2
*U56
 10
0.0
 20
0.0
 30
0.0
  0
LINE
  5
273
  8
SUNPO
  6
実線
 10
481.71296091627607
 20
485.57938722661572
 30
0.0
 11
481.71296091628238
 21
518.07239990343055
 31
0.0
  0
LINE
  5
274
  8
SUNPO
  6
実線
 10
430.91296090436953
 20
476.77938721460441
 30
0.0
 11
421.94329877257121
 21
476.77938721460629
 31
0.0
  0
LINE
  5
275
  8
SUNPO
  6
実線
 10
422.9432987725711
 20
476.77938721460589
 30
0.0
 11
422.94329877256848
 21
462.77938721465603
 31
0.0
  0
CIRCLE
  5
276
  8
SUNPO
  6
実線
 10
422.94329877257121
 20
476.77938721460589
 30
0.0
 40
0.4000000059604363
  0
CIRCLE
  5
277
  8
SUNPO
  6
実線
 10
422.94329877256848
 20
462.77938721465603
 30
0.0
 40
0.4000000059605355
  0
INSERT
  5
278
  8
0
  6
CONTINUOUS
  2
*U57
 10
0.0
 20
0.0
 30
0.0
  0
LINE
  5
279
  8
SUNPO
  6
実線
 10
455.91296090439482
 20
462.7793872146496
 30
0.0
 11
421.94329877256831
 21
462.77938721465642
 31
0.0
  0
LINE
  5
27A
  8
SUNPO
  6
実線
 10
422.94329877256848
 20
462.77938721465603
 30
0.0
 11
422.94329877256689
 21
454.92331240467831
 31
0.0
  0
CIRCLE
  5
27B
  8
SUNPO
  6
実線
 10
422.94329877256848
 20
462.77938721465603
 30
0.0
 40
0.4000000059605355
  0
CIRCLE
  5
27C
  8
SUNPO
  6
実線
 10
422.9432987725678
 20
459.77938721470639
 30
0.0
 40
0.4000000059604218
  0
INSERT
  5
27D
  8
0
  6
CONTINUOUS
  2
*U58
 10
0.0
 20
0.0
 30
0.0
  0
LINE
  5
27E
  8
SUNPO
  6
実線
 10
455.91296090440039
 20
459.77938721470008
 30
0.0
 11
421.9432987725678
 21
459.7793872147065
 31
0.0
  0
LINE
  5
27F
  8
SUNPO
  6
実線
 10
481.71296091632018
 20
459.47938720277472
 30
0.0
 11
481.71296091631859
 21
450.36093659535749
 31
0.0
  0
LINE
  5
280
  8
SUNPO
  6
実線
 10
481.71296091631859
 20
451.36093659535811
 30
0.0
 11
456.7129609163137
 21
451.36093659536289
 31
0.0
  0
CIRCLE
  5
281
  8
SUNPO
  6
実線
 10
481.71296091631859
 20
451.36093659535811
 30
0.0
 40
0.4000000059604929
  0
CIRCLE
  5
282
  8
SUNPO
  6
実線
 10
456.71296091631342
 20
451.36093659536289
 30
0.0
 40
0.4000000059604787
  0
INSERT
  5
283
  8
0
  6
CONTINUOUS
  2
*U59
 10
0.0
 20
0.0
 30
0.0
  0
LINE
  5
284
  8
SUNPO
  6
実線
 10
456.71296091632053
 20
458.9793872027289
 30
0.0
 11
456.7129609163128
 21
450.36093659536289
 31
0.0
  0
LINE
  5
285
  8
SUNPO
  6
実線
 10
481.71296091632018
 20
459.47938720277477
 30
0.0
 11
481.71296091631672
 21
441.48033855258558
 31
0.0
  0
LINE
  5
286
  8
SUNPO
  6
実線
 10
481.71296091631672
 20
442.48033855258569
 30
0.0
 11
431.7129609162813
 21
442.48033855259541
 31
0.0
  0
CIRCLE
  5
287
  8
SUNPO
  6
実線
 10
481.71296091631672
 20
442.48033855258569
 30
0.0
 40
0.4000000059604787
  0
CIRCLE
  5
288
  8
SUNPO
  6
実線
 10
431.7129609162813
 20
442.48033855259558
 30
0.0
 40
0.4000000059604363
  0
INSERT
  5
289
  8
0
  6
CONTINUOUS
  2
*U60
 10
0.0
 20
0.0
 30
0.0
  0
LINE
  5
28A
  8
SUNPO
  6
実線
 10
431.71296091629011
 20
475.97938720268331
 30
0.0
 11
431.7129609162813
 21
441.48033855259553
 31
0.0
  0
LINE
  5
28B
  8
SUNPO
  6
実線
 10
482.01296092824219
 20
459.77938721469502
 30
0.0
 11
490.38168806487607
 21
459.77938721469309
 31
0.0
  0
LINE
  5
28C
  8
SUNPO
  6
実線
 10
489.38168806487619
 20
459.77938721469309
 30
0.0
 11
489.38168806488108
 21
484.77938721469337
 31
0.0
  0
CIRCLE
  5
28D
  8
SUNPO
  6
実線
 10
489.38168806487619
 20
459.77938721469309
 30
0.0
 40
0.4000000059604787
  0
CIRCLE
  5
28E
  8
SUNPO
  6
実線
 10
489.38168806488108
 20
484.77938721469309
 30
0.0
 40
0.4000000059604787
  0
INSERT
  5
28F
  8
0
  6
CONTINUOUS
  2
*U61
 10
0.0
 20
0.0
 30
0.0
  0
LINE
  5
290
  8
SUNPO
  6
実線
 10
482.51296092824708
 20
484.77938721469479
 30
0.0
 11
490.38168806488108
 21
484.77938721469309
 31
0.0
  0
LINE
  5
291
  8
SUNPO
  6
実線
 10
465.51296092825203
 20
509.7793872146982
 30
0.0
 11
499.00732153852738
 21
509.77938721469161
 31
0.0
  0
LINE
  5
292
  8
SUNPO
  6
実線
 10
498.00732153852749
 20
509.77938721469172
 30
0.0
 11
498.00732153851777
 21
459.77938721469172
 31
0.0
  0
CIRCLE
  5
293
  8
SUNPO
  6
実線
 10
498.00732153852738
 20
509.77938721469161
 30
0.0
 40
0.4000000059605355
  0
CIRCLE
  5
294
  8
SUNPO
  6
実線
 10
498.0073215385176
 20
459.77938721469161
 30
0.0
 40
0.4000000059604218
  0
INSERT
  5
295
  8
0
  6
CONTINUOUS
  2
*U62
 10
0.0
 20
0.0
 30
0.0
  0
LINE
  5
296
  8
SUNPO
  6
実線
 10
482.01296092824219
 20
459.77938721469508
 30
0.0
 11
499.00732153851771
 21
459.77938721469161
 31
0.0
  0
INSERT
  5
297
  8
0
  6
CONTINUOUS
  2
*U63
 10
0.0
 20
0.0
 30
0.0
  0
INSERT
  5
298
  8
0
  6
CONTINUOUS
  2
*U64
 10
0.0
 20
0.0
 30
0.0
  0
INSERT
  5
29A
  8
0
  6
CONTINUOUS
  2
*U65
 10
0.0
 20
0.0
 30
0.0
  0
INSERT
  5
29C
  8
0
  6
CONTINUOUS
  2
*U66
 10
0.0
 20
0.0
 30
0.0
  0
INSERT
  5
32E
  8
0
  6
CONTINUOUS
  2
*U67
 10
0.0
 20
0.0
 30
0.0
  0
LINE
  5
39B
  8
MAWARIBUCHI
  6
実線
 10
82.929071918890486
 20
368.63964355220099
 30
0.0
 11
83.229071918890668
 21
368.93964355220112
 31
0.0
  0
LINE
  5
39C
  8
MAWARIBUCHI
  6
実線
 10
82.929071918890656
 20
368.63964355228012
 30
0.0
 11
83.229071918890952
 21
368.33964355228022
 31
0.0
  0
INSERT
  5
39D
  8
0
  6
CONTINUOUS
  2
*U68
 10
0.0
 20
0.0
 30
0.0
  0
INSERT
  5
39E
  8
0
  6
CONTINUOUS
  2
*U69
 10
0.0
 20
0.0
 30
0.0
  0
DIMENSION
  5
3AA
  8
SUNPO
  6
CONTINUOUS
  2
*D13
 10
217.88906544676689
 20
335.70779087439399
 30
0.0
 11
202.6390654467674
 21
335.70779087439399
 31
0.0
 70
   128
  1
\A1;30.5
 13
187.3890654467676
 23
349.92196345353221
 33
0.0
 14
217.88906544676689
 24
349.9219634535317
 34
0.0
1001
ACAD
1000
DSTYLE
1002
{
1070
   173
1070
     1
1070
     6
1000
_DOT
1070
     7
1000
_DOT
1070
    41
1040
1.0
1002
}
  0
DIMENSION
  5
3B3
  8
SUNPO
  6
CONTINUOUS
  2
*D14
 10
231.4536231658291
 20
384.92196345353199
 30
0.0
 11
231.4536231658291
 21
369.6719634535325
 31
0.0
 70
   128
  1
\A1;30.5
 13
222.389065446768
 23
354.4219634535329
 33
0.0
 14
222.38906544676789
 24
384.92196345353199
 34
0.0
 50
90.0
1001
ACAD
1000
DSTYLE
1002
{
1070
   173
1070
     1
1070
     6
1000
_DOT
1070
     7
1000
_DOT
1070
    41
1040
1.0
1002
}
  0
DIMENSION
  5
3BC
  8
SUNPO
  6
CONTINUOUS
  2
*D15
 10
162.20098052443549
 20
366.92196340584871
 30
0.0
 11
162.20098052443541
 21
359.92196342969038
 31
0.0
 70
   128
  1
\A1;14
 13
187.3890654467676
 23
352.9219634535321
 33
0.0
 14
172.3890654467676
 24
366.92196340584871
 34
0.0
 50
90.0
1001
ACAD
1000
DSTYLE
1002
{
1070
   173
1070
     1
1070
     6
1000
_DOT
1070
     7
1000
_DOT
1070
    41
1040
1.0
1002
}
  0
DIMENSION
  5
3C7
  8
SUNPO
  6
CONTINUOUS
  2
*D16
 10
162.20098052443541
 20
352.9219634535321
 30
0.0
 11
162.20098052443529
 21
345.68680894012959
 31
0.0
 70
   128
  1
\A1;3
 13
187.389065446768
 23
349.92196345353221
 33
0.0
 14
187.3890654467676
 24
352.9219634535321
 34
0.0
 50
90.0
1001
ACAD
1000
DSTYLE
1002
{
1070
   287
1070
     0
1070
   173
1070
     1
1070
     6
1000
_DOT
1070
     7
1000
_DOT
1070
    41
1040
1.0
1070
   289
1070
     0
1002
}
  0
DIMENSION
  5
3D0
  8
SUNPO
  6
CONTINUOUS
  2
*D17
 10
202.3890654467676
 20
377.32012520447711
 30
0.0
 11
187.3890654467676
 21
377.32012520447711
 31
0.0
 70
   128
  1
\A1;30
 13
172.3890654467676
 23
368.12196345353249
 33
0.0
 14
202.3890654467676
 24
368.12196345353249
 34
0.0
1001
ACAD
1000
DSTYLE
1002
{
1070
   173
1070
     1
1070
     6
1000
_DOT
1070
     7
1000
_DOT
1070
    41
1040
1.0
1002
}
  0
DIMENSION
  5
3D9
  8
SUNPO
  6
CONTINUOUS
  2
*D18
 10
287.053114886017
 20
368.91212936227362
 30
0.0
 11
287.05311488601689
 21
353.91212936227362
 31
0.0
 70
   128
  1
\A1;30
 13
299.56167235936238
 23
338.91212936227362
 33
0.0
 14
299.56167235936221
 24
368.91212936227362
 34
0.0
 50
90.0
1001
ACAD
1000
DSTYLE
1002
{
1070
   173
1070
     1
1070
     6
1000
_DOT
1070
     7
1000
_DOT
1070
    41
1040
1.0
1002
}
  0
DIMENSION
  5
3E2
  8
SUNPO
  6
CONTINUOUS
  2
*D19
 10
337.76167235936219
 20
329.96087957188632
 30
0.0
 11
327.7616723593618
 21
329.96087957188632
 31
0.0
 70
   128
  1
\A1;20
 13
317.7616723593618
 23
353.91212936227362
 33
0.0
 14
337.76167235936219
 24
373.91212936227362
 34
0.0
1001
ACAD
1000
DSTYLE
1002
{
1070
   173
1070
     1
1070
     6
1000
_DOT
1070
     7
1000
_DOT
1070
    41
1040
1.0
1002
}
  0
DIMENSION
  5
3ED
  8
SUNPO
  6
CONTINUOUS
  2
*D20
 10
317.7616723593618
 20
329.96087957188632
 30
0.0
 11
323.40311070019339
 21
329.96087957188632
 31
0.0
 70
   128
  1
\A1;3
 13
314.76167235936219
 23
353.91212936227362
 33
0.0
 14
317.7616723593618
 24
353.91212936227362
 34
0.0
1001
ACAD
1000
DSTYLE
1002
{
1070
   287
1070
     0
1070
   173
1070
     1
1070
     6
1000
_DOT
1070
     7
1000
_DOT
1070
    41
1040
1.0
1070
   289
1070
     0
1002
}
  0
DIMENSION
  5
3F6
  8
SUNPO
  6
CONTINUOUS
  2
*D21
 10
314.76167235936219
 20
329.96087957188632
 30
0.0
 11
307.76167238320397
 21
329.96087957188632
 31
0.0
 70
   128
  1
\A1;14
 13
300.76167240704558
 23
338.91212936227362
 33
0.0
 14
314.76167235936219
 24
353.91212936227362
 34
0.0
1001
ACAD
1000
DSTYLE
1002
{
1070
   173
1070
     1
1070
     6
1000
_DOT
1070
     7
1000
_DOT
1070
    41
1040
1.0
1002
}
  0
DIMENSION
  5
3FF
  8
SUNPO
  6
CONTINUOUS
  2
*D22
 10
352.76167235936202
 20
406.61184347073453
 30
0.0
 11
337.76167235936219
 21
406.61184347073453
 31
0.0
 70
   128
  1
\A1;30
 13
322.76167235936242
 23
392.11212936227378
 33
0.0
 14
352.76167235936202
 24
392.11212936227378
 34
0.0
1001
ACAD
1000
DSTYLE
1002
{
1070
   173
1070
     1
1070
     6
1000
_DOT
1070
     7
1000
_DOT
1070
    41
1040
1.0
1002
}
  0
DIMENSION
  5
408
  8
SUNPO
  6
CONTINUOUS
  2
*D23
 10
360.33057949296108
 20
390.91212931459
 30
0.0
 11
360.33057949296102
 21
383.91212933843173
 31
0.0
 70
   128
  1
\A1;14
 13
337.76167235936202
 23
376.9121293622735
 33
0.0
 14
352.76167235936208
 24
390.91212931459
 34
0.0
 50
90.0
1001
ACAD
1000
DSTYLE
1002
{
1070
   173
1070
     1
1070
     6
1000
_DOT
1070
     7
1000
_DOT
1070
    41
1040
1.0
1002
}
  0
DIMENSION
  5
413
  8
SUNPO
  6
CONTINUOUS
  2
*D24
 10
360.33057949296102
 20
376.9121293622735
 30
0.0
 11
360.33057949296091
 21
370.28832922223489
 31
0.0
 70
   128
  1
\A1;3
 13
337.76167235936202
 23
373.91212936227362
 33
0.0
 14
337.76167235936202
 24
376.9121293622735
 34
0.0
 50
90.0
1001
ACAD
1000
DSTYLE
1002
{
1070
   287
1070
     0
1070
   173
1070
     1
1070
     6
1000
_DOT
1070
     7
1000
_DOT
1070
    41
1040
1.0
1070
   289
1070
     0
1002
}
  0
DIMENSION
  5
41C
  8
SUNPO
  6
CONTINUOUS
  2
*D25
 10
360.33057949296102
 20
373.91212936227362
 30
0.0
 11
360.33057949296091
 21
363.91212936227339
 31
0.0
 70
   128
  1
\A1;20
 13
317.76167235936168
 23
353.91212936227339
 33
0.0
 14
337.76167235936202
 24
373.91212936227362
 34
0.0
 50
90.0
1001
ACAD
1000
DSTYLE
1002
{
1070
   173
1070
     1
1070
     6
1000
_DOT
1070
     7
1000
_DOT
1070
    41
1040
1.0
1002
}
  0
DIMENSION
  5
427
  8
SUNPO
  6
CONTINUOUS
  2
*D26
 10
222.389065446768
 20
411.06488514088659
 30
0.0
 11
226.5875772058416
 21
411.06488514088659
 31
0.0
 70
   128
  1
\A1;3
 13
219.38906544676809
 23
384.92196345353221
 33
0.0
 14
222.389065446768
 24
384.92196345353221
 34
0.0
1001
ACAD
1000
DSTYLE
1002
{
1070
   287
1070
     0
1070
   173
1070
     1
1070
     6
1000
_DOT
1070
     7
1000
_DOT
1070
    41
1040
1.0
1070
   289
1070
     0
1002
}
  0
DIMENSION
  5
430
  8
SUNPO
  6
CONTINUOUS
  2
*D27
 10
205.38906549445139
 20
411.06488514088619
 30
0.0
 11
212.38906547060981
 21
411.06488514088619
 31
0.0
 70
   128
  1
\A1;14
 13
219.38906544676809
 23
384.92196345353221
 33
0.0
 14
205.38906549445139
 24
399.92196345353233
 34
0.0
1001
ACAD
1000
DSTYLE
1002
{
1070
   173
1070
     1
1070
     6
1000
_DOT
1070
     7
1000
_DOT
1070
    41
1040
1.0
1002
}
  0
LINE
  5
573
  8
MAWARIBUCHI
  6
実線
 10
322.76167235936242
 20
392.11212936227378
 30
0.0
 11
352.76167235936202
 21
392.11212936227378
 31
0.0
  0
LINE
  5
574
  8
MAWARIBUCHI
  6
実線
 10
322.76167235936242
 20
392.11212936227378
 30
0.0
 11
322.76167235936242
 21
375.11212940995722
 31
0.0
  0
LINE
  5
575
  8
MAWARIBUCHI
  6
実線
 10
317.76167235936202
 20
373.91212936227362
 30
0.0
 11
337.76167235936202
 21
373.91212936227362
 31
0.0
  0
LINE
  5
576
  8
MAWARIBUCHI
  6
実線
 10
337.76167235936202
 20
373.91212936227362
 30
0.0
 11
337.76167235936202
 21
376.91212936227362
 31
0.0
  0
LINE
  5
577
  8
MAWARIBUCHI
  6
実線
 10
323.96167240704608
 20
390.91212931459
 30
0.0
 11
323.96167240704608
 21
375.11212940995722
 31
0.0
  0
LINE
  5
578
  8
MAWARIBUCHI
  6
実線
 10
336.56167231167831
 20
375.11212940995722
 30
0.0
 11
336.56167231167831
 21
376.91212936227362
 31
0.0
  0
LINE
  5
579
  8
MAWARIBUCHI
  6
実線
 10
352.76167235936202
 20
392.11212936227378
 30
0.0
 11
352.76167235936202
 21
390.91212931459
 31
0.0
  0
LINE
  5
57A
  8
MAWARIBUCHI
  6
実線
 10
336.56167231167831
 20
376.91212936227362
 30
0.0
 11
337.76167235936202
 21
376.91212936227362
 31
0.0
  0
LINE
  5
57B
  8
MAWARIBUCHI
  6
実線
 10
345.56167235936249
 20
390.91212931459052
 30
0.0
 11
345.26167235936271
 21
391.21212931459007
 31
0.0
  0
LINE
  5
57C
  8
MAWARIBUCHI
  6
実線
 10
345.26167235936271
 20
391.21212931459098
 30
0.0
 11
344.96167235936292
 21
390.91212931459057
 31
0.0
  0
LINE
  5
57D
  8
MAWARIBUCHI
  6
実線
 10
344.9616723593623
 20
390.91212931459
 30
0.0
 11
323.96167240704608
 21
390.91212931459
 31
0.0
  0
LINE
  5
57E
  8
MAWARIBUCHI
  6
実線
 10
352.76167235936202
 20
390.91212931459
 30
0.0
 11
345.56167235936209
 21
390.91212931459
 31
0.0
  0
LINE
  5
57F
  8
MAWARIBUCHI
  6
実線
 10
317.7616723593618
 20
373.91212936227282
 30
0.0
 11
317.15645836232738
 21
374.51734335930752
 31
0.0
  0
LINE
  5
580
  8
MAWARIBUCHI
  6
実線
 10
299.56167235936232
 20
368.91212936227362
 30
0.0
 11
299.56167235936238
 21
338.9121293622735
 31
0.0
  0
LINE
  5
581
  8
MAWARIBUCHI
  6
実線
 10
299.56167235936221
 20
368.91212936227362
 30
0.0
 11
316.56167231167819
 21
368.91212936227362
 31
0.0
  0
LINE
  5
582
  8
MAWARIBUCHI
  6
実線
 10
317.76167235936202
 20
373.91212936227362
 30
0.0
 11
317.76167235936202
 21
353.91212936227362
 31
0.0
  0
LINE
  5
583
  8
MAWARIBUCHI
  6
実線
 10
317.76167235936242
 20
353.91212936227362
 30
0.0
 11
314.76167235936242
 21
353.91212936227362
 31
0.0
  0
LINE
  5
584
  8
MAWARIBUCHI
  6
実線
 10
300.76167240704592
 20
367.71212931458962
 30
0.0
 11
316.56167231167882
 21
367.71212931458962
 31
0.0
  0
LINE
  5
585
  8
MAWARIBUCHI
  6
実線
 10
316.56167231167882
 20
355.11212940995688
 30
0.0
 11
314.76167235936248
 21
355.11212940995688
 31
0.0
  0
LINE
  5
586
  8
MAWARIBUCHI
  6
実線
 10
299.56167235936221
 20
338.9121293622735
 30
0.0
 11
300.76167240704592
 21
338.9121293622735
 31
0.0
  0
LINE
  5
587
  8
MAWARIBUCHI
  6
実線
 10
314.76167235936242
 20
355.11212940995722
 30
0.0
 11
314.76167235936242
 21
353.91212936227362
 31
0.0
  0
LINE
  5
588
  8
MAWARIBUCHI
  6
実線
 10
300.76167240704592
 20
346.11212936227332
 30
0.0
 11
300.46167240704591
 21
346.41212936227311
 31
0.0
  0
LINE
  5
589
  8
MAWARIBUCHI
  6
実線
 10
300.46167240704591
 20
346.41212936227311
 30
0.0
 11
300.76167240704552
 21
346.71212936227232
 31
0.0
  0
LINE
  5
58A
  8
MAWARIBUCHI
  6
実線
 10
300.76167240704592
 20
346.71212936227317
 30
0.0
 11
300.76167240704592
 21
367.71212931458967
 31
0.0
  0
LINE
  5
58B
  8
MAWARIBUCHI
  6
実線
 10
300.76167240704569
 20
338.91212936227362
 30
0.0
 11
300.76167240704558
 21
346.11212936227372
 31
0.0
  0
LINE
  5
58C
  8
MAWARIBUCHI
  6
実線
 10
318.2587285865261
 20
375.11212940995671
 30
0.0
 11
322.76167235936202
 21
375.11212940995671
 31
0.0
  0
LINE
  5
58D
  8
MAWARIBUCHI
  6
実線
 10
323.96167240704619
 20
375.11212940995722
 30
0.0
 11
336.56167231167871
 21
375.11212940995722
 31
0.0
  0
LINE
  5
58E
  8
MAWARIBUCHI
  6
実線
 10
316.56167231167819
 20
367.71212931458967
 30
0.0
 11
316.56167231167842
 21
355.11212940995711
 31
0.0
  0
LINE
  5
58F
  8
MAWARIBUCHI
  6
実線
 10
316.56167231167859
 20
372.5635663647933
 30
0.0
 11
316.56167231167882
 21
368.91212936227322
 31
0.0
  0
ARC
  5
590
  8
MAWARIBUCHI
  6
実線
 10
314.76167235936202
 20
376.91212936227362
 30
0.0
 40
1.7500000000005349
 50
198.13169377369121
 51
101.86830622630229
  0
LINE
  5
591
  8
MAWARIBUCHI
  6
実線
 10
318.2587285865265
 20
375.11212940995722
 30
0.0
 11
317.51578439680168
 21
375.8550735996817
 31
0.0
  0
LINE
  5
592
  8
MAWARIBUCHI
  6
実線
 10
317.04995774366142
 20
374.62384397797308
 30
0.0
 11
317.76167235936049
 21
373.91212936227362
 31
0.0
  0
ARC
  5
593
  8
MAWARIBUCHI
  6
実線
 10
314.76167235936202
 20
376.91212936227362
 30
0.0
 40
3.1000000000005352
 50
74.332418183800229
 51
309.93790703570812
  0
ARC
  5
594
  8
MAWARIBUCHI
  6
実線
 10
314.76167235936202
 20
376.91212936227362
 30
0.0
 40
4.3000000000005372
 50
74.332418183800229
 51
289.03144029684512
  0
ARC
  5
595
  8
MAWARIBUCHI
  6
実線
 10
315.76087847824641
 20
380.47465474912889
 30
0.0
 40
0.5999999999999837
 50
254.3324181838033
 51
74.332418183803341
  0
ARC
  5
596
  8
MAWARIBUCHI
  6
実線
 10
314.27836458864073
 20
379.2118931759648
 30
0.0
 40
0.5999999999999588
 50
101.8683062262994
 51
281.8683062262993
  0
ARC
  5
597
  8
MAWARIBUCHI
  6
実線
 10
312.52836458864073
 20
376.18080426271911
 30
0.0
 40
0.5999999999999709
 50
18.131693773687751
 51
198.13169377368769
  0
ARC
  5
598
  8
MAWARIBUCHI
  6
実線
 10
314.76167235936202
 20
376.91212936227362
 30
0.0
 40
2.9500000000005371
 50
339.00269802918518
 51
101.86830622630229
  0
ARC
  5
599
  8
MAWARIBUCHI
  6
実線
 10
314.76167235936202
 20
376.91212936227362
 30
0.0
 40
2.9500000000005371
 50
198.13169377369121
 51
309.70361908813459
  0
LINE
  5
59A
  8
MAWARIBUCHI
  6
実線
 10
204.1890654467675
 20
369.92196345353199
 30
0.0
 11
204.1890654467675
 21
399.9219634535321
 31
0.0
  0
LINE
  5
59B
  8
MAWARIBUCHI
  6
実線
 10
204.1890654467675
 20
369.9219634535321
 30
0.0
 11
221.1890653990844
 21
369.9219634535321
 31
0.0
  0
LINE
  5
59C
  8
MAWARIBUCHI
  6
実線
 10
222.389065446768
 20
384.92196345353221
 30
0.0
 11
219.38906544676809
 21
384.92196345353221
 31
0.0
  0
LINE
  5
59D
  8
MAWARIBUCHI
  6
実線
 10
205.3890654944511
 20
371.12196350121582
 30
0.0
 11
221.1890653990844
 21
371.12196350121582
 31
0.0
  0
LINE
  5
59E
  8
MAWARIBUCHI
  6
実線
 10
221.1890653990844
 20
383.72196340584838
 30
0.0
 11
219.38906544676809
 21
383.72196340584838
 31
0.0
  0
LINE
  5
59F
  8
MAWARIBUCHI
  6
実線
 10
204.1890654467675
 20
399.92196345353199
 30
0.0
 11
205.38906549445139
 21
399.92196345353199
 31
0.0
  0
LINE
  5
5A0
  8
MAWARIBUCHI
  6
実線
 10
219.38906544676809
 20
383.72196340584833
 30
0.0
 11
219.38906544676809
 21
384.92196345353221
 31
0.0
  0
LINE
  5
5A1
  8
MAWARIBUCHI
  6
実線
 10
205.3890654944511
 20
392.72196345353268
 30
0.0
 11
205.08906549445109
 21
392.42196345353273
 31
0.0
  0
LINE
  5
5A2
  8
MAWARIBUCHI
  6
実線
 10
205.08906549445061
 20
392.42196345353312
 30
0.0
 11
205.38906549445059
 21
392.12196345353328
 31
0.0
  0
LINE
  5
5A3
  8
MAWARIBUCHI
  6
実線
 10
205.38906549445139
 20
392.12196345353237
 30
0.0
 11
205.3890654944511
 21
371.12196350121582
 31
0.0
  0
LINE
  5
5A4
  8
MAWARIBUCHI
  6
実線
 10
205.38906549445139
 20
399.9219634535321
 30
0.0
 11
205.38906549445139
 21
392.72196345353228
 31
0.0
  0
LINE
  5
5A5
  8
MAWARIBUCHI
  6
実線
 10
217.88906544676689
 20
349.9219634535317
 30
0.0
 11
217.88906544676689
 21
351.03522460915627
 31
0.0
  0
LINE
  5
5A6
  8
MAWARIBUCHI
  6
実線
 10
202.3890654467678
 20
368.1219634535326
 30
0.0
 11
172.3890654467676
 21
368.12196345353249
 31
0.0
  0
LINE
  5
5A7
  8
MAWARIBUCHI
  6
実線
 10
202.3890654467678
 20
368.12196345353237
 30
0.0
 11
202.3890654467678
 21
351.12196350121633
 31
0.0
  0
LINE
  5
5A8
  8
MAWARIBUCHI
  6
実線
 10
187.3890654467678
 20
349.92196345353199
 30
0.0
 11
187.3890654467678
 21
352.9219634535321
 31
0.0
  0
LINE
  5
5A9
  8
MAWARIBUCHI
  6
実線
 10
201.1890653990846
 20
366.92196340584741
 30
0.0
 11
201.1890653990846
 21
351.12196350121462
 31
0.0
  0
LINE
  5
5AA
  8
MAWARIBUCHI
  6
実線
 10
188.589065494452
 20
351.12196350121462
 30
0.0
 11
188.589065494452
 21
352.92196345353102
 31
0.0
  0
LINE
  5
5AB
  8
MAWARIBUCHI
  6
実線
 10
172.3890654467678
 20
368.12196345353237
 30
0.0
 11
172.3890654467678
 21
366.9219634058486
 31
0.0
  0
LINE
  5
5AC
  8
MAWARIBUCHI
  6
実線
 10
188.58906549445129
 20
352.9219634535321
 30
0.0
 11
187.38906544676749
 21
352.9219634535321
 31
0.0
  0
LINE
  5
5AD
  8
MAWARIBUCHI
  6
実線
 10
179.58906544676751
 20
366.92196340584928
 30
0.0
 11
179.8890654467674
 21
367.22196340584912
 31
0.0
  0
LINE
  5
5AE
  8
MAWARIBUCHI
  6
実線
 10
179.8890654467674
 20
367.22196340584912
 30
0.0
 11
180.1890654467669
 21
366.92196340584911
 31
0.0
  0
LINE
  5
5AF
  8
MAWARIBUCHI
  6
実線
 10
180.18906544676719
 20
366.92196340584871
 30
0.0
 11
201.1890653990838
 21
366.9219634058486
 31
0.0
  0
LINE
  5
5B0
  8
MAWARIBUCHI
  6
実線
 10
172.38906544676749
 20
366.92196340584871
 30
0.0
 11
179.58906544676739
 21
366.92196340584871
 31
0.0
  0
LINE
  5
5B1
  8
MAWARIBUCHI
  6
実線
 10
221.18906539908471
 20
371.12196350121479
 30
0.0
 11
221.18906539908471
 21
383.72196340584719
 31
0.0
  0
LINE
  5
5B2
  8
MAWARIBUCHI
  6
実線
 10
201.1890653990838
 20
351.12196350121638
 30
0.0
 11
188.58906549445081
 21
351.12196350121621
 31
0.0
  0
ARC
  5
5B3
  8
MAWARIBUCHI
  6
実線
 10
217.88906544676721
 20
354.42196345353341
 30
0.0
 40
1.7500000000005349
 50
243.1316937736886
 51
146.8683062263012
  0
LINE
  5
5B4
  8
MAWARIBUCHI
  6
実線
 10
221.1251896718243
 20
354.4219634535329
 30
0.0
 11
222.389065446768
 21
354.4219634535329
 31
0.0
  0
ARC
  5
5B5
  8
MAWARIBUCHI
  6
実線
 10
217.8890654467676
 20
354.42196345353238
 30
0.0
 40
3.1000000000005352
 50
29.999999999992571
 51
264.93790703570698
  0
ARC
  5
5B6
  8
MAWARIBUCHI
  6
実線
 10
217.8890654467676
 20
354.42196345353238
 30
0.0
 40
4.3000000000005372
 50
41.40962314188905
 51
220.70570604756259
  0
ARC
  5
5B7
  8
MAWARIBUCHI
  6
実線
 10
215.92113665690201
 20
355.70639183924482
 30
0.0
 40
0.5999999999999588
 50
146.86830622630109
 51
326.86830622630112
  0
ARC
  5
5B8
  8
MAWARIBUCHI
  6
実線
 10
216.82700331476039
 20
352.32565144723281
 30
0.0
 40
0.5999999999999709
 50
63.131693773688653
 51
243.1316937736886
  0
ARC
  5
5B9
  8
MAWARIBUCHI
  6
実線
 10
217.88906544676721
 20
354.42196345353341
 30
0.0
 40
2.9500000000005371
 50
27.486426250351371
 51
146.8683062263012
  0
ARC
  5
5BA
  8
MAWARIBUCHI
  6
実線
 10
217.88906544676721
 20
354.42196345353341
 30
0.0
 40
2.9500000000005371
 50
243.13169377369169
 51
354.70361908814323
  0
LINE
  5
5BB
  8
MAWARIBUCHI
  6
実線
 10
187.389065446768
 20
349.92196345353199
 30
0.0
 11
217.88906544676661
 21
349.92196345353199
 31
0.0
  0
LINE
  5
5BC
  8
MAWARIBUCHI
  6
実線
 10
202.38906544676709
 20
351.1219635012157
 30
0.0
 11
214.40194625091161
 21
351.1219635012157
 31
0.0
  0
LINE
  5
5BD
  8
MAWARIBUCHI
  6
実線
 10
222.389065446768
 20
354.42196345353273
 30
0.0
 11
222.389065446768
 21
384.92196345353182
 31
0.0
  0
LINE
  5
5BE
  8
MAWARIBUCHI
  6
実線
 10
221.18906539908471
 20
355.92196345353182
 30
0.0
 11
221.18906539908471
 21
369.9219634535313
 31
0.0
  0
LINE
  5
5BF
  8
MAWARIBUCHI
  6
実線
 10
220.77220609543559
 20
355.62196345353198
 30
0.0
 11
220.88906539908439
 21
355.62196345353198
 31
0.0
  0
ARC
  5
5C0
  8
MAWARIBUCHI
  6
実線
 10
214.40194625091161
 20
351.42196350121583
 30
0.0
 40
0.3
 50
270.0
 51
40.705706047559048
  0
LINE
  5
5C1
  8
MAWARIBUCHI
  6
実線
 10
221.1890653990844
 20
356.12196345353209
 30
0.0
 11
221.1890653990844
 21
357.06771481866508
 31
0.0
  0
LINE
  5
5C2
  8
MAWARIBUCHI
  6
実線
 10
220.83355181963529
 20
355.82196345353202
 30
0.0
 11
220.8890653990845
 21
355.82196345353202
 31
0.0
  0
ARC
  5
5C3
  8
MAWARIBUCHI
  6
実線
 10
220.8890653990847
 20
357.06771481866508
 30
0.0
 40
0.3
 50
0.0
 51
41.409623141880608
  0
ARC
  5
5C4
  8
MAWARIBUCHI
  6
実線
 10
217.58906544676699
 20
351.03522460915673
 30
0.0
 40
0.3
 50
0.0
 51
84.937907035696924
  0
ARC
  5
5C5
  8
MAWARIBUCHI
  6
実線
 10
220.83355181963529
 20
356.1219634535322
 30
0.0
 40
0.3
 50
209.9999999999774
 51
270.0
  0
ARC
  5
5C6
  8
MAWARIBUCHI
  6
実線
 10
220.8890653990847
 20
356.1219634535322
 30
0.0
 40
0.3
 50
270.0
 51
0.0
  0
ARC
  5
5C7
  8
MAWARIBUCHI
  6
実線
 10
220.7722060954361
 20
355.92196345353221
 30
0.0
 40
0.3
 50
207.48642625034029
 51
270.0
  0
ARC
  5
5C8
  8
MAWARIBUCHI
  6
実線
 10
220.8890653990847
 20
355.92196345353221
 30
0.0
 40
0.3
 50
270.0
 51
0.0
  0
ARC
  5
5C9
  8
MAWARIBUCHI
  6
実線
 10
221.1251896718243
 20
354.12196345353311
 30
0.0
 40
0.3
 50
90.0
 51
174.7036190881301
  0
ARC
  5
5CA
  8
MAWARIBUCHI
  6
実線
 10
316.26167231167841
 20
372.5635663647933
 30
0.0
 40
0.3
 50
0.0
 51
109.0314402968451
  0
ARC
  5
5CB
  8
MAWARIBUCHI
  6
実線
 10
316.94432632797151
 20
374.30521132495147
 30
0.0
 40
0.3
 50
45.00000000000022
 51
129.93790703570809
  0
ARC
  5
5CC
  8
MAWARIBUCHI
  6
実線
 10
316.83782570930549
 20
374.41171194361692
 30
0.0
 40
0.3
 50
44.9999999999864
 51
129.70361908813879
  0
ENDSEC
  0
EOF
