  0
SECTION
  2
HEADER
  9
$ACADVER
  1
AC1015
  9
$ACADMAINTVER
 70
    20
  9
$DWGCODEPAGE
  3
ANSI_932
  9
$INSBASE
 10
0.0
 20
0.0
 30
0.0
  9
$EXTMIN
 10
1633.161901405876
 20
-84.75432712760225
 30
0.0
  9
$EXTMAX
 10
2217.65629295162
 20
98.02598149021562
 30
0.0
  9
$LIMMIN
 10
0.0
 20
0.0
  9
$LIMMAX
 10
420.0
 20
297.0
  9
$ORTHOMODE
 70
     0
  9
$REGENMODE
 70
     1
  9
$FILLMODE
 70
     1
  9
$QTEXTMODE
 70
     0
  9
$MIRRTEXT
 70
     1
  9
$LTSCALE
 40
1.0
  9
$ATTMODE
 70
     1
  9
$TEXTSIZE
 40
2.5
  9
$TRACEWID
 40
1.0
  9
$TEXTSTYLE
  7
Standard
  9
$CLAYER
  8
s
  9
$CELTYPE
  6
ByLayer
  9
$CECOLOR
 62
   256
  9
$CELTSCALE
 40
1.0
  9
$DISPSILH
 70
     0
  9
$DIMSCALE
 40
1.0
  9
$DIMASZ
 40
0.8
  9
$DIMEXO
 40
0.8
  9
$DIMDLI
 40
0.38
  9
$DIMRND
 40
0.0
  9
$DIMDLE
 40
0.0
  9
$DIMEXE
 40
0.18
  9
$DIMTP
 40
0.0
  9
$DIMTM
 40
0.0
  9
$DIMTXT
 40
2.5
  9
$DIMCEN
 40
0.09
  9
$DIMTSZ
 40
0.0
  9
$DIMTOL
 70
     0
  9
$DIMLIM
 70
     0
  9
$DIMTIH
 70
     0
  9
$DIMTOH
 70
     0
  9
$DIMSE1
 70
     0
  9
$DIMSE2
 70
     0
  9
$DIMTAD
 70
     1
  9
$DIMZIN
 70
     8
  9
$DIMBLK
  1
DOT
  9
$DIMASO
 70
     1
  9
$DIMSHO
 70
     1
  9
$DIMPOST
  1

  9
$DIMAPOST
  1

  9
$DIMALT
 70
     0
  9
$DIMALTD
 70
     2
  9
$DIMALTF
 40
25.4
  9
$DIMLFAC
 40
1.0
  9
$DIMTOFL
 70
     0
  9
$DIMTVP
 40
0.0
  9
$DIMTIX
 70
     0
  9
$DIMSOXD
 70
     0
  9
$DIMSAH
 70
     0
  9
$DIMBLK1
  1

  9
$DIMBLK2
  1

  9
$DIMSTYLE
  2
STANDARD
  9
$DIMCLRD
 70
     8
  9
$DIMCLRE
 70
     8
  9
$DIMCLRT
 70
   256
  9
$DIMTFAC
 40
1.0
  9
$DIMGAP
 40
1.0
  9
$DIMJUST
 70
     0
  9
$DIMSD1
 70
     0
  9
$DIMSD2
 70
     0
  9
$DIMTOLJ
 70
     1
  9
$DIMTZIN
 70
     0
  9
$DIMALTZ
 70
     0
  9
$DIMALTTZ
 70
     0
  9
$DIMUPT
 70
     0
  9
$DIMDEC
 70
     1
  9
$DIMTDEC
 70
     1
  9
$DIMALTU
 70
     2
  9
$DIMALTTD
 70
     2
  9
$DIMTXSTY
  7
KANJI
  9
$DIMAUNIT
 70
     0
  9
$DIMADEC
 70
     0
  9
$DIMALTRND
 40
0.0
  9
$DIMAZIN
 70
     0
  9
$DIMDSEP
 70
    46
  9
$DIMATFIT
 70
     3
  9
$DIMFRAC
 70
     0
  9
$DIMLDRBLK
  1
DOT
  9
$DIMLUNIT
 70
     2
  9
$DIMLWD
 70
    -2
  9
$DIMLWE
 70
    -2
  9
$DIMTMOVE
 70
     2
  9
$LUNITS
 70
     2
  9
$LUPREC
 70
     4
  9
$SKETCHINC
 40
1.0
  9
$FILLETRAD
 40
1.5
  9
$AUNITS
 70
     0
  9
$AUPREC
 70
     0
  9
$MENU
  1
.
  9
$ELEVATION
 40
0.0
  9
$PELEVATION
 40
0.0
  9
$THICKNESS
 40
0.0
  9
$LIMCHECK
 70
     0
  9
$CHAMFERA
 40
10.0
  9
$CHAMFERB
 40
10.0
  9
$CHAMFERC
 40
20.0
  9
$CHAMFERD
 40
0.0
  9
$SKPOLY
 70
     0
  9
$TDCREATE
 40
2455616.743265197
  9
$TDUCREATE
 40
2455616.368265197
  9
$TDUPDATE
 40
2458698.749668715
  9
$TDUUPDATE
 40
2458698.374668715
  9
$TDINDWG
 40
0.3569311343
  9
$TDUSRTIMER
 40
0.3569287153
  9
$USRTIMER
 70
     1
  9
$ANGBASE
 50
0.0
  9
$ANGDIR
 70
     0
  9
$PDMODE
 70
     0
  9
$PDSIZE
 40
0.0
  9
$PLINEWID
 40
0.0
  9
$SPLFRAME
 70
     0
  9
$SPLINETYPE
 70
     6
  9
$SPLINESEGS
 70
     8
  9
$HANDSEED
  5
1025A
  9
$SURFTAB1
 70
     6
  9
$SURFTAB2
 70
     6
  9
$SURFTYPE
 70
     6
  9
$SURFU
 70
     6
  9
$SURFV
 70
     6
  9
$UCSBASE
  2

  9
$UCSNAME
  2

  9
$UCSORG
 10
1600.42199790317
 20
-122.1909409287211
 30
0.0
  9
$UCSXDIR
 10
1.0
 20
0.0
 30
0.0
  9
$UCSYDIR
 10
0.0
 20
1.0
 30
0.0
  9
$UCSORTHOREF
  2

  9
$UCSORTHOVIEW
 70
     0
  9
$UCSORGTOP
 10
0.0
 20
0.0
 30
0.0
  9
$UCSORGBOTTOM
 10
0.0
 20
0.0
 30
0.0
  9
$UCSORGLEFT
 10
0.0
 20
0.0
 30
0.0
  9
$UCSORGRIGHT
 10
0.0
 20
0.0
 30
0.0
  9
$UCSORGFRONT
 10
0.0
 20
0.0
 30
0.0
  9
$UCSORGBACK
 10
0.0
 20
0.0
 30
0.0
  9
$PUCSBASE
  2

  9
$PUCSNAME
  2

  9
$PUCSORG
 10
0.0
 20
0.0
 30
0.0
  9
$PUCSXDIR
 10
1.0
 20
0.0
 30
0.0
  9
$PUCSYDIR
 10
0.0
 20
1.0
 30
0.0
  9
$PUCSORTHOREF
  2

  9
$PUCSORTHOVIEW
 70
     0
  9
$PUCSORGTOP
 10
0.0
 20
0.0
 30
0.0
  9
$PUCSORGBOTTOM
 10
0.0
 20
0.0
 30
0.0
  9
$PUCSORGLEFT
 10
0.0
 20
0.0
 30
0.0
  9
$PUCSORGRIGHT
 10
0.0
 20
0.0
 30
0.0
  9
$PUCSORGFRONT
 10
0.0
 20
0.0
 30
0.0
  9
$PUCSORGBACK
 10
0.0
 20
0.0
 30
0.0
  9
$USERI1
 70
     0
  9
$USERI2
 70
     0
  9
$USERI3
 70
     0
  9
$USERI4
 70
     0
  9
$USERI5
 70
     0
  9
$USERR1
 40
0.0
  9
$USERR2
 40
0.0
  9
$USERR3
 40
0.0
  9
$USERR4
 40
0.0
  9
$USERR5
 40
0.0
  9
$WORLDVIEW
 70
     1
  9
$SHADEDGE
 70
     3
  9
$SHADEDIF
 70
    70
  9
$TILEMODE
 70
     1
  9
$MAXACTVP
 70
    64
  9
$PINSBASE
 10
0.0
 20
0.0
 30
0.0
  9
$PLIMCHECK
 70
     0
  9
$PEXTMIN
 10
26.66999878883363
 20
20.31999878883363
 30
0.0
  9
$PEXTMAX
 10
240.0299890995026
 20
182.8799890995025
 30
0.0
  9
$PLIMMIN
 10
-6.350006103515625
 20
-6.349999904632567
  9
$PLIMMAX
 10
273.0499877929688
 20
209.5499939918518
  9
$UNITMODE
 70
     0
  9
$VISRETAIN
 70
     1
  9
$PLINEGEN
 70
     0
  9
$PSLTSCALE
 70
     1
  9
$TREEDEPTH
 70
  3020
  9
$CMLSTYLE
  2
Standard
  9
$CMLJUST
 70
     0
  9
$CMLSCALE
 40
20.0
  9
$PROXYGRAPHICS
 70
     1
  9
$MEASUREMENT
 70
     1
  9
$CELWEIGHT
370
    -1
  9
$ENDCAPS
280
     0
  9
$JOINSTYLE
280
     0
  9
$LWDISPLAY
290
     0
  9
$INSUNITS
 70
     4
  9
$HYPERLINKBASE
  1

  9
$STYLESHEET
  1
monochrome.ctb
  9
$XEDIT
290
     1
  9
$CEPSNTYPE
380
     0
  9
$PSTYLEMODE
290
     1
  9
$FINGERPRINTGUID
  2
{35B22BBE-5F31-43F8-956C-9F9822578512}
  9
$VERSIONGUID
  2
{98DD2ABE-1A38-453E-9AD8-C9269BDC97E0}
  9
$EXTNAMES
290
     1
  9
$PSVPSCALE
 40
0.0
  9
$OLESTARTUP
290
     0
  0
ENDSEC
  0
SECTION
  2
CLASSES
  0
CLASS
  1
ACDBDICTIONARYWDFLT
  2
AcDbDictionaryWithDefault
  3
ObjectDBX Classes
 90
        0
280
     0
281
     0
  0
CLASS
  1
ACDBPLACEHOLDER
  2
AcDbPlaceHolder
  3
ObjectDBX Classes
 90
        0
280
     0
281
     0
  0
CLASS
  1
LAYOUT
  2
AcDbLayout
  3
ObjectDBX Classes
 90
        0
280
     0
281
     0
  0
CLASS
  1
DICTIONARYVAR
  2
AcDbDictionaryVar
  3
ObjectDBX Classes
 90
        0
280
     0
281
     0
  0
CLASS
  1
TABLESTYLE
  2
AcDbTableStyle
  3
ObjectDBX Classes
 90
     4095
280
     0
281
     0
  0
CLASS
  1
SORTENTSTABLE
  2
AcDbSortentsTable
  3
ObjectDBX Classes
 90
        0
280
     0
281
     0
  0
CLASS
  1
DIMASSOC
  2
AcDbDimAssoc
  3
"AcDbDimAssoc|Product Desc:     AcDim ARX App For Dimension|Company:          Autodesk, Inc.|WEB Address:      www.autodesk.com"
 90
        0
280
     0
281
     0
  0
CLASS
  1
MATERIAL
  2
AcDbMaterial
  3
ObjectDBX Classes
 90
     1153
280
     0
281
     0
  0
CLASS
  1
VISUALSTYLE
  2
AcDbVisualStyle
  3
ObjectDBX Classes
 90
     4095
280
     0
281
     0
  0
CLASS
  1
SCALE
  2
AcDbScale
  3
ObjectDBX Classes
 90
     1153
280
     0
281
     0
  0
CLASS
  1
MLEADERSTYLE
  2
AcDbMLeaderStyle
  3
ACDB_MLEADERSTYLE_CLASS
 90
     4095
280
     0
281
     0
  0
CLASS
  1
ACDBSECTIONVIEWSTYLE
  2
AcDbSectionViewStyle
  3
ObjectDBX Classes
 90
     1025
280
     0
281
     0
  0
CLASS
  1
ACDBDETAILVIEWSTYLE
  2
AcDbDetailViewStyle
  3
ObjectDBX Classes
 90
     1025
280
     0
281
     0
  0
CLASS
  1
CELLSTYLEMAP
  2
AcDbCellStyleMap
  3
ObjectDBX Classes
 90
     1152
280
     0
281
     0
  0
ENDSEC
  0
SECTION
  2
TABLES
  0
TABLE
  2
VPORT
  5
8
330
0
100
AcDbSymbolTable
 70
     1
  0
VPORT
  5
6217
330
8
100
AcDbSymbolTableRecord
100
AcDbViewportTableRecord
  2
*Active
 70
     0
 10
0.0
 20
0.0
 11
1.0
 21
1.0
 12
1925.41946205657
 22
34.66963905765951
 13
0.0
 23
0.0
 14
10.0
 24
10.0
 15
10.0
 25
10.0
 16
0.0
 26
0.0
 36
1.0
 17
0.0
 27
0.0
 37
0.0
 40
358.2660910343815
 41
1.640156453715775
 42
50.0
 43
0.0
 44
0.0
 50
0.0
 51
0.0
 71
     0
 72
  1000
 73
     1
 74
     3
 75
     0
 76
     0
 77
     0
 78
     0
281
     0
 65
     1
110
0.0
120
0.0
130
0.0
111
1.0
121
0.0
131
0.0
112
0.0
122
1.0
132
0.0
 79
     0
146
0.0
1001
ACAD_NAV_VCDISPLAY
1070
     3
  0
ENDTAB
  0
TABLE
  2
LTYPE
  5
5
330
0
100
AcDbSymbolTable
 70
     2
  0
LTYPE
  5
14
330
5
100
AcDbSymbolTableRecord
100
AcDbLinetypeTableRecord
  2
ByBlock
 70
     0
  3

 72
    65
 73
     0
 40
0.0
  0
LTYPE
  5
15
330
5
100
AcDbSymbolTableRecord
100
AcDbLinetypeTableRecord
  2
ByLayer
 70
     0
  3

 72
    65
 73
     0
 40
0.0
  0
LTYPE
  5
16
330
5
100
AcDbSymbolTableRecord
100
AcDbLinetypeTableRecord
  2
Continuous
 70
     0
  3
Solid line
 72
    65
 73
     0
 40
0.0
  0
LTYPE
  5
E5
330
5
100
AcDbSymbolTableRecord
100
AcDbLinetypeTableRecord
  2
5A
 70
     0
  3
細かい一点鎖線
 72
    65
 73
     4
 40
1.3
 49
1.0
 74
     0
 49
-0.1
 74
     0
 49
0.1
 74
     0
 49
-0.1
 74
     0
  0
ENDTAB
  0
TABLE
  2
LAYER
  5
2
102
{ACAD_XDICTIONARY
360
2C0
102
}
330
0
100
AcDbSymbolTable
 70
     4
  0
LAYER
  5
10
102
{ACAD_XDICTIONARY
360
B50B
102
}
330
2
100
AcDbSymbolTableRecord
100
AcDbLayerTableRecord
  2
0
 70
     0
 62
     7
  6
Continuous
370
    -3
390
F
  0
LAYER
  5
2C3
102
{ACAD_XDICTIONARY
360
B50F
102
}
330
2
100
AcDbSymbolTableRecord
100
AcDbLayerTableRecord
  2
s
 70
     0
 62
     4
  6
Continuous
370
    -3
390
F
1001
AcAecLayerStandard
1000

1000

  0
LAYER
  5
2C7
330
2
100
AcDbSymbolTableRecord
100
AcDbLayerTableRecord
  2
Defpoints
 70
     0
 62
     7
  6
Continuous
290
     0
370
    -3
390
F
  0
LAYER
  5
FCC7
102
{ACAD_XDICTIONARY
360
FCC8
102
}
330
2
100
AcDbSymbolTableRecord
100
AcDbLayerTableRecord
  2
ｓ
 70
     0
 62
     4
  6
Continuous
370
    -3
390
F
  0
ENDTAB
  0
TABLE
  2
STYLE
  5
3
330
0
100
AcDbSymbolTable
 70
     5
  0
STYLE
  5
11
330
3
100
AcDbSymbolTableRecord
100
AcDbTextStyleTableRecord
  2
Standard
 70
     0
 40
0.0
 41
1.0
 50
0.0
 71
     0
 42
2.5
  3
txt.shx
  4
extfont2.shx
  0
STYLE
  5
E7
330
3
100
AcDbSymbolTableRecord
100
AcDbTextStyleTableRecord
  2
KANJI
 70
     0
 40
0.0
 41
1.0
 50
0.0
 71
     0
 42
6.0
  3
SIMPLEX
  4
BIGFONT
  0
STYLE
  5
2730
330
3
100
AcDbSymbolTableRecord
100
AcDbTextStyleTableRecord
  2
スタイル2
 70
     0
 40
0.0
 41
1.0
 50
0.0
 71
     0
 42
2.5
  3
gbeitc.shx
  4
@extfont2.shx
  0
STYLE
  5
628E
330
3
100
AcDbSymbolTableRecord
100
AcDbTextStyleTableRecord
  2
寸法用　bigfont
 70
     0
 40
0.0
 41
0.75
 50
0.0
 71
     0
 42
2.5
  3
romand.shx
  4
bigfont.shx
  0
STYLE
  5
628F
330
3
100
AcDbSymbolTableRecord
100
AcDbTextStyleTableRecord
  2
文字用　bighont
 70
     0
 40
0.0
 41
1.0
 50
0.0
 71
     0
 42
2.5
  3
romans.shx
  4
bigfont.shx
  0
ENDTAB
  0
TABLE
  2
VIEW
  5
6
330
0
100
AcDbSymbolTable
 70
     0
  0
ENDTAB
  0
TABLE
  2
UCS
  5
7
330
0
100
AcDbSymbolTable
 70
     0
  0
ENDTAB
  0
TABLE
  2
APPID
  5
9
330
0
100
AcDbSymbolTable
 70
    10
  0
APPID
  5
12
330
9
100
AcDbSymbolTableRecord
100
AcDbRegAppTableRecord
  2
ACAD
 70
     0
  0
APPID
  5
1B0
330
9
100
AcDbSymbolTableRecord
100
AcDbRegAppTableRecord
  2
ACAD_DSTYLE_DIMTEXT_FILL
 70
     0
  0
APPID
  5
2BF
330
9
100
AcDbSymbolTableRecord
100
AcDbRegAppTableRecord
  2
AcAecLayerStandard
 70
     0
  0
APPID
  5
2736
330
9
100
AcDbSymbolTableRecord
100
AcDbRegAppTableRecord
  2
ACAD_PSEXT
 70
     0
  0
APPID
  5
6292
330
9
100
AcDbSymbolTableRecord
100
AcDbRegAppTableRecord
  2
ACAD_DSTYLE_DIMJAG
 70
     0
  0
APPID
  5
6293
330
9
100
AcDbSymbolTableRecord
100
AcDbRegAppTableRecord
  2
ACAD_DSTYLE_DIMTALN
 70
     0
  0
APPID
  5
6294
330
9
100
AcDbSymbolTableRecord
100
AcDbRegAppTableRecord
  2
ACAD_NAV_VCDISPLAY
 70
     0
  0
APPID
  5
BB09
330
9
100
AcDbSymbolTableRecord
100
AcDbRegAppTableRecord
  2
ACAD_DSTYLE_DIMRADIAL_EXTENSION
 70
     0
  0
APPID
  5
C152
330
9
100
AcDbSymbolTableRecord
100
AcDbRegAppTableRecord
  2
ACAD_EXEMPT_FROM_CAD_STANDARDS
 70
     0
  0
APPID
  5
FD4A
330
9
100
AcDbSymbolTableRecord
100
AcDbRegAppTableRecord
  2
ACAD_MLEADERVER
 70
     0
  0
ENDTAB
  0
TABLE
  2
DIMSTYLE
  5
A
330
0
100
AcDbSymbolTable
 70
    10
100
AcDbDimStyleTable
 71
     3
340
E8
340
6291
340
27
  0
DIMSTYLE
105
27
330
A
100
AcDbSymbolTableRecord
100
AcDbDimStyleTableRecord
  2
ISO-25
 70
     0
 41
2.5
 42
0.625
 43
3.75
 44
1.25
 73
     0
 74
     0
 77
     1
 78
     8
140
2.5
141
2.5
143
0.03937007874016
147
0.625
171
     3
172
     1
271
     2
272
     2
274
     3
278
    44
283
     0
284
     8
340
11
  0
DIMSTYLE
105
E8
330
A
100
AcDbSymbolTableRecord
100
AcDbDimStyleTableRecord
  2
STANDARD
 70
     0
 41
0.8
 42
0.8
 73
     0
 74
     0
 77
     1
 78
     8
140
2.5
147
1.0
176
     8
177
     8
178
   256
271
     1
272
     1
279
     2
340
E7
341
1F8
342
1F8
  0
DIMSTYLE
105
2731
330
A
100
AcDbSymbolTableRecord
100
AcDbDimStyleTableRecord
  2
ｺﾋﾟｰ - ISO-25
 70
     0
 41
2.0
 42
1.0
 43
3.75
 44
1.25
 73
     0
 74
     0
 77
     1
 78
     8
140
4.599999999999996
141
2.5
143
0.03937007874016
147
0.5
171
     3
172
     1
176
     8
177
     8
271
     0
272
     0
274
     3
283
     0
284
     8
340
11
341
272B
342
272B
  0
DIMSTYLE
105
2732
330
A
100
AcDbSymbolTableRecord
100
AcDbDimStyleTableRecord
  2
sp
 70
     0
 41
20.0
 42
50.0
 43
3.75
 44
1.25
 73
     0
 74
     0
 77
     1
 78
     8
140
138.0
141
2.5
143
0.03937007874016
147
30.0
171
     3
172
     1
176
     8
177
     8
271
     0
272
     0
274
     3
283
     0
284
     8
340
11
341
272B
342
272B
  0
DIMSTYLE
105
2733
330
A
100
AcDbSymbolTableRecord
100
AcDbDimStyleTableRecord
  2
断面A
 70
     0
 41
10.0
 42
50.0
 43
3.75
 44
1.25
 73
     0
 74
     0
 77
     1
 78
     8
140
23.0
141
2.5
143
0.03937007874016
147
10.0
171
     3
172
     1
176
     8
177
     8
271
     1
272
     1
274
     3
283
     0
284
     8
340
11
341
272B
342
272B
  0
DIMSTYLE
105
2734
330
A
100
AcDbSymbolTableRecord
100
AcDbDimStyleTableRecord
  2
ｺﾋﾟｰ - 断面B
 70
     0
 41
1.0
 42
5.0
 43
3.75
 44
1.25
 73
     0
 74
     0
 77
     1
 78
     8
140
4.799999999999998
141
2.5
143
0.03937007874016
147
0.5
171
     3
172
     1
176
     8
177
     8
271
     1
272
     1
274
     3
283
     0
284
     8
340
11
341
272B
342
272B
  0
DIMSTYLE
105
2735
330
A
100
AcDbSymbolTableRecord
100
AcDbDimStyleTableRecord
  2
ｺﾋﾟｰ(2) - 断面C
 70
     0
 41
3.0
 42
9.0
 43
3.75
 44
1.25
 73
     0
 74
     0
 77
     1
 78
     8
140
7.0
141
2.5
143
0.03937007874016
147
3.0
171
     3
172
     1
176
     8
177
     8
271
     1
272
     1
274
     3
283
     0
284
     8
340
11
341
272B
342
272B
  0
DIMSTYLE
105
4764
330
A
100
AcDbSymbolTableRecord
100
AcDbDimStyleTableRecord
  2
1-1
 70
     0
 41
0.8
 42
2.5
 73
     0
 74
     0
 77
     1
 78
     8
140
3.0
147
0.8
176
   256
177
   256
178
   256
271
     1
272
     1
340
11
  0
DIMSTYLE
105
6290
330
A
100
AcDbSymbolTableRecord
100
AcDbDimStyleTableRecord
  2
morison
 70
     0
 41
2.0
 42
5.0
 44
0.0
 73
     0
 74
     0
 77
     1
 78
     8
 79
     2
140
5.0
141
0.0
145
1.0
147
2.0
172
     1
176
   256
177
   256
178
   256
179
     2
271
     2
272
     2
340
11
341
627A
1001
ACAD_DSTYLE_DIMJAG
1070
   388
1040
1.5
1001
ACAD_DSTYLE_DIMTALN
1070
   392
1070
     0
  0
DIMSTYLE
105
6291
102
{ACAD_REACTORS
330
3FD5
330
3FD2
330
3FCF
330
3EFF
330
3EF8
330
3EF7
330
3EF6
330
3EBB
330
3EA1
330
3DF5
330
3DF4
330
3DF3
330
3DF2
330
3D82
330
3C7E
330
3C78
330
3C70
330
3C6F
330
3C6E
330
3C6D
330
3F02
330
3E45
330
3C7B
102
}
330
A
100
AcDbSymbolTableRecord
100
AcDbDimStyleTableRecord
  2
寸法 1-1
 70
     0
 41
1.1
 42
5.0
 43
10.0
 44
0.0
 73
     0
 74
     0
 77
     1
 78
     8
140
3.25
141
3.0
143
0.03937007874016
147
1.0
171
     3
172
     1
174
     1
176
   256
177
   256
178
     7
271
     1
272
     1
274
     3
279
     2
283
     0
284
     8
289
     2
340
628E
341
627A
342
272B
371
    -1
372
    -1
  0
ENDTAB
  0
TABLE
  2
BLOCK_RECORD
  5
1
330
0
100
AcDbSymbolTable
 70
    65
  0
BLOCK_RECORD
  5
1F
102
{ACAD_XDICTIONARY
360
47A
102
}
330
1
100
AcDbSymbolTableRecord
100
AcDbBlockTableRecord
  2
*Model_Space
340
22
  0
BLOCK_RECORD
  5
55
330
1
100
AcDbSymbolTableRecord
100
AcDbBlockTableRecord
  2
*Paper_Space
340
56
  0
BLOCK_RECORD
  5
50
330
1
100
AcDbSymbolTableRecord
100
AcDbBlockTableRecord
  2
*Paper_Space0
340
51
  0
BLOCK_RECORD
  5
E0
330
1
100
AcDbSymbolTableRecord
100
AcDbBlockTableRecord
  2
DOT
340
0
  0
BLOCK_RECORD
  5
1F8
330
1
100
AcDbSymbolTableRecord
100
AcDbBlockTableRecord
  2
_Dot
340
0
  0
BLOCK_RECORD
  5
272B
330
1
100
AcDbSymbolTableRecord
100
AcDbBlockTableRecord
  2
_Origin
340
0
102
{BLKREFS
331
100E6
331
100E7
331
100EF
331
100F0
331
100F8
331
100F9
331
1014D
331
1014E
331
10156
331
10157
331
1015F
331
10160
331
10168
331
10169
331
10171
331
10172
331
1017C
331
1017D
331
10185
331
10186
331
1018E
331
1018F
331
10197
331
10198
331
101A0
331
101A1
331
101A9
331
101AA
331
101B2
331
101B3
331
101BB
331
101BC
331
101C6
331
101C7
331
101D1
331
101D2
331
F90B
331
F90C
331
F914
331
F915
331
F91D
331
F91E
331
F926
331
F927
331
F92F
331
F930
102
}
  0
BLOCK_RECORD
  5
3C82
330
1
100
AcDbSymbolTableRecord
100
AcDbBlockTableRecord
  2
*D4
340
0
  0
BLOCK_RECORD
  5
3C8E
330
1
100
AcDbSymbolTableRecord
100
AcDbBlockTableRecord
  2
*D5
340
0
  0
BLOCK_RECORD
  5
3C9A
330
1
100
AcDbSymbolTableRecord
100
AcDbBlockTableRecord
  2
*D6
340
0
  0
BLOCK_RECORD
  5
3CC1
330
1
100
AcDbSymbolTableRecord
100
AcDbBlockTableRecord
  2
*D7
340
0
  0
BLOCK_RECORD
  5
3CCD
330
1
100
AcDbSymbolTableRecord
100
AcDbBlockTableRecord
  2
*D8
340
0
  0
BLOCK_RECORD
  5
3CD9
330
1
100
AcDbSymbolTableRecord
100
AcDbBlockTableRecord
  2
*D9
340
0
  0
BLOCK_RECORD
  5
3CE5
330
1
100
AcDbSymbolTableRecord
100
AcDbBlockTableRecord
  2
*D10
340
0
  0
BLOCK_RECORD
  5
3D83
330
1
100
AcDbSymbolTableRecord
100
AcDbBlockTableRecord
  2
*D11
340
0
  0
BLOCK_RECORD
  5
3DFA
330
1
100
AcDbSymbolTableRecord
100
AcDbBlockTableRecord
  2
*D12
340
0
  0
BLOCK_RECORD
  5
3E06
330
1
100
AcDbSymbolTableRecord
100
AcDbBlockTableRecord
  2
*D13
340
0
  0
BLOCK_RECORD
  5
3E12
330
1
100
AcDbSymbolTableRecord
100
AcDbBlockTableRecord
  2
*D14
340
0
  0
BLOCK_RECORD
  5
3E39
330
1
100
AcDbSymbolTableRecord
100
AcDbBlockTableRecord
  2
*D15
340
0
  0
BLOCK_RECORD
  5
3E46
330
1
100
AcDbSymbolTableRecord
100
AcDbBlockTableRecord
  2
*D16
340
0
  0
BLOCK_RECORD
  5
3EA2
330
1
100
AcDbSymbolTableRecord
100
AcDbBlockTableRecord
  2
*D17
340
0
  0
BLOCK_RECORD
  5
3EBC
330
1
100
AcDbSymbolTableRecord
100
AcDbBlockTableRecord
  2
*D18
340
0
  0
BLOCK_RECORD
  5
3F09
330
1
100
AcDbSymbolTableRecord
100
AcDbBlockTableRecord
  2
*D19
340
0
  0
BLOCK_RECORD
  5
3F15
330
1
100
AcDbSymbolTableRecord
100
AcDbBlockTableRecord
  2
*D20
340
0
  0
BLOCK_RECORD
  5
3F33
330
1
100
AcDbSymbolTableRecord
100
AcDbBlockTableRecord
  2
*D21
340
0
  0
BLOCK_RECORD
  5
3F3F
330
1
100
AcDbSymbolTableRecord
100
AcDbBlockTableRecord
  2
*D22
340
0
  0
BLOCK_RECORD
  5
3F4B
330
1
100
AcDbSymbolTableRecord
100
AcDbBlockTableRecord
  2
*D23
340
0
  0
BLOCK_RECORD
  5
3FDA
330
1
100
AcDbSymbolTableRecord
100
AcDbBlockTableRecord
  2
*D24
340
0
  0
BLOCK_RECORD
  5
3FE6
330
1
100
AcDbSymbolTableRecord
100
AcDbBlockTableRecord
  2
*D25
340
0
  0
BLOCK_RECORD
  5
3FF2
330
1
100
AcDbSymbolTableRecord
100
AcDbBlockTableRecord
  2
*D26
340
0
  0
BLOCK_RECORD
  5
627A
330
1
100
AcDbSymbolTableRecord
100
AcDbBlockTableRecord
  2
_Open30
340
0
  0
ENDTAB
  0
ENDSEC
  0
SECTION
  2
BLOCKS
  0
BLOCK
  5
20
330
1F
100
AcDbEntity
  8
0
100
AcDbBlockBegin
  2
*Model_Space
 70
     0
 10
0.0
 20
0.0
 30
0.0
  3
*Model_Space
  1

  0
ENDBLK
  5
21
330
1F
100
AcDbEntity
  8
0
100
AcDbBlockEnd
  0
BLOCK
  5
57
330
55
100
AcDbEntity
 67
     1
  8
0
100
AcDbBlockBegin
  2
*Paper_Space
 70
     0
 10
0.0
 20
0.0
 30
0.0
  3
*Paper_Space
  1

  0
ENDBLK
  5
58
330
55
100
AcDbEntity
 67
     1
  8
0
100
AcDbBlockEnd
  0
BLOCK
  5
52
330
50
100
AcDbEntity
 67
     1
  8
0
100
AcDbBlockBegin
  2
*Paper_Space0
 70
     0
 10
0.0
 20
0.0
 30
0.0
  3
*Paper_Space0
  1

  0
VIEWPORT
  5
6B
102
{ACAD_XDICTIONARY
360
1021D
102
}
330
50
100
AcDbEntity
 67
     1
  8
0
100
AcDbViewport
 10
150.1652135264906
 20
101.599997546291
 30
0.0
 40
339.1973820494347
 41
164.5360435314421
 68
     0
 69
     0
 12
150.1652135264906
 22
101.599997546291
 13
0.0
 23
0.0
 14
10.0
 24
10.0
 15
10.0
 25
10.0
 16
0.0
 26
0.0
 36
1.0
 17
0.0
 27
0.0
 37
0.0
 42
50.0
 43
0.0
 44
0.0
 45
164.5360435314421
 50
0.0
 51
0.0
 72
  1000
 90
    32864
  1

281
     0
 71
     1
 74
     0
110
0.0
120
0.0
130
0.0
111
1.0
121
0.0
131
0.0
112
0.0
122
1.0
132
0.0
 79
     0
146
0.0
  0
VIEWPORT
  5
6D
102
{ACAD_XDICTIONARY
360
1021F
102
}
330
50
100
AcDbEntity
 67
     1
  8
0
100
AcDbViewport
 10
133.3499939441681
 20
101.5999939441681
 30
0.0
 40
213.3599903106689
 41
162.5599903106689
 68
     0
 69
     0
 12
210.0
 22
148.5
 13
0.0
 23
0.0
 14
10.0
 24
10.0
 15
10.0
 25
10.0
 16
0.0
 26
0.0
 36
1.0
 17
0.0
 27
0.0
 37
0.0
 42
50.0
 43
0.0
 44
0.0
 45
324.0677920111345
 50
0.0
 51
0.0
 72
   100
 90
    32864
  1

281
     0
 71
     1
 74
     0
110
0.0
120
0.0
130
0.0
111
1.0
121
0.0
131
0.0
112
0.0
122
1.0
132
0.0
 79
     0
146
0.0
  0
ENDBLK
  5
53
330
50
100
AcDbEntity
 67
     1
  8
0
100
AcDbBlockEnd
  0
BLOCK
  5
E1
330
E0
100
AcDbEntity
  8
0
100
AcDbBlockBegin
  2
DOT
 70
     0
 10
0.0
 20
0.0
 30
0.0
  3
DOT
  1

  0
ENDBLK
  5
E4
330
E0
100
AcDbEntity
  8
0
100
AcDbBlockEnd
  0
BLOCK
  5
1FB
330
1F8
100
AcDbEntity
  8
0
100
AcDbBlockBegin
  2
_Dot
 70
     0
 10
0.0
 20
0.0
 30
0.0
  3
_Dot
  1

  0
LWPOLYLINE
  5
1F9
330
1F8
100
AcDbEntity
  8
0
  6
ByBlock
 62
     0
100
AcDbPolyline
 90
        2
 70
     1
 43
0.5
 10
-0.25
 20
0.0
 42
1.0
 10
0.25
 20
0.0
 42
1.0
  0
LINE
  5
1FA
330
1F8
100
AcDbEntity
  8
0
  6
ByBlock
 62
     0
370
    -2
100
AcDbLine
 10
-0.5
 20
0.0
 30
0.0
 11
-1.0
 21
0.0
 31
0.0
  0
ENDBLK
  5
1FC
330
1F8
100
AcDbEntity
  8
0
100
AcDbBlockEnd
  0
BLOCK
  5
272C
330
272B
100
AcDbEntity
  8
0
100
AcDbBlockBegin
  2
_Origin
 70
     0
 10
0.0
 20
0.0
 30
0.0
  3
_Origin
  1

  0
CIRCLE
  5
272D
330
272B
100
AcDbEntity
  8
0
  6
ByBlock
 62
     0
370
    -2
100
AcDbCircle
 10
0.0
 20
0.0
 30
0.0
 40
0.5
  0
LINE
  5
272E
330
272B
100
AcDbEntity
  8
0
  6
ByBlock
 62
     0
370
    -2
100
AcDbLine
 10
0.0
 20
0.0
 30
0.0
 11
-1.0
 21
0.0
 31
0.0
  0
ENDBLK
  5
272F
330
272B
100
AcDbEntity
  8
0
100
AcDbBlockEnd
  0
BLOCK
  5
3C8C
330
3C82
100
AcDbEntity
  8
0
100
AcDbBlockBegin
  2
*D4
 70
     1
 10
0.0
 20
0.0
 30
0.0
  3
*D4
  1

  0
LINE
  5
1018B
330
3C82
100
AcDbEntity
  8
s
100
AcDbLine
 10
2155.715985865616
 20
27.61697864912185
 30
0.0
 11
2146.49427742466
 21
27.61697864912186
 31
0.0
  0
LINE
  5
1018C
330
3C82
100
AcDbEntity
  8
s
100
AcDbLine
 10
2152.415985865617
 20
-41.38302135087928
 30
0.0
 11
2146.49427742466
 21
-41.38302135087928
 31
0.0
  0
LINE
  5
1018D
330
3C82
100
AcDbEntity
  8
s
100
AcDbLine
 10
2146.49427742466
 20
26.51697864912185
 30
0.0
 11
2146.49427742466
 21
-40.28302135087928
 31
0.0
  0
INSERT
  5
1018E
330
3C82
100
AcDbEntity
  8
s
100
AcDbBlockReference
  2
_Origin
 10
2146.49427742466
 20
27.61697864912186
 30
0.0
 41
1.1
 42
1.1
 43
1.1
 50
90.0
  0
INSERT
  5
1018F
330
3C82
100
AcDbEntity
  8
s
100
AcDbBlockReference
  2
_Origin
 10
2146.49427742466
 20
-41.38302135087928
 30
0.0
 41
1.1
 42
1.1
 43
1.1
 50
270.0
  0
MTEXT
  5
10190
330
3C82
100
AcDbEntity
  8
s
 62
     7
100
AcDbMText
 10
2143.86927742466
 20
-6.883021350878369
 30
0.0
 40
3.25
 41
0.0
 71
     5
 72
     1
  1
69
  7
寸法用　bigfont
 11
0.0000000000000001
 21
1.0
 31
0.0
 73
     1
 44
1.0
1001
ACAD
1000
MTEXTBEGIN
1070
    73
1070
     1
1070
    44
1040
1.0
1070
    74
1070
     0
1000
MTEXTEND
  0
POINT
  5
10191
330
3C82
100
AcDbEntity
  8
Defpoints
 62
     0
100
AcDbPoint
 10
2160.715985865616
 20
27.61697864912185
 30
0.0
  0
POINT
  5
10192
330
3C82
100
AcDbEntity
  8
Defpoints
 62
     0
100
AcDbPoint
 10
2157.415985865617
 20
-41.38302135087928
 30
0.0
  0
POINT
  5
10193
330
3C82
100
AcDbEntity
  8
Defpoints
 62
     0
100
AcDbPoint
 10
2146.49427742466
 20
-41.38302135087928
 30
0.0
  0
ENDBLK
  5
3C8D
330
3C82
100
AcDbEntity
  8
0
100
AcDbBlockEnd
  0
BLOCK
  5
3C98
330
3C8E
100
AcDbEntity
  8
0
100
AcDbBlockBegin
  2
*D5
 70
     1
 10
0.0
 20
0.0
 30
0.0
  3
*D5
  1

  0
LINE
  5
10194
330
3C8E
100
AcDbEntity
  8
s
100
AcDbLine
 10
2196.610426807649
 20
-44.41548055232535
 30
0.0
 11
2217.106292951619
 21
-44.41548055232535
 31
0.0
  0
LINE
  5
10195
330
3C8E
100
AcDbEntity
  8
s
100
AcDbLine
 10
2195.243154866279
 20
-69.38277527916421
 30
0.0
 11
2217.106292951619
 21
-69.38277527916422
 31
0.0
  0
LINE
  5
10196
330
3C8E
100
AcDbEntity
  8
s
100
AcDbLine
 10
2217.106292951619
 20
-45.51548055232535
 30
0.0
 11
2217.106292951619
 21
-68.28277527916423
 31
0.0
  0
INSERT
  5
10197
330
3C8E
100
AcDbEntity
  8
s
100
AcDbBlockReference
  2
_Origin
 10
2217.106292951619
 20
-44.41548055232535
 30
0.0
 41
1.1
 42
1.1
 43
1.1
 50
90.0
  0
INSERT
  5
10198
330
3C8E
100
AcDbEntity
  8
s
100
AcDbBlockReference
  2
_Origin
 10
2217.106292951619
 20
-69.38277527916422
 30
0.0
 41
1.1
 42
1.1
 43
1.1
 50
270.0
  0
MTEXT
  5
10199
330
3C8E
100
AcDbEntity
  8
s
 62
     7
100
AcDbMText
 10
2214.481292951619
 20
-56.89912791574442
 30
0.0
 40
3.25
 41
0.0
 71
     5
 72
     1
  1
25
  7
寸法用　bigfont
 11
0.0000000000000001
 21
1.0
 31
0.0
 73
     1
 44
1.0
1001
ACAD
1000
MTEXTBEGIN
1070
    73
1070
     1
1070
    44
1040
1.0
1070
    74
1070
     0
1000
MTEXTEND
  0
POINT
  5
1019A
330
3C8E
100
AcDbEntity
  8
Defpoints
 62
     0
100
AcDbPoint
 10
2191.610426807649
 20
-44.41548055232534
 30
0.0
  0
POINT
  5
1019B
330
3C8E
100
AcDbEntity
  8
Defpoints
 62
     0
100
AcDbPoint
 10
2190.243154866279
 20
-69.38277527916421
 30
0.0
  0
POINT
  5
1019C
330
3C8E
100
AcDbEntity
  8
Defpoints
 62
     0
100
AcDbPoint
 10
2217.106292951619
 20
-69.38277527916422
 30
0.0
  0
ENDBLK
  5
3C99
330
3C8E
100
AcDbEntity
  8
0
100
AcDbBlockEnd
  0
BLOCK
  5
3CA4
330
3C9A
100
AcDbEntity
  8
0
100
AcDbBlockBegin
  2
*D6
 70
     1
 10
0.0
 20
0.0
 30
0.0
  3
*D6
  1

  0
LINE
  5
1019D
330
3C9A
100
AcDbEntity
  8
s
100
AcDbLine
 10
2150.715985865616
 20
-72.88302135087929
 30
0.0
 11
2150.715985865616
 21
-84.20432712760225
 31
0.0
  0
LINE
  5
1019E
330
3C9A
100
AcDbEntity
  8
s
100
AcDbLine
 10
2191.715985865616
 20
-72.8830213508802
 30
0.0
 11
2191.715985865616
 21
-84.20432712760225
 31
0.0
  0
LINE
  5
1019F
330
3C9A
100
AcDbEntity
  8
s
100
AcDbLine
 10
2151.815985865616
 20
-84.20432712760225
 30
0.0
 11
2190.615985865616
 21
-84.20432712760225
 31
0.0
  0
INSERT
  5
101A0
330
3C9A
100
AcDbEntity
  8
s
100
AcDbBlockReference
  2
_Origin
 10
2150.715985865616
 20
-84.20432712760225
 30
0.0
 41
1.1
 42
1.1
 43
1.1
 50
180.0
  0
INSERT
  5
101A1
330
3C9A
100
AcDbEntity
  8
s
100
AcDbBlockReference
  2
_Origin
 10
2191.715985865616
 20
-84.20432712760225
 30
0.0
 41
1.1
 42
1.1
 43
1.1
  0
MTEXT
  5
101A2
330
3C9A
100
AcDbEntity
  8
s
 62
     7
100
AcDbMText
 10
2171.215985865616
 20
-81.57932712760226
 30
0.0
 40
3.25
 41
0.0
 71
     5
 72
     1
  1
41
  7
寸法用　bigfont
 73
     1
 44
1.0
1001
ACAD
1000
MTEXTBEGIN
1070
    73
1070
     1
1070
    44
1040
1.0
1070
    74
1070
     0
1000
MTEXTEND
  0
POINT
  5
101A3
330
3C9A
100
AcDbEntity
  8
Defpoints
 62
     0
100
AcDbPoint
 10
2150.715985865616
 20
-67.88302135087929
 30
0.0
  0
POINT
  5
101A4
330
3C9A
100
AcDbEntity
  8
Defpoints
 62
     0
100
AcDbPoint
 10
2191.715985865616
 20
-67.8830213508802
 30
0.0
  0
POINT
  5
101A5
330
3C9A
100
AcDbEntity
  8
Defpoints
 62
     0
100
AcDbPoint
 10
2191.715985865616
 20
-84.20432712760225
 30
0.0
  0
ENDBLK
  5
3CA5
330
3C9A
100
AcDbEntity
  8
0
100
AcDbBlockEnd
  0
BLOCK
  5
3CCB
330
3CC1
100
AcDbEntity
  8
0
100
AcDbBlockBegin
  2
*D7
 70
     1
 10
0.0
 20
0.0
 30
0.0
  3
*D7
  1

  0
LINE
  5
101A6
330
3CC1
100
AcDbEntity
  8
s
100
AcDbLine
 10
2191.715985865617
 20
-40.74271901521341
 30
0.0
 11
2191.715985865617
 21
52.71155089967055
 31
0.0
  0
LINE
  5
101A7
330
3CC1
100
AcDbEntity
  8
s
100
AcDbLine
 10
2160.715985865616
 20
32.61697864912185
 30
0.0
 11
2160.715985865616
 21
52.71155089967055
 31
0.0
  0
LINE
  5
101A8
330
3CC1
100
AcDbEntity
  8
s
100
AcDbLine
 10
2190.615985865617
 20
52.71155089967055
 30
0.0
 11
2161.815985865616
 21
52.71155089967055
 31
0.0
  0
INSERT
  5
101A9
330
3CC1
100
AcDbEntity
  8
s
100
AcDbBlockReference
  2
_Origin
 10
2191.715985865617
 20
52.71155089967055
 30
0.0
 41
1.1
 42
1.1
 43
1.1
  0
INSERT
  5
101AA
330
3CC1
100
AcDbEntity
  8
s
100
AcDbBlockReference
  2
_Origin
 10
2160.715985865616
 20
52.71155089967055
 30
0.0
 41
1.1
 42
1.1
 43
1.1
 50
180.0
  0
MTEXT
  5
101AB
330
3CC1
100
AcDbEntity
  8
s
 62
     7
100
AcDbMText
 10
2176.215985865617
 20
55.33655089967055
 30
0.0
 40
3.25
 41
0.0
 71
     5
 72
     1
  1
31
  7
寸法用　bigfont
 73
     1
 44
1.0
1001
ACAD
1000
MTEXTBEGIN
1070
    73
1070
     1
1070
    44
1040
1.0
1070
    74
1070
     0
1000
MTEXTEND
  0
POINT
  5
101AC
330
3CC1
100
AcDbEntity
  8
Defpoints
 62
     0
100
AcDbPoint
 10
2191.715985865617
 20
-45.74271901521341
 30
0.0
  0
POINT
  5
101AD
330
3CC1
100
AcDbEntity
  8
Defpoints
 62
     0
100
AcDbPoint
 10
2160.715985865616
 20
27.61697864912185
 30
0.0
  0
POINT
  5
101AE
330
3CC1
100
AcDbEntity
  8
Defpoints
 62
     0
100
AcDbPoint
 10
2160.715985865616
 20
52.71155089967055
 30
0.0
  0
ENDBLK
  5
3CCC
330
3CC1
100
AcDbEntity
  8
0
100
AcDbBlockEnd
  0
BLOCK
  5
3CD7
330
3CCD
100
AcDbEntity
  8
0
100
AcDbBlockBegin
  2
*D8
 70
     1
 10
0.0
 20
0.0
 30
0.0
  3
*D8
  1

  0
LINE
  5
101AF
330
3CCD
100
AcDbEntity
  8
s
100
AcDbLine
 10
2147.215985865617
 20
-69.38302135087929
 30
0.0
 11
2136.032777461511
 21
-69.38302135087927
 31
0.0
  0
LINE
  5
101B0
330
3CCD
100
AcDbEntity
  8
s
100
AcDbLine
 10
2147.215985865617
 20
-61.38302135087928
 30
0.0
 11
2136.032777461511
 21
-61.38302135087928
 31
0.0
  0
LINE
  5
101B1
330
3CCD
100
AcDbEntity
  8
s
100
AcDbLine
 10
2136.032777461511
 20
-68.28302135087928
 30
0.0
 11
2136.032777461511
 21
-62.48302135087929
 31
0.0
  0
INSERT
  5
101B2
330
3CCD
100
AcDbEntity
  8
s
100
AcDbBlockReference
  2
_Origin
 10
2136.032777461511
 20
-69.38302135087927
 30
0.0
 41
1.1
 42
1.1
 43
1.1
 50
270.0
  0
INSERT
  5
101B3
330
3CCD
100
AcDbEntity
  8
s
100
AcDbBlockReference
  2
_Origin
 10
2136.032777461511
 20
-61.38302135087928
 30
0.0
 41
1.1
 42
1.1
 43
1.1
 50
90.0
  0
MTEXT
  5
101B4
330
3CCD
100
AcDbEntity
  8
s
 62
     7
100
AcDbMText
 10
2133.407777461511
 20
-65.38302135087893
 30
0.0
 40
3.25
 41
0.0
 71
     5
 72
     1
  1
8
  7
寸法用　bigfont
 11
0.0000000000000001
 21
1.0
 31
0.0
 73
     1
 44
1.0
1001
ACAD
1000
MTEXTBEGIN
1070
    73
1070
     1
1070
    44
1040
1.0
1070
    74
1070
     0
1000
MTEXTEND
  0
POINT
  5
101B5
330
3CCD
100
AcDbEntity
  8
Defpoints
 62
     0
100
AcDbPoint
 10
2152.215985865616
 20
-69.38302135087929
 30
0.0
  0
POINT
  5
101B6
330
3CCD
100
AcDbEntity
  8
Defpoints
 62
     0
100
AcDbPoint
 10
2152.215985865616
 20
-61.38302135087928
 30
0.0
  0
POINT
  5
101B7
330
3CCD
100
AcDbEntity
  8
Defpoints
 62
     0
100
AcDbPoint
 10
2136.032777461511
 20
-61.38302135087928
 30
0.0
  0
ENDBLK
  5
3CD8
330
3CCD
100
AcDbEntity
  8
0
100
AcDbBlockEnd
  0
BLOCK
  5
3CE3
330
3CD9
100
AcDbEntity
  8
0
100
AcDbBlockBegin
  2
*D9
 70
     1
 10
0.0
 20
0.0
 30
0.0
  3
*D9
  1

  0
LINE
  5
101B8
330
3CD9
100
AcDbEntity
  8
s
100
AcDbLine
 10
2158.297124695699
 20
-58.63960486062649
 30
0.0
 11
2159.891759074026
 21
-53.85570172564303
 31
0.0
  0
LINE
  5
101B9
330
3CD9
100
AcDbEntity
  8
s
100
AcDbLine
 10
2152.605024907396
 20
-56.74223826452669
 30
0.0
 11
2154.199659285723
 21
-51.95833512954322
 31
0.0
  0
LINE
  5
101BA
330
3CD9
100
AcDbEntity
  8
s
100
AcDbLine
 10
2158.848207446171
 20
-53.50785118302474
 30
0.0
 11
2155.243210913579
 21
-52.30618567216152
 31
0.0
  0
INSERT
  5
101BB
330
3CD9
100
AcDbEntity
  8
s
100
AcDbBlockReference
  2
_Origin
 10
2159.891759074026
 20
-53.85570172564303
 30
0.0
 41
1.1
 42
1.1
 43
1.1
 50
341.565051177089
  0
INSERT
  5
101BC
330
3CD9
100
AcDbEntity
  8
s
100
AcDbBlockReference
  2
_Origin
 10
2154.199659285723
 20
-51.95833512954322
 30
0.0
 41
1.1
 42
1.1
 43
1.1
 50
161.5650511770889
  0
MTEXT
  5
101BD
330
3CD9
100
AcDbEntity
  8
s
 62
     7
100
AcDbMText
 10
2157.875807065668
 20
-50.41672477021041
 30
0.0
 40
3.25
 41
0.0
 71
     5
 72
     1
  1
6
  7
寸法用　bigfont
 11
0.9486832980505745
 21
-0.3162277660166559
 31
0.0
 73
     1
 44
1.0
1001
ACAD
1000
MTEXTBEGIN
1070
    73
1070
     1
1070
    44
1040
1.0
1070
    74
1070
     0
1000
MTEXTEND
  0
POINT
  5
101BE
330
3CD9
100
AcDbEntity
  8
Defpoints
 62
     0
100
AcDbPoint
 10
2156.715985865616
 20
-63.3830213508794
 30
0.0
  0
POINT
  5
101BF
330
3CD9
100
AcDbEntity
  8
Defpoints
 62
     0
100
AcDbPoint
 10
2151.023886077313
 20
-61.4856547547796
 30
0.0
  0
POINT
  5
101C0
330
3CD9
100
AcDbEntity
  8
Defpoints
 62
     0
100
AcDbPoint
 10
2154.199659285723
 20
-51.95833512954322
 30
0.0
  0
ENDBLK
  5
3CE4
330
3CD9
100
AcDbEntity
  8
0
100
AcDbBlockEnd
  0
BLOCK
  5
3CF0
330
3CE5
100
AcDbEntity
  8
0
100
AcDbBlockBegin
  2
*D10
 70
     1
 10
0.0
 20
0.0
 30
0.0
  3
*D10
  1

  0
LINE
  5
101C1
330
3CE5
100
AcDbEntity
  8
s
100
AcDbLine
 10
2161.557871982608
 20
-63.8573629999055
 30
0.0
 11
2169.654494455157
 21
-63.8573629999055
 31
0.0
  0
LINE
  5
101C2
330
3CE5
100
AcDbEntity
  8
s
100
AcDbLine
 10
2161.557871982608
 20
-61.85736299990435
 30
0.0
 11
2169.654494455157
 21
-61.85736299990435
 31
0.0
  0
LINE
  5
101C3
330
3CE5
100
AcDbEntity
  8
s
100
AcDbLine
 10
2169.654494455157
 20
-64.9573629999055
 30
0.0
 11
2169.654494455157
 21
-66.0573629999055
 31
0.0
  0
LINE
  5
101C4
330
3CE5
100
AcDbEntity
  8
s
100
AcDbLine
 10
2169.654494455157
 20
-60.75736299990435
 30
0.0
 11
2169.654494455157
 21
-59.65736299990435
 31
0.0
  0
LINE
  5
101C5
330
3CE5
100
AcDbEntity
  8
s
100
AcDbLine
 10
2169.654494455157
 20
-63.8573629999055
 30
0.0
 11
2169.654494455157
 21
-61.85736299990435
 31
0.0
  0
INSERT
  5
101C6
330
3CE5
100
AcDbEntity
  8
s
100
AcDbBlockReference
  2
_Origin
 10
2169.654494455157
 20
-63.8573629999055
 30
0.0
 41
1.1
 42
1.1
 43
1.1
 50
90.0
  0
INSERT
  5
101C7
330
3CE5
100
AcDbEntity
  8
s
100
AcDbBlockReference
  2
_Origin
 10
2169.654494455157
 20
-61.85736299990435
 30
0.0
 41
1.1
 42
1.1
 43
1.1
 50
270.0
  0
MTEXT
  5
101C8
330
3CE5
100
AcDbEntity
  8
s
 62
     7
100
AcDbMText
 10
2167.029494455157
 20
-62.85736299990457
 30
0.0
 40
3.25
 41
0.0
 71
     5
 72
     1
  1
2
  7
寸法用　bigfont
 11
0.0000000000000001
 21
1.0
 31
0.0
 73
     1
 44
1.0
1001
ACAD
1000
MTEXTBEGIN
1070
    73
1070
     1
1070
    44
1040
1.0
1070
    74
1070
     0
1000
MTEXTEND
  0
POINT
  5
101C9
330
3CE5
100
AcDbEntity
  8
Defpoints
 62
     0
100
AcDbPoint
 10
2156.557871982608
 20
-63.85736299990549
 30
0.0
  0
POINT
  5
101CA
330
3CE5
100
AcDbEntity
  8
Defpoints
 62
     0
100
AcDbPoint
 10
2156.557871982608
 20
-61.85736299990434
 30
0.0
  0
POINT
  5
101CB
330
3CE5
100
AcDbEntity
  8
Defpoints
 62
     0
100
AcDbPoint
 10
2169.654494455157
 20
-61.85736299990435
 30
0.0
  0
ENDBLK
  5
3CF1
330
3CE5
100
AcDbEntity
  8
0
100
AcDbBlockEnd
  0
BLOCK
  5
3D8E
330
3D83
100
AcDbEntity
  8
0
100
AcDbBlockBegin
  2
*D11
 70
     1
 10
0.0
 20
0.0
 30
0.0
  3
*D11
  1

  0
LINE
  5
101CC
330
3D83
100
AcDbEntity
  8
s
100
AcDbLine
 10
2153.215985865617
 20
-44.38302135087927
 30
0.0
 11
2146.49427742466
 21
-44.38302135087927
 31
0.0
  0
LINE
  5
101CD
330
3D83
100
AcDbEntity
  8
s
100
AcDbLine
 10
2153.215985865617
 20
-41.38302135087928
 30
0.0
 11
2146.49427742466
 21
-41.38302135087928
 31
0.0
  0
LINE
  5
101CE
330
3D83
100
AcDbEntity
  8
s
100
AcDbLine
 10
2146.49427742466
 20
-45.48302135087928
 30
0.0
 11
2146.49427742466
 21
-46.58302135087928
 31
0.0
  0
LINE
  5
101CF
330
3D83
100
AcDbEntity
  8
s
100
AcDbLine
 10
2146.49427742466
 20
-40.28302135087928
 30
0.0
 11
2146.49427742466
 21
-39.18302135087928
 31
0.0
  0
LINE
  5
101D0
330
3D83
100
AcDbEntity
  8
s
100
AcDbLine
 10
2146.49427742466
 20
-44.38302135087927
 30
0.0
 11
2146.49427742466
 21
-41.38302135087928
 31
0.0
  0
INSERT
  5
101D1
330
3D83
100
AcDbEntity
  8
s
100
AcDbBlockReference
  2
_Origin
 10
2146.49427742466
 20
-44.38302135087927
 30
0.0
 41
1.1
 42
1.1
 43
1.1
 50
90.0
  0
INSERT
  5
101D2
330
3D83
100
AcDbEntity
  8
s
100
AcDbBlockReference
  2
_Origin
 10
2146.49427742466
 20
-41.38302135087928
 30
0.0
 41
1.1
 42
1.1
 43
1.1
 50
270.0
  0
MTEXT
  5
101D3
330
3D83
100
AcDbEntity
  8
s
 62
     7
100
AcDbMText
 10
2143.86927742466
 20
-42.88302135087893
 30
0.0
 40
3.25
 41
0.0
 71
     5
 72
     1
  1
3
  7
寸法用　bigfont
 11
0.0000000000000001
 21
1.0
 31
0.0
 73
     1
 44
1.0
1001
ACAD
1000
MTEXTBEGIN
1070
    73
1070
     1
1070
    44
1040
1.0
1070
    74
1070
     0
1000
MTEXTEND
  0
POINT
  5
101D4
330
3D83
100
AcDbEntity
  8
Defpoints
 62
     0
100
AcDbPoint
 10
2158.215985865616
 20
-44.38302135087927
 30
0.0
  0
POINT
  5
101D5
330
3D83
100
AcDbEntity
  8
Defpoints
 62
     0
100
AcDbPoint
 10
2158.215985865616
 20
-41.38302135087928
 30
0.0
  0
POINT
  5
101D6
330
3D83
100
AcDbEntity
  8
Defpoints
 62
     0
100
AcDbPoint
 10
2146.49427742466
 20
-41.38302135087928
 30
0.0
  0
ENDBLK
  5
3D8F
330
3D83
100
AcDbEntity
  8
0
100
AcDbBlockEnd
  0
BLOCK
  5
3E04
330
3DFA
100
AcDbEntity
  8
0
100
AcDbBlockBegin
  2
*D12
 70
     1
 10
0.0
 20
0.0
 30
0.0
  3
*D12
  1

  0
LINE
  5
1014A
330
3DFA
100
AcDbEntity
  8
s
100
AcDbLine
 10
1995.832291702697
 20
19.23293478524283
 30
0.0
 11
2046.722598788701
 21
19.23293478524281
 31
0.0
  0
LINE
  5
1014B
330
3DFA
100
AcDbEntity
  8
s
100
AcDbLine
 10
2026.22673264473
 20
-42.76706521475717
 30
0.0
 11
2046.722598788701
 21
-42.76706521475718
 31
0.0
  0
LINE
  5
1014C
330
3DFA
100
AcDbEntity
  8
s
100
AcDbLine
 10
2046.722598788701
 20
18.13293478524281
 30
0.0
 11
2046.722598788701
 21
-41.66706521475718
 31
0.0
  0
INSERT
  5
1014D
330
3DFA
100
AcDbEntity
  8
s
100
AcDbBlockReference
  2
_Origin
 10
2046.722598788701
 20
19.23293478524281
 30
0.0
 41
1.1
 42
1.1
 43
1.1
 50
90.0
  0
INSERT
  5
1014E
330
3DFA
100
AcDbEntity
  8
s
100
AcDbBlockReference
  2
_Origin
 10
2046.722598788701
 20
-42.76706521475718
 30
0.0
 41
1.1
 42
1.1
 43
1.1
 50
270.0
  0
MTEXT
  5
1014F
330
3DFA
100
AcDbEntity
  8
s
 62
     7
100
AcDbMText
 10
2044.097598788701
 20
-11.76706521475685
 30
0.0
 40
3.25
 41
0.0
 71
     5
 72
     1
  1
62
  7
寸法用　bigfont
 11
0.0000000000000001
 21
1.0
 31
0.0
 73
     1
 44
1.0
1001
ACAD
1000
MTEXTBEGIN
1070
    73
1070
     1
1070
    44
1040
1.0
1070
    74
1070
     0
1000
MTEXTEND
  0
POINT
  5
10150
330
3DFA
100
AcDbEntity
  8
Defpoints
 62
     0
100
AcDbPoint
 10
1990.832291702696
 20
19.23293478524283
 30
0.0
  0
POINT
  5
10151
330
3DFA
100
AcDbEntity
  8
Defpoints
 62
     0
100
AcDbPoint
 10
2021.22673264473
 20
-42.76706521475717
 30
0.0
  0
POINT
  5
10152
330
3DFA
100
AcDbEntity
  8
Defpoints
 62
     0
100
AcDbPoint
 10
2046.722598788701
 20
-42.76706521475718
 30
0.0
  0
ENDBLK
  5
3E05
330
3DFA
100
AcDbEntity
  8
0
100
AcDbBlockEnd
  0
BLOCK
  5
3E10
330
3E06
100
AcDbEntity
  8
0
100
AcDbBlockBegin
  2
*D13
 70
     1
 10
0.0
 20
0.0
 30
0.0
  3
*D13
  1

  0
LINE
  5
10153
330
3E06
100
AcDbEntity
  8
s
100
AcDbLine
 10
2026.22673264473
 20
-42.76706521475717
 30
0.0
 11
2046.722598788701
 21
-42.76706521475718
 31
0.0
  0
LINE
  5
10154
330
3E06
100
AcDbEntity
  8
s
100
AcDbLine
 10
2024.85946070336
 20
-67.73435994159604
 30
0.0
 11
2046.722598788701
 21
-67.73435994159604
 31
0.0
  0
LINE
  5
10155
330
3E06
100
AcDbEntity
  8
s
100
AcDbLine
 10
2046.722598788701
 20
-43.86706521475718
 30
0.0
 11
2046.722598788701
 21
-66.63435994159605
 31
0.0
  0
INSERT
  5
10156
330
3E06
100
AcDbEntity
  8
s
100
AcDbBlockReference
  2
_Origin
 10
2046.722598788701
 20
-42.76706521475718
 30
0.0
 41
1.1
 42
1.1
 43
1.1
 50
90.0
  0
INSERT
  5
10157
330
3E06
100
AcDbEntity
  8
s
100
AcDbBlockReference
  2
_Origin
 10
2046.722598788701
 20
-67.73435994159604
 30
0.0
 41
1.1
 42
1.1
 43
1.1
 50
270.0
  0
MTEXT
  5
10158
330
3E06
100
AcDbEntity
  8
s
 62
     7
100
AcDbMText
 10
2044.097598788701
 20
-55.25071257817629
 30
0.0
 40
3.25
 41
0.0
 71
     5
 72
     1
  1
25
  7
寸法用　bigfont
 11
0.0000000000000001
 21
1.0
 31
0.0
 73
     1
 44
1.0
1001
ACAD
1000
MTEXTBEGIN
1070
    73
1070
     1
1070
    44
1040
1.0
1070
    74
1070
     0
1000
MTEXTEND
  0
POINT
  5
10159
330
3E06
100
AcDbEntity
  8
Defpoints
 62
     0
100
AcDbPoint
 10
2021.22673264473
 20
-42.76706521475717
 30
0.0
  0
POINT
  5
1015A
330
3E06
100
AcDbEntity
  8
Defpoints
 62
     0
100
AcDbPoint
 10
2019.85946070336
 20
-67.73435994159604
 30
0.0
  0
POINT
  5
1015B
330
3E06
100
AcDbEntity
  8
Defpoints
 62
     0
100
AcDbPoint
 10
2046.722598788701
 20
-67.73435994159604
 30
0.0
  0
ENDBLK
  5
3E11
330
3E06
100
AcDbEntity
  8
0
100
AcDbBlockEnd
  0
BLOCK
  5
3E1C
330
3E12
100
AcDbEntity
  8
0
100
AcDbBlockBegin
  2
*D14
 70
     1
 10
0.0
 20
0.0
 30
0.0
  3
*D14
  1

  0
LINE
  5
1015C
330
3E12
100
AcDbEntity
  8
s
100
AcDbLine
 10
2013.373744044481
 20
-72.63709521980921
 30
0.0
 11
2013.373744044481
 21
-82.55591179003408
 31
0.0
  0
LINE
  5
1015D
330
3E12
100
AcDbEntity
  8
s
100
AcDbLine
 10
2021.326123654
 20
-71.37049604704839
 30
0.0
 11
2021.326123654
 21
-82.55591179003408
 31
0.0
  0
LINE
  5
1015E
330
3E12
100
AcDbEntity
  8
s
100
AcDbLine
 10
2014.473744044481
 20
-82.55591179003408
 30
0.0
 11
2020.226123654
 21
-82.55591179003408
 31
0.0
  0
INSERT
  5
1015F
330
3E12
100
AcDbEntity
  8
s
100
AcDbBlockReference
  2
_Origin
 10
2013.373744044481
 20
-82.55591179003408
 30
0.0
 41
1.1
 42
1.1
 43
1.1
 50
180.0
  0
INSERT
  5
10160
330
3E12
100
AcDbEntity
  8
s
100
AcDbBlockReference
  2
_Origin
 10
2021.326123654
 20
-82.55591179003408
 30
0.0
 41
1.1
 42
1.1
 43
1.1
  0
MTEXT
  5
10161
330
3E12
100
AcDbEntity
  8
s
 62
     7
100
AcDbMText
 10
2017.34993384924
 20
-79.93091179003409
 30
0.0
 40
3.25
 41
0.0
 71
     5
 72
     1
  1
8
  7
寸法用　bigfont
 73
     1
 44
1.0
1001
ACAD
1000
MTEXTBEGIN
1070
    73
1070
     1
1070
    44
1040
1.0
1070
    74
1070
     0
1000
MTEXTEND
  0
POINT
  5
10162
330
3E12
100
AcDbEntity
  8
Defpoints
 62
     0
100
AcDbPoint
 10
2013.373744044481
 20
-67.63709521980921
 30
0.0
  0
POINT
  5
10163
330
3E12
100
AcDbEntity
  8
Defpoints
 62
     0
100
AcDbPoint
 10
2021.326123654
 20
-66.37049604704839
 30
0.0
  0
POINT
  5
10164
330
3E12
100
AcDbEntity
  8
Defpoints
 62
     0
100
AcDbPoint
 10
2021.326123654
 20
-82.55591179003408
 30
0.0
  0
ENDBLK
  5
3E1D
330
3E12
100
AcDbEntity
  8
0
100
AcDbBlockEnd
  0
BLOCK
  5
3E43
330
3E39
100
AcDbEntity
  8
0
100
AcDbBlockBegin
  2
*D15
 70
     1
 10
0.0
 20
0.0
 30
0.0
  3
*D15
  1

  0
LINE
  5
10165
330
3E39
100
AcDbEntity
  8
s
100
AcDbLine
 10
2021.332291702698
 20
-39.1267628790913
 30
0.0
 11
2021.332291702698
 21
44.32750703579199
 31
0.0
  0
LINE
  5
10166
330
3E39
100
AcDbEntity
  8
s
100
AcDbLine
 10
1990.332291702697
 20
24.23293478524283
 30
0.0
 11
1990.332291702697
 21
44.32750703579198
 31
0.0
  0
LINE
  5
10167
330
3E39
100
AcDbEntity
  8
s
100
AcDbLine
 10
2020.232291702698
 20
44.32750703579198
 30
0.0
 11
1991.432291702697
 21
44.32750703579198
 31
0.0
  0
INSERT
  5
10168
330
3E39
100
AcDbEntity
  8
s
100
AcDbBlockReference
  2
_Origin
 10
2021.332291702698
 20
44.32750703579198
 30
0.0
 41
1.1
 42
1.1
 43
1.1
  0
INSERT
  5
10169
330
3E39
100
AcDbEntity
  8
s
100
AcDbBlockReference
  2
_Origin
 10
1990.332291702697
 20
44.32750703579198
 30
0.0
 41
1.1
 42
1.1
 43
1.1
 50
180.0
  0
MTEXT
  5
1016A
330
3E39
100
AcDbEntity
  8
s
 62
     7
100
AcDbMText
 10
2005.832291702698
 20
46.95250703579199
 30
0.0
 40
3.25
 41
0.0
 71
     5
 72
     1
  1
31
  7
寸法用　bigfont
 73
     1
 44
1.0
1001
ACAD
1000
MTEXTBEGIN
1070
    73
1070
     1
1070
    44
1040
1.0
1070
    74
1070
     0
1000
MTEXTEND
  0
POINT
  5
1016B
330
3E39
100
AcDbEntity
  8
Defpoints
 62
     0
100
AcDbPoint
 10
2021.332291702698
 20
-44.1267628790913
 30
0.0
  0
POINT
  5
1016C
330
3E39
100
AcDbEntity
  8
Defpoints
 62
     0
100
AcDbPoint
 10
1990.332291702697
 20
19.23293478524283
 30
0.0
  0
POINT
  5
1016D
330
3E39
100
AcDbEntity
  8
Defpoints
 62
     0
100
AcDbPoint
 10
1990.332291702697
 20
44.32750703579198
 30
0.0
  0
ENDBLK
  5
3E44
330
3E39
100
AcDbEntity
  8
0
100
AcDbBlockEnd
  0
BLOCK
  5
3E50
330
3E46
100
AcDbEntity
  8
0
100
AcDbBlockBegin
  2
*D16
 70
     1
 10
0.0
 20
0.0
 30
0.0
  3
*D16
  1

  0
LINE
  5
1016E
330
3E46
100
AcDbEntity
  8
s
100
AcDbLine
 10
2014.039398483884
 20
-59.95643142026051
 30
0.0
 11
2009.931796219966
 21
-55.84882915634193
 31
0.0
  0
LINE
  5
1016F
330
3E46
100
AcDbEntity
  8
s
100
AcDbLine
 10
2009.796757796765
 20
-64.19907210737915
 30
0.0
 11
2005.689155532847
 21
-60.09146984346057
 31
0.0
  0
LINE
  5
10170
330
3E46
100
AcDbEntity
  8
s
100
AcDbLine
 10
2009.153978760661
 20
-56.62664661564702
 30
0.0
 11
2006.466972992152
 21
-59.31365238415549
 31
0.0
  0
INSERT
  5
10171
330
3E46
100
AcDbEntity
  8
s
100
AcDbBlockReference
  2
_Origin
 10
2009.931796219966
 20
-55.84882915634193
 30
0.0
 41
1.1
 42
1.1
 43
1.1
 50
44.99999999999848
  0
INSERT
  5
10172
330
3E46
100
AcDbEntity
  8
s
100
AcDbBlockReference
  2
_Origin
 10
2005.689155532847
 20
-60.09146984346057
 30
0.0
 41
1.1
 42
1.1
 43
1.1
 50
224.9999999999985
  0
MTEXT
  5
10173
330
3E46
100
AcDbEntity
  8
s
 62
     7
100
AcDbMText
 10
2005.954320575792
 20
-56.11399419928659
 30
0.0
 40
3.25
 41
0.0
 71
     5
 72
     1
  1
6
  7
寸法用　bigfont
 11
0.7071067811865664
 21
0.7071067811865288
 31
0.0
 73
     1
 44
1.0
1001
ACAD
1000
MTEXTBEGIN
1070
    73
1070
     1
1070
    44
1040
1.0
1070
    74
1070
     0
1000
MTEXTEND
  0
POINT
  5
10174
330
3E46
100
AcDbEntity
  8
Defpoints
 62
     0
100
AcDbPoint
 10
2017.574932389817
 20
-63.49196532619316
 30
0.0
  0
POINT
  5
10175
330
3E46
100
AcDbEntity
  8
Defpoints
 62
     0
100
AcDbPoint
 10
2013.332291702698
 20
-67.7346060133118
 30
0.0
  0
POINT
  5
10176
330
3E46
100
AcDbEntity
  8
Defpoints
 62
     0
100
AcDbPoint
 10
2005.689155532847
 20
-60.09146984346057
 30
0.0
  0
ENDBLK
  5
3E51
330
3E46
100
AcDbEntity
  8
0
100
AcDbBlockEnd
  0
BLOCK
  5
3EAD
330
3EA2
100
AcDbEntity
  8
0
100
AcDbBlockBegin
  2
*D17
 70
     1
 10
0.0
 20
0.0
 30
0.0
  3
*D17
  1

  0
LINE
  5
10177
330
3EA2
100
AcDbEntity
  8
s
100
AcDbLine
 10
1984.74830184487
 20
-39.7670652147583
 30
0.0
 11
1978.114914810784
 21
-39.7670652147583
 31
0.0
  0
LINE
  5
10178
330
3EA2
100
AcDbEntity
  8
s
100
AcDbLine
 10
1984.74830184487
 20
-42.76706521475717
 30
0.0
 11
1978.114914810784
 21
-42.76706521475717
 31
0.0
  0
LINE
  5
10179
330
3EA2
100
AcDbEntity
  8
s
100
AcDbLine
 10
1978.114914810784
 20
-38.6670652147583
 30
0.0
 11
1978.114914810784
 21
-37.56706521475829
 31
0.0
  0
LINE
  5
1017A
330
3EA2
100
AcDbEntity
  8
s
100
AcDbLine
 10
1978.114914810784
 20
-43.86706521475717
 30
0.0
 11
1978.114914810784
 21
-44.96706521475718
 31
0.0
  0
LINE
  5
1017B
330
3EA2
100
AcDbEntity
  8
s
100
AcDbLine
 10
1978.114914810784
 20
-39.7670652147583
 30
0.0
 11
1978.114914810784
 21
-42.76706521475717
 31
0.0
  0
INSERT
  5
1017C
330
3EA2
100
AcDbEntity
  8
s
100
AcDbBlockReference
  2
_Origin
 10
1978.114914810784
 20
-39.7670652147583
 30
0.0
 41
1.1
 42
1.1
 43
1.1
 50
270.0
  0
INSERT
  5
1017D
330
3EA2
100
AcDbEntity
  8
s
100
AcDbBlockReference
  2
_Origin
 10
1978.114914810784
 20
-42.76706521475717
 30
0.0
 41
1.1
 42
1.1
 43
1.1
 50
90.0
  0
MTEXT
  5
1017E
330
3EA2
100
AcDbEntity
  8
s
 62
     7
100
AcDbMText
 10
1975.489914810784
 20
-41.26706521475742
 30
0.0
 40
3.25
 41
0.0
 71
     5
 72
     1
  1
3
  7
寸法用　bigfont
 11
0.0000000000000001
 21
1.0
 31
0.0
 73
     1
 44
1.0
1001
ACAD
1000
MTEXTBEGIN
1070
    73
1070
     1
1070
    44
1040
1.0
1070
    74
1070
     0
1000
MTEXTEND
  0
POINT
  5
1017F
330
3EA2
100
AcDbEntity
  8
Defpoints
 62
     0
100
AcDbPoint
 10
1989.748301844869
 20
-39.7670652147583
 30
0.0
  0
POINT
  5
10180
330
3EA2
100
AcDbEntity
  8
Defpoints
 62
     0
100
AcDbPoint
 10
1989.748301844869
 20
-42.76706521475717
 30
0.0
  0
POINT
  5
10181
330
3EA2
100
AcDbEntity
  8
Defpoints
 62
     0
100
AcDbPoint
 10
1978.114914810784
 20
-42.76706521475717
 30
0.0
  0
ENDBLK
  5
3EAE
330
3EA2
100
AcDbEntity
  8
0
100
AcDbBlockEnd
  0
BLOCK
  5
3EC6
330
3EBC
100
AcDbEntity
  8
0
100
AcDbBlockBegin
  2
*D18
 70
     1
 10
0.0
 20
0.0
 30
0.0
  3
*D18
  1

  0
LINE
  5
10182
330
3EBC
100
AcDbEntity
  8
s
100
AcDbLine
 10
1983.948301844869
 20
-39.7670652147583
 30
0.0
 11
1978.114914810784
 21
-39.7670652147583
 31
0.0
  0
LINE
  5
10183
330
3EBC
100
AcDbEntity
  8
s
100
AcDbLine
 10
1985.332291702697
 20
19.23293478524283
 30
0.0
 11
1978.114914810784
 21
19.23293478524283
 31
0.0
  0
LINE
  5
10184
330
3EBC
100
AcDbEntity
  8
s
100
AcDbLine
 10
1978.114914810784
 20
-38.6670652147583
 30
0.0
 11
1978.114914810784
 21
18.13293478524283
 31
0.0
  0
INSERT
  5
10185
330
3EBC
100
AcDbEntity
  8
s
100
AcDbBlockReference
  2
_Origin
 10
1978.114914810784
 20
-39.7670652147583
 30
0.0
 41
1.1
 42
1.1
 43
1.1
 50
270.0
  0
INSERT
  5
10186
330
3EBC
100
AcDbEntity
  8
s
100
AcDbBlockReference
  2
_Origin
 10
1978.114914810784
 20
19.23293478524283
 30
0.0
 41
1.1
 42
1.1
 43
1.1
 50
90.0
  0
MTEXT
  5
10187
330
3EBC
100
AcDbEntity
  8
s
 62
     7
100
AcDbMText
 10
1975.489914810784
 20
-10.26706521475741
 30
0.0
 40
3.25
 41
0.0
 71
     5
 72
     1
  1
59
  7
寸法用　bigfont
 11
0.0000000000000001
 21
1.0
 31
0.0
 73
     1
 44
1.0
1001
ACAD
1000
MTEXTBEGIN
1070
    73
1070
     1
1070
    44
1040
1.0
1070
    74
1070
     0
1000
MTEXTEND
  0
POINT
  5
10188
330
3EBC
100
AcDbEntity
  8
Defpoints
 62
     0
100
AcDbPoint
 10
1988.948301844869
 20
-39.7670652147583
 30
0.0
  0
POINT
  5
10189
330
3EBC
100
AcDbEntity
  8
Defpoints
 62
     0
100
AcDbPoint
 10
1990.332291702697
 20
19.23293478524283
 30
0.0
  0
POINT
  5
1018A
330
3EBC
100
AcDbEntity
  8
Defpoints
 62
     0
100
AcDbPoint
 10
1978.114914810784
 20
19.23293478524283
 30
0.0
  0
ENDBLK
  5
3EC7
330
3EBC
100
AcDbEntity
  8
0
100
AcDbBlockEnd
  0
BLOCK
  5
3F13
330
3F09
100
AcDbEntity
  8
0
100
AcDbBlockBegin
  2
*D19
 70
     1
 10
0.0
 20
0.0
 30
0.0
  3
*D19
  1

  0
LINE
  5
F908
330
3F09
100
AcDbEntity
  8
s
100
AcDbLine
 10
1708.288159065322
 20
21.43170553380287
 30
0.0
 11
1708.288159065322
 21
41.00423022416793
 31
0.0
  0
LINE
  5
F909
330
3F09
100
AcDbEntity
  8
s
100
AcDbLine
 10
1677.288159065322
 20
21.43170553380173
 30
0.0
 11
1677.288159065322
 21
41.00423022416793
 31
0.0
  0
LINE
  5
F90A
330
3F09
100
AcDbEntity
  8
s
100
AcDbLine
 10
1707.188159065322
 20
41.00423022416793
 30
0.0
 11
1678.388159065322
 21
41.00423022416793
 31
0.0
  0
INSERT
  5
F90B
330
3F09
100
AcDbEntity
  8
s
100
AcDbBlockReference
  2
_Origin
 10
1708.288159065322
 20
41.00423022416793
 30
0.0
 41
1.1
 42
1.1
 43
1.1
  0
INSERT
  5
F90C
330
3F09
100
AcDbEntity
  8
s
100
AcDbBlockReference
  2
_Origin
 10
1677.288159065322
 20
41.00423022416793
 30
0.0
 41
1.1
 42
1.1
 43
1.1
 50
180.0
  0
MTEXT
  5
F90D
330
3F09
100
AcDbEntity
  8
s
 62
     7
100
AcDbMText
 10
1692.788159065322
 20
43.62923022416794
 30
0.0
 40
3.25
 41
0.0
 71
     5
 72
     1
  1
31
  7
寸法用　bigfont
 73
     1
 44
1.0
1001
ACAD
1000
MTEXTBEGIN
1070
    73
1070
     1
1070
    44
1040
1.0
1070
    74
1070
     0
1000
MTEXTEND
  0
POINT
  5
F90E
330
3F09
100
AcDbEntity
  8
Defpoints
 62
     0
100
AcDbPoint
 10
1708.288159065322
 20
16.43170553380287
 30
0.0
  0
POINT
  5
F90F
330
3F09
100
AcDbEntity
  8
Defpoints
 62
     0
100
AcDbPoint
 10
1677.288159065322
 20
16.43170553380173
 30
0.0
  0
POINT
  5
F910
330
3F09
100
AcDbEntity
  8
Defpoints
 62
     0
100
AcDbPoint
 10
1677.288159065322
 20
41.00423022416793
 30
0.0
  0
ENDBLK
  5
3F14
330
3F09
100
AcDbEntity
  8
0
100
AcDbBlockEnd
  0
BLOCK
  5
3F1F
330
3F15
100
AcDbEntity
  8
0
100
AcDbBlockBegin
  2
*D20
 70
     1
 10
0.0
 20
0.0
 30
0.0
  3
*D20
  1

  0
LINE
  5
F911
330
3F15
100
AcDbEntity
  8
s
100
AcDbLine
 10
1672.385669858824
 20
-2.026842124414313
 30
0.0
 11
1662.4668532886
 21
-2.026842124414311
 31
0.0
  0
LINE
  5
F912
330
3F15
100
AcDbEntity
  8
s
100
AcDbLine
 10
1673.788159065322
 20
17.93170553380287
 30
0.0
 11
1662.4668532886
 21
17.93170553380287
 31
0.0
  0
LINE
  5
F913
330
3F15
100
AcDbEntity
  8
s
100
AcDbLine
 10
1662.4668532886
 20
-0.9268421244143112
 30
0.0
 11
1662.4668532886
 21
16.83170553380287
 31
0.0
  0
INSERT
  5
F914
330
3F15
100
AcDbEntity
  8
s
100
AcDbBlockReference
  2
_Origin
 10
1662.4668532886
 20
-2.026842124414311
 30
0.0
 41
1.1
 42
1.1
 43
1.1
 50
270.0
  0
INSERT
  5
F915
330
3F15
100
AcDbEntity
  8
s
100
AcDbBlockReference
  2
_Origin
 10
1662.4668532886
 20
17.93170553380287
 30
0.0
 41
1.1
 42
1.1
 43
1.1
 50
90.0
  0
MTEXT
  5
F916
330
3F15
100
AcDbEntity
  8
s
 62
     7
100
AcDbMText
 10
1659.8418532886
 20
7.952431704694547
 30
0.0
 40
3.25
 41
0.0
 71
     5
 72
     1
  1
20
  7
寸法用　bigfont
 11
0.0000000000000001
 21
1.0
 31
0.0
 73
     1
 44
1.0
1001
ACAD
1000
MTEXTBEGIN
1070
    73
1070
     1
1070
    44
1040
1.0
1070
    74
1070
     0
1000
MTEXTEND
  0
POINT
  5
F917
330
3F15
100
AcDbEntity
  8
Defpoints
 62
     0
100
AcDbPoint
 10
1677.385669858824
 20
-2.026842124414315
 30
0.0
  0
POINT
  5
F918
330
3F15
100
AcDbEntity
  8
Defpoints
 62
     0
100
AcDbPoint
 10
1678.788159065322
 20
17.93170553380287
 30
0.0
  0
POINT
  5
F919
330
3F15
100
AcDbEntity
  8
Defpoints
 62
     0
100
AcDbPoint
 10
1662.4668532886
 20
17.93170553380287
 30
0.0
  0
ENDBLK
  5
3F20
330
3F15
100
AcDbEntity
  8
0
100
AcDbBlockEnd
  0
BLOCK
  5
3F3D
330
3F33
100
AcDbEntity
  8
0
100
AcDbBlockBegin
  2
*D21
 70
     1
 10
0.0
 20
0.0
 30
0.0
  3
*D21
  1

  0
LINE
  5
F91A
330
3F33
100
AcDbEntity
  8
s
100
AcDbLine
 10
1711.788159065322
 20
17.93170553380287
 30
0.0
 11
1726.913003454708
 21
17.93170553380286
 31
0.0
  0
LINE
  5
F91B
330
3F33
100
AcDbEntity
  8
s
100
AcDbLine
 10
1713.288159065325
 20
-46.06829446619713
 30
0.0
 11
1726.913003454708
 21
-46.06829446619713
 31
0.0
  0
LINE
  5
F91C
330
3F33
100
AcDbEntity
  8
s
100
AcDbLine
 10
1726.913003454708
 20
16.83170553380286
 30
0.0
 11
1726.913003454708
 21
-44.96829446619712
 31
0.0
  0
INSERT
  5
F91D
330
3F33
100
AcDbEntity
  8
s
100
AcDbBlockReference
  2
_Origin
 10
1726.913003454708
 20
17.93170553380286
 30
0.0
 41
1.1
 42
1.1
 43
1.1
 50
90.0
  0
INSERT
  5
F91E
330
3F33
100
AcDbEntity
  8
s
100
AcDbBlockReference
  2
_Origin
 10
1726.913003454708
 20
-46.06829446619713
 30
0.0
 41
1.1
 42
1.1
 43
1.1
 50
270.0
  0
MTEXT
  5
F91F
330
3F33
100
AcDbEntity
  8
s
 62
     7
100
AcDbMText
 10
1724.288003454708
 20
-14.06829446619686
 30
0.0
 40
3.25
 41
0.0
 71
     5
 72
     1
  1
64
  7
寸法用　bigfont
 11
0.0000000000000001
 21
1.0
 31
0.0
 73
     1
 44
1.0
1001
ACAD
1000
MTEXTBEGIN
1070
    73
1070
     1
1070
    44
1040
1.0
1070
    74
1070
     0
1000
MTEXTEND
  0
POINT
  5
F920
330
3F33
100
AcDbEntity
  8
Defpoints
 62
     0
100
AcDbPoint
 10
1706.788159065322
 20
17.93170553380287
 30
0.0
  0
POINT
  5
F921
330
3F33
100
AcDbEntity
  8
Defpoints
 62
     0
100
AcDbPoint
 10
1708.288159065325
 20
-46.06829446619713
 30
0.0
  0
POINT
  5
F922
330
3F33
100
AcDbEntity
  8
Defpoints
 62
     0
100
AcDbPoint
 10
1726.913003454708
 20
-46.06829446619713
 30
0.0
  0
ENDBLK
  5
3F3E
330
3F33
100
AcDbEntity
  8
0
100
AcDbBlockEnd
  0
BLOCK
  5
3F49
330
3F3F
100
AcDbEntity
  8
0
100
AcDbBlockBegin
  2
*D22
 70
     1
 10
0.0
 20
0.0
 30
0.0
  3
*D22
  1

  0
LINE
  5
F923
330
3F3F
100
AcDbEntity
  8
s
100
AcDbLine
 10
1678.788159065322
 20
-7.068294466197129
 30
0.0
 11
1678.788159065322
 21
-19.75150287030328
 31
0.0
  0
LINE
  5
F924
330
3F3F
100
AcDbEntity
  8
s
100
AcDbLine
 10
1686.788159065322
 20
-5.568294466197129
 30
0.0
 11
1686.788159065322
 21
-19.75150287030328
 31
0.0
  0
LINE
  5
F925
330
3F3F
100
AcDbEntity
  8
s
100
AcDbLine
 10
1679.888159065322
 20
-19.75150287030328
 30
0.0
 11
1685.688159065322
 21
-19.75150287030328
 31
0.0
  0
INSERT
  5
F926
330
3F3F
100
AcDbEntity
  8
s
100
AcDbBlockReference
  2
_Origin
 10
1678.788159065322
 20
-19.75150287030328
 30
0.0
 41
1.1
 42
1.1
 43
1.1
 50
180.0
  0
INSERT
  5
F927
330
3F3F
100
AcDbEntity
  8
s
100
AcDbBlockReference
  2
_Origin
 10
1686.788159065322
 20
-19.75150287030328
 30
0.0
 41
1.1
 42
1.1
 43
1.1
  0
MTEXT
  5
F928
330
3F3F
100
AcDbEntity
  8
s
 62
     7
100
AcDbMText
 10
1682.788159065322
 20
-17.12650287030328
 30
0.0
 40
3.25
 41
0.0
 71
     5
 72
     1
  1
8
  7
寸法用　bigfont
 73
     1
 44
1.0
1001
ACAD
1000
MTEXTBEGIN
1070
    73
1070
     1
1070
    44
1040
1.0
1070
    74
1070
     0
1000
MTEXTEND
  0
POINT
  5
F929
330
3F3F
100
AcDbEntity
  8
Defpoints
 62
     0
100
AcDbPoint
 10
1678.788159065322
 20
-2.068294466197129
 30
0.0
  0
POINT
  5
F92A
330
3F3F
100
AcDbEntity
  8
Defpoints
 62
     0
100
AcDbPoint
 10
1686.788159065322
 20
-0.5682944661971307
 30
0.0
  0
POINT
  5
F92B
330
3F3F
100
AcDbEntity
  8
Defpoints
 62
     0
100
AcDbPoint
 10
1686.788159065322
 20
-19.75150287030328
 30
0.0
  0
ENDBLK
  5
3F4A
330
3F3F
100
AcDbEntity
  8
0
100
AcDbBlockEnd
  0
BLOCK
  5
3F55
330
3F4B
100
AcDbEntity
  8
0
100
AcDbBlockBegin
  2
*D23
 70
     1
 10
0.0
 20
0.0
 30
0.0
  3
*D23
  1

  0
LINE
  5
F92C
330
3F4B
100
AcDbEntity
  8
s
100
AcDbLine
 10
1689.531575555574
 20
5.512844363885903
 30
0.0
 11
1694.315478690555
 21
7.107478742212662
 31
0.0
  0
LINE
  5
F92D
330
3F4B
100
AcDbEntity
  8
s
100
AcDbLine
 10
1691.428942151676
 20
-0.1792554244170219
 30
0.0
 11
1696.212845286656
 21
1.415378953909679
 31
0.0
  0
LINE
  5
F92E
330
3F4B
100
AcDbEntity
  8
s
100
AcDbLine
 10
1694.663329233173
 20
6.063927114357056
 30
0.0
 11
1695.864994744037
 21
2.458930581765287
 31
0.0
  0
INSERT
  5
F92F
330
3F4B
100
AcDbEntity
  8
s
100
AcDbBlockReference
  2
_Origin
 10
1694.315478690555
 20
7.107478742212662
 30
0.0
 41
1.1
 42
1.1
 43
1.1
 50
108.4349488229213
  0
INSERT
  5
F930
330
3F4B
100
AcDbEntity
  8
s
100
AcDbBlockReference
  2
_Origin
 10
1696.212845286656
 20
1.415378953909679
 30
0.0
 41
1.1
 42
1.1
 43
1.1
 50
288.4349488229213
  0
MTEXT
  5
F931
330
3F4B
100
AcDbEntity
  8
s
 62
     7
100
AcDbMText
 10
1697.754455645988
 20
5.091526733855061
 30
0.0
 40
3.25
 41
0.0
 71
     5
 72
     1
  1
6
  7
寸法用　bigfont
 11
0.3162277660168262
 21
-0.9486832980505177
 31
0.0
 73
     1
 44
1.0
1001
ACAD
1000
MTEXTBEGIN
1070
    73
1070
     1
1070
    44
1040
1.0
1070
    74
1070
     0
1000
MTEXTEND
  0
POINT
  5
F932
330
3F4B
100
AcDbEntity
  8
Defpoints
 62
     0
100
AcDbPoint
 10
1684.788159065322
 20
3.931705533801732
 30
0.0
  0
POINT
  5
F933
330
3F4B
100
AcDbEntity
  8
Defpoints
 62
     0
100
AcDbPoint
 10
1686.685525661423
 20
-1.760394254501135
 30
0.0
  0
POINT
  5
F934
330
3F4B
100
AcDbEntity
  8
Defpoints
 62
     0
100
AcDbPoint
 10
1696.212845286656
 20
1.415378953909679
 30
0.0
  0
ENDBLK
  5
3F56
330
3F4B
100
AcDbEntity
  8
0
100
AcDbBlockEnd
  0
BLOCK
  5
3FE4
330
3FDA
100
AcDbEntity
  8
0
100
AcDbBlockBegin
  2
*D24
 70
     1
 10
0.0
 20
0.0
 30
0.0
  3
*D24
  1

  0
LINE
  5
100E3
330
3FDA
100
AcDbEntity
  8
s
100
AcDbLine
 10
1834.643729385653
 20
24.67501811867465
 30
0.0
 11
1834.643729385653
 21
34.90711753846245
 31
0.0
  0
LINE
  5
100E4
330
3FDA
100
AcDbEntity
  8
s
100
AcDbLine
 10
1864.643729385653
 20
24.67501811867465
 30
0.0
 11
1864.643729385653
 21
34.90711753846245
 31
0.0
  0
LINE
  5
100E5
330
3FDA
100
AcDbEntity
  8
s
100
AcDbLine
 10
1835.743729385653
 20
34.90711753846245
 30
0.0
 11
1863.543729385653
 21
34.90711753846245
 31
0.0
  0
INSERT
  5
100E6
330
3FDA
100
AcDbEntity
  8
s
100
AcDbBlockReference
  2
_Origin
 10
1834.643729385653
 20
34.90711753846245
 30
0.0
 41
1.1
 42
1.1
 43
1.1
 50
180.0
  0
INSERT
  5
100E7
330
3FDA
100
AcDbEntity
  8
s
100
AcDbBlockReference
  2
_Origin
 10
1864.643729385653
 20
34.90711753846245
 30
0.0
 41
1.1
 42
1.1
 43
1.1
  0
MTEXT
  5
100E8
330
3FDA
100
AcDbEntity
  8
s
 62
     7
100
AcDbMText
 10
1849.643729385653
 20
37.53211753846244
 30
0.0
 40
3.25
 41
0.0
 71
     5
 72
     1
  1
30
  7
寸法用　bigfont
 73
     1
 44
1.0
1001
ACAD
1000
MTEXTBEGIN
1070
    73
1070
     1
1070
    44
1040
1.0
1070
    74
1070
     0
1000
MTEXTEND
  0
POINT
  5
100E9
330
3FDA
100
AcDbEntity
  8
Defpoints
 62
     0
100
AcDbPoint
 10
1834.643729385653
 20
19.67501811867465
 30
0.0
  0
POINT
  5
100EA
330
3FDA
100
AcDbEntity
  8
Defpoints
 62
     0
100
AcDbPoint
 10
1864.643729385653
 20
19.67501811867465
 30
0.0
  0
POINT
  5
100EB
330
3FDA
100
AcDbEntity
  8
Defpoints
 62
     0
100
AcDbPoint
 10
1864.643729385653
 20
34.90711753846245
 30
0.0
  0
ENDBLK
  5
3FE5
330
3FDA
100
AcDbEntity
  8
0
100
AcDbBlockEnd
  0
BLOCK
  5
3FF0
330
3FE6
100
AcDbEntity
  8
0
100
AcDbBlockBegin
  2
*D25
 70
     1
 10
0.0
 20
0.0
 30
0.0
  3
*D25
  1

  0
LINE
  5
100EC
330
3FE6
100
AcDbEntity
  8
s
100
AcDbLine
 10
1819.643729385653
 20
-10.32498188132535
 30
0.0
 11
1819.643729385653
 21
-22.40783287734462
 31
0.0
  0
LINE
  5
100ED
330
3FE6
100
AcDbEntity
  8
s
100
AcDbLine
 10
1879.643729385653
 20
-10.32498188132535
 30
0.0
 11
1879.643729385653
 21
-22.40783287734462
 31
0.0
  0
LINE
  5
100EE
330
3FE6
100
AcDbEntity
  8
s
100
AcDbLine
 10
1820.743729385653
 20
-22.40783287734462
 30
0.0
 11
1878.543729385653
 21
-22.40783287734462
 31
0.0
  0
INSERT
  5
100EF
330
3FE6
100
AcDbEntity
  8
s
100
AcDbBlockReference
  2
_Origin
 10
1819.643729385653
 20
-22.40783287734462
 30
0.0
 41
1.1
 42
1.1
 43
1.1
 50
180.0
  0
INSERT
  5
100F0
330
3FE6
100
AcDbEntity
  8
s
100
AcDbBlockReference
  2
_Origin
 10
1879.643729385653
 20
-22.40783287734462
 30
0.0
 41
1.1
 42
1.1
 43
1.1
  0
MTEXT
  5
100F1
330
3FE6
100
AcDbEntity
  8
s
 62
     7
100
AcDbMText
 10
1849.643729385653
 20
-19.78283287734461
 30
0.0
 40
3.25
 41
0.0
 71
     5
 72
     1
  1
60
  7
寸法用　bigfont
 73
     1
 44
1.0
1001
ACAD
1000
MTEXTBEGIN
1070
    73
1070
     1
1070
    44
1040
1.0
1070
    74
1070
     0
1000
MTEXTEND
  0
POINT
  5
100F2
330
3FE6
100
AcDbEntity
  8
Defpoints
 62
     0
100
AcDbPoint
 10
1819.643729385653
 20
-5.324981881325357
 30
0.0
  0
POINT
  5
100F3
330
3FE6
100
AcDbEntity
  8
Defpoints
 62
     0
100
AcDbPoint
 10
1879.643729385653
 20
-5.324981881325357
 30
0.0
  0
POINT
  5
100F4
330
3FE6
100
AcDbEntity
  8
Defpoints
 62
     0
100
AcDbPoint
 10
1879.643729385653
 20
-22.40783287734462
 30
0.0
  0
ENDBLK
  5
3FF1
330
3FE6
100
AcDbEntity
  8
0
100
AcDbBlockEnd
  0
BLOCK
  5
3FFC
330
3FF2
100
AcDbEntity
  8
0
100
AcDbBlockBegin
  2
*D26
 70
     1
 10
0.0
 20
0.0
 30
0.0
  3
*D26
  1

  0
LINE
  5
100F5
330
3FF2
100
AcDbEntity
  8
s
100
AcDbLine
 10
1868.643729385653
 20
18.67501811867464
 30
0.0
 11
1873.482943655457
 21
18.67501811867464
 31
0.0
  0
LINE
  5
100F6
330
3FF2
100
AcDbEntity
  8
s
100
AcDbLine
 10
1873.643729385653
 20
-4.324981881324445
 30
0.0
 11
1873.482943655457
 21
-4.324981881324445
 31
0.0
  0
LINE
  5
100F7
330
3FF2
100
AcDbEntity
  8
s
100
AcDbLine
 10
1873.482943655457
 20
17.57501811867464
 30
0.0
 11
1873.482943655457
 21
-3.224981881324445
 31
0.0
  0
INSERT
  5
100F8
330
3FF2
100
AcDbEntity
  8
s
100
AcDbBlockReference
  2
_Origin
 10
1873.482943655457
 20
18.67501811867464
 30
0.0
 41
1.1
 42
1.1
 43
1.1
 50
90.0
  0
INSERT
  5
100F9
330
3FF2
100
AcDbEntity
  8
s
100
AcDbBlockReference
  2
_Origin
 10
1873.482943655457
 20
-4.324981881324445
 30
0.0
 41
1.1
 42
1.1
 43
1.1
 50
270.0
  0
MTEXT
  5
100FA
330
3FF2
100
AcDbEntity
  8
s
 62
     7
100
AcDbMText
 10
1870.857943655457
 20
7.175018118675398
 30
0.0
 40
3.25
 41
0.0
 71
     5
 72
     1
  1
23
  7
寸法用　bigfont
 11
0.0000000000000001
 21
1.0
 31
0.0
 73
     1
 44
1.0
1001
ACAD
1000
MTEXTBEGIN
1070
    73
1070
     1
1070
    44
1040
1.0
1070
    74
1070
     0
1000
MTEXTEND
  0
POINT
  5
100FB
330
3FF2
100
AcDbEntity
  8
Defpoints
 62
     0
100
AcDbPoint
 10
1863.643729385653
 20
18.67501811867464
 30
0.0
  0
POINT
  5
100FC
330
3FF2
100
AcDbEntity
  8
Defpoints
 62
     0
100
AcDbPoint
 10
1878.643729385653
 20
-4.324981881324447
 30
0.0
  0
POINT
  5
100FD
330
3FF2
100
AcDbEntity
  8
Defpoints
 62
     0
100
AcDbPoint
 10
1873.482943655457
 20
-4.324981881324445
 30
0.0
  0
ENDBLK
  5
3FFD
330
3FF2
100
AcDbEntity
  8
0
100
AcDbBlockEnd
  0
BLOCK
  5
627B
330
627A
100
AcDbEntity
  8
0
100
AcDbBlockBegin
  2
_Open30
 70
     0
 10
0.0
 20
0.0
 30
0.0
  3
_Open30
  1

  0
LINE
  5
627C
330
627A
100
AcDbEntity
  8
0
  6
ByBlock
 62
     0
370
    -2
100
AcDbLine
 10
-1.0
 20
0.26794919
 30
0.0
 11
0.0
 21
0.0
 31
0.0
  0
LINE
  5
627D
330
627A
100
AcDbEntity
  8
0
  6
ByBlock
 62
     0
370
    -2
100
AcDbLine
 10
0.0
 20
0.0
 30
0.0
 11
-1.0
 21
-0.26794919
 31
0.0
  0
LINE
  5
627E
330
627A
100
AcDbEntity
  8
0
  6
ByBlock
 62
     0
370
    -2
100
AcDbLine
 10
0.0
 20
0.0
 30
0.0
 11
-1.0
 21
0.0
 31
0.0
  0
ENDBLK
  5
627F
330
627A
100
AcDbEntity
  8
0
100
AcDbBlockEnd
  0
ENDSEC
  0
SECTION
  2
ENTITIES
  0
LINE
  5
3C5A
330
1F
100
AcDbEntity
  8
0
  6
Continuous
100
AcDbLine
 10
2160.715985865616
 20
27.61697864912185
 30
0.0
 11
2160.715985865616
 21
-40.47655624132424
 31
0.0
  0
LINE
  5
3C5B
330
1F
100
AcDbEntity
  8
0
  6
Continuous
100
AcDbLine
 10
2161.215985865616
 20
27.61697864912185
 30
0.0
 11
2161.215985865616
 21
-40.4765562413254
 31
0.0
  0
LINE
  5
3C5C
330
1F
100
AcDbEntity
  8
0
  6
Continuous
100
AcDbLine
 10
2162.118097595695
 20
-41.47175365219959
 30
0.0
 11
2190.3628182705
 21
-44.24992289890155
 31
0.0
  0
LINE
  5
3C60
102
{ACAD_REACTORS
330
3C72
102
}
330
1F
100
AcDbEntity
  8
0
  6
Continuous
100
AcDbLine
 10
2191.715985865617
 20
-45.74271901521341
 30
0.0
 11
2191.715985865616
 21
-67.8830213508802
 31
0.0
  0
LINE
  5
3C61
102
{ACAD_REACTORS
330
3C72
102
}
330
1F
100
AcDbEntity
  8
0
  6
Continuous
100
AcDbLine
 10
2150.715985865616
 20
-61.52176393955142
 30
0.0
 11
2150.715985865616
 21
-67.88302135087929
 31
0.0
  0
LINE
  5
3C62
102
{ACAD_REACTORS
330
3C72
102
}
330
1F
100
AcDbEntity
  8
0
  6
Continuous
100
AcDbLine
 10
2151.215985865617
 20
-62.07673429424153
 30
0.0
 11
2151.215985865617
 21
-67.88302135087929
 31
0.0
  0
ARC
  5
3C63
330
1F
100
AcDbEntity
  8
0
  6
Continuous
100
AcDbCircle
 10
2152.215985865616
 20
-67.88302135087929
 30
0.0
 40
1.0
100
AcDbArc
 50
180.0
 51
270.0
  0
ARC
  5
3C64
330
1F
100
AcDbEntity
  8
0
  6
Continuous
100
AcDbCircle
 10
2190.215985865616
 20
-67.8830213508802
 30
0.0
 40
1.5
100
AcDbArc
 50
270.0
 51
0.0
  0
LINE
  5
3C66
330
1F
100
AcDbEntity
  8
0
  6
Continuous
100
AcDbLine
 10
2191.215985865617
 20
-45.74271901521341
 30
0.0
 11
2191.215985865616
 21
-67.8830213508802
 31
0.0
  0
LINE
  5
3C68
330
1F
100
AcDbEntity
  8
0
  6
Continuous
100
AcDbLine
 10
2190.215985865616
 20
-69.3830213508802
 30
0.0
 11
2152.215985865616
 21
-69.38302135087929
 31
0.0
  0
ARC
  5
3C69
102
{ACAD_REACTORS
330
3C7A
102
}
330
1F
100
AcDbEntity
  8
0
  6
Continuous
100
AcDbCircle
 10
2152.215985865616
 20
-67.88302135087929
 30
0.0
 40
1.5
100
AcDbArc
 50
180.0
 51
270.0
  0
LINE
  5
3C6A
330
1F
100
AcDbEntity
  8
0
  6
Continuous
100
AcDbLine
 10
2190.215985865616
 20
-68.8830213508802
 30
0.0
 11
2152.215985865616
 21
-68.88302135087929
 31
0.0
  0
ARC
  5
3C6B
330
1F
100
AcDbEntity
  8
0
  6
Continuous
100
AcDbCircle
 10
2190.215985865616
 20
-67.8830213508802
 30
0.0
 40
1.0
100
AcDbArc
 50
270.0
 51
0.0
  0
LINE
  5
3C6C
102
{ACAD_REACTORS
330
3C72
102
}
330
1F
100
AcDbEntity
  8
0
100
AcDbLine
 10
2161.215985865616
 20
27.61697864912185
 30
0.0
 11
2160.715985865616
 21
27.61697864912185
 31
0.0
  0
DIMENSION
  5
3C6D
330
1F
100
AcDbEntity
  8
s
100
AcDbDimension
  2
*D4
 10
2146.49427742466
 20
-41.38302135087928
 30
0.0
 11
2143.86927742466
 21
-6.883021350878369
 31
0.0
 70
    32
 71
     5
 42
69.00000000000114
  3
寸法 1-1
100
AcDbAlignedDimension
 13
2160.715985865616
 23
27.61697864912185
 33
0.0
 14
2157.415985865617
 24
-41.38302135087928
 34
0.0
 50
90.0
100
AcDbRotatedDimension
  0
DIMENSION
  5
3C6E
330
1F
100
AcDbEntity
  8
s
100
AcDbDimension
  2
*D5
 10
2217.106292951619
 20
-69.38277527916422
 30
0.0
 11
2214.481292951619
 21
-56.89912791574442
 31
0.0
 70
    32
 71
     5
 42
24.96729472683887
  3
寸法 1-1
100
AcDbAlignedDimension
 13
2191.610426807649
 23
-44.41548055232534
 33
0.0
 14
2190.243154866279
 24
-69.38277527916421
 34
0.0
 50
90.0
100
AcDbRotatedDimension
  0
DIMENSION
  5
3C6F
330
1F
100
AcDbEntity
  8
s
100
AcDbDimension
  2
*D6
 10
2191.715985865616
 20
-84.20432712760225
 30
0.0
 11
2171.215985865616
 21
-81.57932712760226
 31
0.0
 70
    32
 71
     5
 42
40.99999999999954
  3
寸法 1-1
100
AcDbAlignedDimension
 13
2150.715985865616
 23
-67.88302135087929
 33
0.0
 14
2191.715985865616
 24
-67.8830213508802
 34
0.0
100
AcDbRotatedDimension
  0
DIMENSION
  5
3C70
102
{ACAD_XDICTIONARY
360
3C71
102
}
102
{ACAD_REACTORS
330
3C72
102
}
330
1F
100
AcDbEntity
  8
s
100
AcDbDimension
  2
*D7
 10
2160.715985865616
 20
52.71155089967055
 30
0.0
 11
2176.215985865617
 21
55.33655089967055
 31
0.0
 70
    32
 71
     5
 42
31.00000000000046
  3
寸法 1-1
100
AcDbAlignedDimension
 13
2191.715985865617
 23
-45.74271901521341
 33
0.0
 14
2160.715985865616
 24
27.61697864912185
 34
0.0
100
AcDbRotatedDimension
  0
LINE
  5
3C74
330
1F
100
AcDbEntity
  8
0
100
AcDbLine
 10
2150.847608642218
 20
-61.42689560974736
 30
0.0
 11
2156.715985865615
 21
-63.38302135087928
 31
0.0
  0
LINE
  5
3C75
330
1F
100
AcDbEntity
  8
0
100
AcDbLine
 10
2151.215985865617
 20
-62.07673429424153
 30
0.0
 11
2156.557871982608
 21
-63.85736299990549
 31
0.0
  0
ARC
  5
3C76
330
1F
100
AcDbEntity
  8
0
100
AcDbCircle
 10
2150.815985865616
 20
-61.52176393955142
 30
0.0
 40
0.1
100
AcDbArc
 50
71.56505117707204
 51
180.0
  0
LINE
  5
3C77
102
{ACAD_REACTORS
330
3C7D
330
3C80
102
}
330
1F
100
AcDbEntity
  8
0
100
AcDbLine
 10
2156.715985865615
 20
-63.38302135087928
 30
0.0
 11
2156.557871982608
 21
-63.85736299990549
 31
0.0
  0
DIMENSION
  5
3C78
102
{ACAD_XDICTIONARY
360
3C79
102
}
102
{ACAD_REACTORS
330
3C7A
102
}
330
1F
100
AcDbEntity
  8
s
100
AcDbDimension
  2
*D8
 10
2136.032777461511
 20
-61.38302135087928
 30
0.0
 11
2133.407777461511
 21
-65.38302135087893
 31
0.0
 70
    32
 71
     5
 42
8.0
  3
寸法 1-1
100
AcDbAlignedDimension
 13
2152.215985865616
 23
-69.38302135087929
 33
0.0
 14
2152.215985865616
 24
-61.38302135087928
 34
0.0
 50
90.0
100
AcDbRotatedDimension
  0
DIMENSION
  5
3C7B
102
{ACAD_XDICTIONARY
360
3C7C
102
}
102
{ACAD_REACTORS
330
3C7D
102
}
330
1F
100
AcDbEntity
  8
s
100
AcDbDimension
  2
*D9
 10
2154.199659285723
 20
-51.95833512954322
 30
0.0
 11
2157.875807065668
 21
-50.41672477021041
 31
0.0
 70
    33
 71
     5
 42
5.999999999999545
  3
寸法 1-1
100
AcDbAlignedDimension
 13
2156.715985865615
 23
-63.38302135087928
 33
0.0
 14
2151.023886077313
 24
-61.48565475477949
 34
0.0
  0
DIMENSION
  5
3C7E
102
{ACAD_XDICTIONARY
360
3C7F
102
}
102
{ACAD_REACTORS
330
3C80
102
}
330
1F
100
AcDbEntity
  8
s
100
AcDbDimension
  2
*D10
 10
2169.654494455157
 20
-61.85736299990435
 30
0.0
 11
2167.029494455157
 21
-62.85736299990457
 31
0.0
 70
    32
 71
     5
 42
2.000000000001143
  3
寸法 1-1
100
AcDbAlignedDimension
 13
2156.557871982608
 23
-63.85736299990549
 33
0.0
 14
2156.557871982608
 24
-61.85736299990434
 34
0.0
 50
90.0
100
AcDbRotatedDimension
  0
LINE
  5
3D74
330
1F
100
AcDbEntity
  8
0
  6
Continuous
100
AcDbLine
 10
2162.069153460734
 20
-41.96935235763656
 30
0.0
 11
2190.313874135539
 21
-44.74752160433944
 31
0.0
  0
ARC
  5
3D75
330
1F
100
AcDbEntity
  8
0
  6
Continuous
100
AcDbCircle
 10
2190.215985865617
 20
-45.74271901521341
 30
0.0
 40
1.0
100
AcDbArc
 50
0.0
 51
84.38241940987181
  0
ARC
  5
3D76
330
1F
100
AcDbEntity
  8
0
  6
Continuous
100
AcDbCircle
 10
2162.215985865616
 20
-40.4765562413254
 30
0.0
 40
1.0
100
AcDbArc
 50
180.0
 51
264.3824194098718
  0
ARC
  5
3D77
330
1F
100
AcDbEntity
  8
0
  6
Continuous
100
AcDbCircle
 10
2162.215985865616
 20
-40.47655624132424
 30
0.0
 40
1.5
100
AcDbArc
 50
180.0
 51
264.3824194098718
  0
ARC
  5
3D78
330
1F
100
AcDbEntity
  8
0
  6
Continuous
100
AcDbCircle
 10
2190.215985865617
 20
-45.74271901521341
 30
0.0
 40
1.5
100
AcDbArc
 50
0.0
 51
84.38241940987181
  0
DIMENSION
  5
3D82
330
1F
100
AcDbEntity
  8
s
100
AcDbDimension
  2
*D11
 10
2146.49427742466
 20
-41.38302135087928
 30
0.0
 11
2143.86927742466
 21
-42.88302135087893
 31
0.0
 70
    32
 71
     5
 42
2.999999999999992
  3
寸法 1-1
100
AcDbAlignedDimension
 13
2158.215985865616
 23
-44.38302135087927
 33
0.0
 14
2158.215985865616
 24
-41.38302135087928
 34
0.0
 50
90.0
100
AcDbRotatedDimension
  0
LINE
  5
3DDF
330
1F
100
AcDbEntity
  8
0
  6
Continuous
100
AcDbLine
 10
1990.332291702697
 20
19.23293478524283
 30
0.0
 11
1990.332291702697
 21
-38.86060010520236
 31
0.0
  0
LINE
  5
3DE0
330
1F
100
AcDbEntity
  8
0
  6
Continuous
100
AcDbLine
 10
1990.832291702696
 20
19.23293478524283
 30
0.0
 11
1990.832291702697
 21
-38.86060010520236
 31
0.0
  0
LINE
  5
3DE1
330
1F
100
AcDbEntity
  8
0
  6
Continuous
100
AcDbLine
 10
1991.734403432775
 20
-39.85579751607634
 30
0.0
 11
2019.97912410758
 21
-42.63396676277921
 31
0.0
  0
LINE
  5
3DE5
102
{ACAD_REACTORS
330
3DF7
102
}
330
1F
100
AcDbEntity
  8
0
  6
Continuous
100
AcDbLine
 10
2021.332291702698
 20
-44.1267628790913
 30
0.0
 11
2021.332291702697
 21
-66.23460601331203
 31
0.0
  0
ARC
  5
3DE6
330
1F
100
AcDbEntity
  8
0
  6
Continuous
100
AcDbCircle
 10
2019.832291702697
 20
-66.23460601331203
 30
0.0
 40
1.5
100
AcDbArc
 50
270.0
 51
0.0
  0
LINE
  5
3DE8
330
1F
100
AcDbEntity
  8
0
  6
Continuous
100
AcDbLine
 10
2020.832291702697
 20
-44.1267628790913
 30
0.0
 11
2020.832291702697
 21
-66.23460601331203
 31
0.0
  0
LINE
  5
3DEA
330
1F
100
AcDbEntity
  8
0
  6
Continuous
100
AcDbLine
 10
2019.832291702697
 20
-67.73460601331203
 30
0.0
 11
2013.573713058935
 21
-67.73460601331203
 31
0.0
  0
ARC
  5
3DEB
330
1F
100
AcDbEntity
  8
0
  6
Continuous
100
AcDbCircle
 10
2013.573713058935
 20
-67.63460601331122
 30
0.0
 40
0.1
100
AcDbArc
 50
135.0000000000003
 51
270.0
  0
LINE
  5
3DEC
330
1F
100
AcDbEntity
  8
0
  6
Continuous
100
AcDbLine
 10
2019.832291702697
 20
-67.23460601331203
 30
0.0
 11
2014.539398483883
 21
-67.23460601331203
 31
0.0
  0
ARC
  5
3DED
330
1F
100
AcDbEntity
  8
0
  6
Continuous
100
AcDbCircle
 10
2019.832291702697
 20
-66.23460601331203
 30
0.0
 40
1.0
100
AcDbArc
 50
270.0
 51
0.0
  0
LINE
  5
3DEE
330
1F
100
AcDbEntity
  8
0
  6
Continuous
100
AcDbLine
 10
2013.503002380815
 20
-67.56389533519314
 30
0.0
 11
2017.574932389817
 21
-63.49196532619316
 31
0.0
  0
LINE
  5
3DEF
330
1F
100
AcDbEntity
  8
0
  6
Continuous
100
AcDbLine
 10
2014.539398483883
 20
-67.23460601331203
 30
0.0
 11
2017.92848578041
 21
-63.84551871678628
 31
0.0
  0
LINE
  5
3DF0
102
{ACAD_REACTORS
330
3E5C
102
}
330
1F
100
AcDbEntity
  8
0
  6
Continuous
100
AcDbLine
 10
2017.92848578041
 20
-63.84551871678628
 30
0.0
 11
2017.574932389817
 21
-63.49196532619316
 31
0.0
  0
LINE
  5
3DF1
102
{ACAD_REACTORS
330
3DF7
330
3ED2
102
}
330
1F
100
AcDbEntity
  8
0
100
AcDbLine
 10
1990.832291702696
 20
19.23293478524283
 30
0.0
 11
1990.332291702697
 21
19.23293478524283
 31
0.0
  0
DIMENSION
  5
3DF2
330
1F
100
AcDbEntity
  8
s
100
AcDbDimension
  2
*D12
 10
2046.722598788701
 20
-42.76706521475718
 30
0.0
 11
2044.097598788701
 21
-11.76706521475685
 31
0.0
 70
    32
 71
     5
 42
62.0
  3
寸法 1-1
100
AcDbAlignedDimension
 13
1990.832291702696
 23
19.23293478524283
 33
0.0
 14
2021.22673264473
 24
-42.76706521475717
 34
0.0
 50
90.0
100
AcDbRotatedDimension
  0
DIMENSION
  5
3DF3
330
1F
100
AcDbEntity
  8
s
100
AcDbDimension
  2
*D13
 10
2046.722598788701
 20
-67.73435994159604
 30
0.0
 11
2044.097598788701
 21
-55.25071257817629
 31
0.0
 70
    32
 71
     5
 42
24.96729472683886
  3
寸法 1-1
100
AcDbAlignedDimension
 13
2021.22673264473
 23
-42.76706521475717
 33
0.0
 14
2019.85946070336
 24
-67.73435994159604
 34
0.0
 50
90.0
100
AcDbRotatedDimension
  0
DIMENSION
  5
3DF4
330
1F
100
AcDbEntity
  8
s
100
AcDbDimension
  2
*D14
 10
2021.326123654
 20
-82.55591179003408
 30
0.0
 11
2017.34993384924
 21
-79.93091179003409
 31
0.0
 70
    32
 71
     5
 42
7.952379609519084
  3
寸法 1-1
100
AcDbAlignedDimension
 13
2013.373744044481
 23
-67.63709521980921
 33
0.0
 14
2021.326123654
 24
-66.37049604704839
 34
0.0
100
AcDbRotatedDimension
  0
DIMENSION
  5
3DF5
102
{ACAD_XDICTIONARY
360
3DF6
102
}
102
{ACAD_REACTORS
330
3DF7
102
}
330
1F
100
AcDbEntity
  8
s
100
AcDbDimension
  2
*D15
 10
1990.332291702697
 20
44.32750703579198
 30
0.0
 11
2005.832291702698
 21
46.95250703579199
 31
0.0
 70
    32
 71
     5
 42
31.0
  3
寸法 1-1
100
AcDbAlignedDimension
 13
2021.332291702698
 23
-44.1267628790913
 33
0.0
 14
1990.332291702697
 24
19.23293478524283
 34
0.0
100
AcDbRotatedDimension
  0
DIMENSION
  5
3E45
102
{ACAD_XDICTIONARY
360
3E52
102
}
102
{ACAD_REACTORS
330
3E5C
102
}
330
1F
100
AcDbEntity
  8
s
100
AcDbDimension
  2
*D16
 10
2005.689155532847
 20
-60.09146984346057
 30
0.0
 11
2005.954320575792
 21
-56.11399419928659
 31
0.0
 70
    33
 71
     5
 42
5.999999999999317
  3
寸法 1-1
100
AcDbAlignedDimension
 13
2017.574932389817
 23
-63.49196532619316
 33
0.0
 14
2013.332291702698
 24
-67.73460601331203
 34
0.0
  0
LINE
  5
3E93
330
1F
100
AcDbEntity
  8
0
  6
Continuous
100
AcDbLine
 10
1991.685459297815
 20
-40.35339622151332
 30
0.0
 11
2019.93017997262
 21
-43.13156546821528
 31
0.0
  0
ARC
  5
3E94
330
1F
100
AcDbEntity
  8
0
  6
Continuous
100
AcDbCircle
 10
1991.832291702698
 20
-38.86060010520236
 30
0.0
 40
1.5
100
AcDbArc
 50
180.0
 51
264.3824194098718
  0
ARC
  5
3E95
330
1F
100
AcDbEntity
  8
0
  6
Continuous
100
AcDbCircle
 10
2019.832291702698
 20
-44.1267628790913
 30
0.0
 40
1.5
100
AcDbArc
 50
0.0
 51
84.38241940987181
  0
ARC
  5
3E9F
330
1F
100
AcDbEntity
  8
0
  6
Continuous
100
AcDbCircle
 10
2019.832291702698
 20
-44.1267628790913
 30
0.0
 40
1.0
100
AcDbArc
 50
0.0
 51
84.38241940987181
  0
ARC
  5
3EA0
330
1F
100
AcDbEntity
  8
0
  6
Continuous
100
AcDbCircle
 10
1991.832291702698
 20
-38.86060010520236
 30
0.0
 40
1.0
100
AcDbArc
 50
180.0
 51
264.3824194098718
  0
DIMENSION
  5
3EA1
330
1F
100
AcDbEntity
  8
s
100
AcDbDimension
  2
*D17
 10
1978.114914810784
 20
-42.76706521475717
 30
0.0
 11
1975.489914810784
 21
-41.26706521475742
 31
0.0
 70
    32
 71
     5
 42
2.999999999998877
  3
寸法 1-1
100
AcDbAlignedDimension
 13
1989.748301844869
 23
-39.7670652147583
 33
0.0
 14
1989.748301844869
 24
-42.76706521475717
 34
0.0
 50
90.0
100
AcDbRotatedDimension
  0
DIMENSION
  5
3EBB
102
{ACAD_XDICTIONARY
360
3EC8
102
}
102
{ACAD_REACTORS
330
3ED2
102
}
330
1F
100
AcDbEntity
  8
s
100
AcDbDimension
  2
*D18
 10
1978.114914810784
 20
19.23293478524283
 30
0.0
 11
1975.489914810784
 21
-10.26706521475741
 31
0.0
 70
    32
 71
     5
 42
59.00000000000113
  3
寸法 1-1
100
AcDbAlignedDimension
 13
1988.948301844869
 23
-39.7670652147583
 33
0.0
 14
1990.332291702697
 24
19.23293478524283
 34
0.0
 50
90.0
100
AcDbRotatedDimension
  0
LINE
  5
3EE7
102
{ACAD_REACTORS
330
3EFA
102
}
330
1F
100
AcDbEntity
  8
0
  6
Continuous
100
AcDbLine
 10
1706.788159065322
 20
17.93170553380287
 30
0.0
 11
1678.788159065322
 21
17.93170553380173
 31
0.0
  0
LINE
  5
3EE8
102
{ACAD_REACTORS
330
3EFA
102
}
330
1F
100
AcDbEntity
  8
0
  6
Continuous
100
AcDbLine
 10
1708.288159065323
 20
-46.06829446619713
 30
0.0
 11
1707.788159065322
 21
-46.06829446619713
 31
0.0
  0
LINE
  5
3EE9
102
{ACAD_REACTORS
330
3EFA
102
}
330
1F
100
AcDbEntity
  8
0
  6
Continuous
100
AcDbLine
 10
1686.64941647665
 20
-2.068294466198266
 30
0.0
 11
1678.788159065322
 21
-2.068294466197129
 31
0.0
  0
LINE
  5
3EEA
102
{ACAD_REACTORS
330
3EFA
102
}
330
1F
100
AcDbEntity
  8
0
  6
Continuous
100
AcDbLine
 10
1686.094446121961
 20
-1.568294466197129
 30
0.0
 11
1678.788159065322
 21
-1.568294466197129
 31
0.0
  0
ARC
  5
3EEB
330
1F
100
AcDbEntity
  8
0
  6
Continuous
100
AcDbCircle
 10
1678.788159065322
 20
-0.5682944661971307
 30
0.0
 40
1.0
100
AcDbArc
 50
180.0
 51
270.0000000000004
  0
ARC
  5
3EEC
330
1F
100
AcDbEntity
  8
0
  6
Continuous
100
AcDbCircle
 10
1678.788159065322
 20
16.43170553380173
 30
0.0
 40
1.5
100
AcDbArc
 50
90.00000000000039
 51
180.0
  0
LINE
  5
3EED
330
1F
100
AcDbEntity
  8
0
  6
Continuous
100
AcDbLine
 10
1706.788159065322
 20
17.43170553380378
 30
0.0
 11
1678.788159065322
 21
17.43170553380173
 31
0.0
  0
LINE
  5
3EEE
330
1F
100
AcDbEntity
  8
0
  6
Continuous
100
AcDbLine
 10
1677.288159065322
 20
16.43170553380173
 30
0.0
 11
1677.288159065323
 21
-0.5682944661971307
 31
0.0
  0
LINE
  5
3EEF
330
1F
100
AcDbEntity
  8
0
  6
Continuous
100
AcDbLine
 10
1708.288159065322
 20
16.43170553380287
 30
0.0
 11
1708.288159065323
 21
-46.06829446619713
 31
0.0
  0
ARC
  5
3EF0
330
1F
100
AcDbEntity
  8
0
  6
Continuous
100
AcDbCircle
 10
1706.788159065322
 20
16.43170553380287
 30
0.0
 40
1.5
100
AcDbArc
 50
0.0
 51
90.00000000000119
  0
LINE
  5
3EF1
330
1F
100
AcDbEntity
  8
0
  6
Continuous
100
AcDbLine
 10
1707.788159065322
 20
16.43170553380287
 30
0.0
 11
1707.788159065322
 21
-46.06829446619713
 31
0.0
  0
ARC
  5
3EF2
330
1F
100
AcDbEntity
  8
0
  6
Continuous
100
AcDbCircle
 10
1706.788159065322
 20
16.43170553380287
 30
0.0
 40
1.0
100
AcDbArc
 50
0.0
 51
90.00000000000246
  0
ARC
  5
3EF3
102
{ACAD_REACTORS
330
3F01
102
}
330
1F
100
AcDbEntity
  8
0
  6
Continuous
100
AcDbCircle
 10
1678.788159065322
 20
-0.5682944661971307
 30
0.0
 40
1.5
100
AcDbArc
 50
180.0
 51
270.0
  0
LINE
  5
3EF4
330
1F
100
AcDbEntity
  8
0
  6
Continuous
100
AcDbLine
 10
1677.788159065322
 20
16.43170553380173
 30
0.0
 11
1677.788159065323
 21
-0.5682944661971307
 31
0.0
  0
ARC
  5
3EF5
330
1F
100
AcDbEntity
  8
0
  6
Continuous
100
AcDbCircle
 10
1678.788159065322
 20
16.43170553380173
 30
0.0
 40
1.0
100
AcDbArc
 50
90.00000000000161
 51
180.0
  0
DIMENSION
  5
3EF6
330
1F
100
AcDbEntity
  8
s
100
AcDbDimension
  2
*D19
 10
1677.288159065322
 20
41.00423022416793
 30
0.0
 11
1692.788159065322
 21
43.62923022416794
 31
0.0
 70
    32
 71
     5
 42
31.0
  3
寸法 1-1
100
AcDbAlignedDimension
 13
1708.288159065322
 23
16.43170553380287
 33
0.0
 14
1677.288159065322
 24
16.43170553380173
 34
0.0
100
AcDbRotatedDimension
  0
DIMENSION
  5
3EF7
330
1F
100
AcDbEntity
  8
s
100
AcDbDimension
  2
*D20
 10
1662.4668532886
 20
17.93170553380287
 30
0.0
 11
1659.8418532886
 21
7.952431704694547
 31
0.0
 70
    32
 71
     5
 42
19.95854765821718
  3
寸法 1-1
100
AcDbAlignedDimension
 13
1677.385669858824
 23
-2.026842124414315
 33
0.0
 14
1678.788159065322
 24
17.93170553380287
 34
0.0
 50
90.0
100
AcDbRotatedDimension
  0
DIMENSION
  5
3EF8
102
{ACAD_XDICTIONARY
360
3EF9
102
}
102
{ACAD_REACTORS
330
3EFA
102
}
330
1F
100
AcDbEntity
  8
s
100
AcDbDimension
  2
*D21
 10
1726.913003454708
 20
-46.06829446619713
 30
0.0
 11
1724.288003454708
 21
-14.06829446619686
 31
0.0
 70
    32
 71
     5
 42
64.0
  3
寸法 1-1
100
AcDbAlignedDimension
 13
1706.788159065322
 23
17.93170553380287
 33
0.0
 14
1708.288159065325
 24
-46.06829446619713
 34
0.0
 50
90.0
100
AcDbRotatedDimension
  0
LINE
  5
3EFB
330
1F
100
AcDbEntity
  8
0
100
AcDbLine
 10
1686.744284806456
 20
-1.936671689596096
 30
0.0
 11
1684.788159065322
 21
3.931705533801732
 31
0.0
  0
LINE
  5
3EFC
330
1F
100
AcDbEntity
  8
0
100
AcDbLine
 10
1686.094446121961
 20
-1.568294466197129
 30
0.0
 11
1684.313817416297
 21
3.773591650793831
 31
0.0
  0
ARC
  5
3EFD
330
1F
100
AcDbEntity
  8
0
100
AcDbCircle
 10
1686.64941647665
 20
-1.968294466198358
 30
0.0
 40
0.1
100
AcDbArc
 50
270.0000000000004
 51
18.43494882292796
  0
LINE
  5
3EFE
102
{ACAD_REACTORS
330
3F04
102
}
330
1F
100
AcDbEntity
  8
0
100
AcDbLine
 10
1684.788159065322
 20
3.931705533801732
 30
0.0
 11
1684.313817416297
 21
3.773591650793831
 31
0.0
  0
DIMENSION
  5
3EFF
102
{ACAD_XDICTIONARY
360
3F00
102
}
102
{ACAD_REACTORS
330
3F01
102
}
330
1F
100
AcDbEntity
  8
s
100
AcDbDimension
  2
*D22
 10
1686.788159065322
 20
-19.75150287030328
 30
0.0
 11
1682.788159065322
 21
-17.12650287030328
 31
0.0
 70
    32
 71
     5
 42
8.0
  3
寸法 1-1
100
AcDbAlignedDimension
 13
1678.788159065322
 23
-2.068294466197129
 33
0.0
 14
1686.788159065322
 24
-0.5682944661971307
 34
0.0
100
AcDbRotatedDimension
  0
DIMENSION
  5
3F02
102
{ACAD_XDICTIONARY
360
3F03
102
}
102
{ACAD_REACTORS
330
3F04
102
}
330
1F
100
AcDbEntity
  8
s
100
AcDbDimension
  2
*D23
 10
1696.212845286656
 20
1.415378953909679
 30
0.0
 11
1697.754455645988
 21
5.091526733855061
 31
0.0
 70
    33
 71
     5
 42
5.999999999999886
  3
寸法 1-1
100
AcDbAlignedDimension
 13
1684.788159065322
 23
3.931705533801732
 33
0.0
 14
1686.685525661423
 24
-1.760394254501304
 34
0.0
  0
LINE
  5
3FA3
330
1F
100
AcDbEntity
  8
0
  6
Continuous
100
AcDbLine
 10
1820.643729385653
 20
-6.324981881325357
 30
0.0
 11
1878.643729385653
 21
-6.324981881325357
 31
0.0
  0
LINE
  5
3FA4
330
1F
100
AcDbEntity
  8
0
  6
Continuous
100
AcDbLine
 10
1835.643729385653
 20
20.67501811867463
 30
0.0
 11
1863.643729385653
 21
20.67501811867463
 31
0.0
  0
LINE
  5
3FA5
330
1F
100
AcDbEntity
  8
0
  6
Continuous
100
AcDbLine
 10
1820.493729385654
 20
-5.974981881325446
 30
0.0
 11
1878.793729385653
 21
-5.974981881325446
 31
0.0
  0
LINE
  5
3FA6
330
1F
100
AcDbEntity
  8
0
  6
Continuous
100
AcDbLine
 10
1820.643729385653
 20
-4.324981881324447
 30
0.0
 11
1833.643729385653
 21
-4.324981881324447
 31
0.0
  0
LINE
  5
3FA7
330
1F
100
AcDbEntity
  8
0
  6
Continuous
100
AcDbLine
 10
1835.643729385653
 20
18.67501811867464
 30
0.0
 11
1840.643729385653
 21
18.67501811867464
 31
0.0
  0
LINE
  5
3FA8
330
1F
100
AcDbEntity
  8
0
  6
Continuous
100
AcDbLine
 10
1835.493729385653
 20
20.32501811867451
 30
0.0
 11
1863.793729385653
 21
20.32501811867451
 31
0.0
  0
LINE
  5
3FA9
330
1F
100
AcDbEntity
  8
0
  6
Continuous
100
AcDbLine
 10
1820.493729385654
 20
-4.674981881325493
 30
0.0
 11
1833.643729385653
 21
-4.674981881325493
 31
0.0
  0
LINE
  5
3FAA
330
1F
100
AcDbEntity
  8
0
  6
Continuous
100
AcDbLine
 10
1835.493729385653
 20
19.02501811867456
 30
0.0
 11
1840.643729385653
 21
19.02501811867456
 31
0.0
  0
LINE
  5
3FAB
330
1F
100
AcDbEntity
  8
0
  6
Continuous
100
AcDbLine
 10
1834.643729385653
 20
19.67501811867465
 30
0.0
 11
1834.643729385653
 21
19.67501811867465
 31
0.0
  0
LINE
  5
3FAC
330
1F
100
AcDbEntity
  8
0
  6
Continuous
100
AcDbLine
 10
1834.993729385654
 20
19.52501811867546
 30
0.0
 11
1834.993729385654
 21
19.8250181186745
 31
0.0
  0
ARC
  5
3FAD
102
{ACAD_REACTORS
330
3FD1
102
}
330
1F
100
AcDbEntity
  8
0
  6
Continuous
100
AcDbCircle
 10
1835.643729385653
 20
19.67501811867465
 30
0.0
 40
1.0
100
AcDbArc
 50
180.0
 51
270.0
  0
ARC
  5
3FAE
330
1F
100
AcDbEntity
  8
0
  6
Continuous
100
AcDbCircle
 10
1835.643729385653
 20
19.67501811867465
 30
0.0
 40
1.0
100
AcDbArc
 50
90.0
 51
180.0
  0
ARC
  5
3FAF
330
1F
100
AcDbEntity
  8
0
  6
Continuous
100
AcDbCircle
 10
1835.493729385653
 20
19.52501811867546
 30
0.0
 40
0.5
100
AcDbArc
 50
180.0
 51
270.0
  0
ARC
  5
3FB0
330
1F
100
AcDbEntity
  8
0
  6
Continuous
100
AcDbCircle
 10
1835.493729385653
 20
19.8250181186745
 30
0.0
 40
0.5
100
AcDbArc
 50
90.0
 51
180.0
  0
ARC
  5
3FB1
330
1F
100
AcDbEntity
  8
0
  6
Continuous
100
AcDbCircle
 10
1820.643729385653
 20
-5.324981881325357
 30
0.0
 40
1.0
100
AcDbArc
 50
180.0
 51
270.0
  0
ARC
  5
3FB2
330
1F
100
AcDbEntity
  8
0
  6
Continuous
100
AcDbCircle
 10
1820.643729385653
 20
-5.324981881325357
 30
0.0
 40
1.0
100
AcDbArc
 50
90.0
 51
180.0
  0
ARC
  5
3FB3
330
1F
100
AcDbEntity
  8
0
  6
Continuous
100
AcDbCircle
 10
1820.493729385654
 20
-5.474981881324537
 30
0.0
 40
0.5
100
AcDbArc
 50
180.0
 51
270.0
  0
ARC
  5
3FB4
330
1F
100
AcDbEntity
  8
0
  6
Continuous
100
AcDbCircle
 10
1820.493729385654
 20
-5.174981881325492
 30
0.0
 40
0.5
100
AcDbArc
 50
90.0
 51
180.0
  0
LINE
  5
3FB5
102
{ACAD_REACTORS
330
3FD4
102
}
330
1F
100
AcDbEntity
  8
0
  6
Continuous
100
AcDbLine
 10
1819.643729385653
 20
-5.324981881325357
 30
0.0
 11
1819.643729385653
 21
-5.324981881325357
 31
0.0
  0
LINE
  5
3FB6
330
1F
100
AcDbEntity
  8
0
  6
Continuous
100
AcDbLine
 10
1819.993729385653
 20
-5.474981881324537
 30
0.0
 11
1819.993729385653
 21
-5.174981881325492
 31
0.0
  0
LINE
  5
3FB7
330
1F
100
AcDbEntity
  8
0
  6
Continuous
100
AcDbLine
 10
1850.818729385653
 20
18.67501811867464
 30
0.0
 11
1863.643729385653
 21
18.67501811867464
 31
0.0
  0
LINE
  5
3FB8
330
1F
100
AcDbEntity
  8
0
  6
Continuous
100
AcDbLine
 10
1850.968729385653
 20
19.02501811867456
 30
0.0
 11
1863.793729385653
 21
19.02501811867456
 31
0.0
  0
LINE
  5
3FB9
330
1F
100
AcDbEntity
  8
0
  6
Continuous
100
AcDbLine
 10
1850.968729385653
 20
-4.674981881325493
 30
0.0
 11
1878.793729385653
 21
-4.674981881325493
 31
0.0
  0
LINE
  5
3FBA
330
1F
100
AcDbEntity
  8
0
  6
Continuous
100
AcDbLine
 10
1850.818729385653
 20
-4.324981881324447
 30
0.0
 11
1878.643729385653
 21
-4.324981881324447
 31
0.0
  0
LINE
  5
3FBB
330
1F
100
AcDbEntity
  8
0
  6
Continuous
100
AcDbLine
 10
1849.468729385653
 20
-3.174981881324583
 30
0.0
 11
1849.468729385653
 21
17.52501811867454
 31
0.0
  0
LINE
  5
3FBC
330
1F
100
AcDbEntity
  8
0
  6
Continuous
100
AcDbLine
 10
1849.818729385654
 20
-3.324981881325356
 30
0.0
 11
1849.818729385653
 21
17.67501811867464
 31
0.0
  0
LINE
  5
3FBD
330
1F
100
AcDbEntity
  8
0
  6
Continuous
100
AcDbLine
 10
1840.643729385653
 20
19.02501811867456
 30
0.0
 11
1840.643729385653
 21
18.67501811867464
 31
0.0
  0
LINE
  5
3FC0
330
1F
100
AcDbEntity
  8
0
  6
Continuous
100
AcDbLine
 10
1833.643729385653
 20
-4.674981881325493
 30
0.0
 11
1833.643729385653
 21
-4.324981881324447
 31
0.0
  0
ARC
  5
3FC3
102
{ACAD_REACTORS
330
3FD7
102
}
330
1F
100
AcDbEntity
  8
0
  6
Continuous
100
AcDbCircle
 10
1863.643729385653
 20
19.67501811867465
 30
0.0
 40
1.0
100
AcDbArc
 50
270.0
 51
0.0
  0
ARC
  5
3FC4
102
{ACAD_REACTORS
330
3FD1
102
}
330
1F
100
AcDbEntity
  8
0
  6
Continuous
100
AcDbCircle
 10
1863.643729385653
 20
19.67501811867465
 30
0.0
 40
1.0
100
AcDbArc
 50
0.0000000000065138
 51
90.0
  0
LINE
  5
3FC5
330
1F
100
AcDbEntity
  8
0
  6
Continuous
100
AcDbLine
 10
1864.643729385653
 20
19.67501811867465
 30
0.0
 11
1864.643729385653
 21
19.67501811867465
 31
0.0
  0
LINE
  5
3FC6
330
1F
100
AcDbEntity
  8
0
  6
Continuous
100
AcDbLine
 10
1864.293729385653
 20
19.52501811867546
 30
0.0
 11
1864.293729385653
 21
19.8250181186745
 31
0.0
  0
ARC
  5
3FC7
330
1F
100
AcDbEntity
  8
0
  6
Continuous
100
AcDbCircle
 10
1863.793729385653
 20
19.52501811867546
 30
0.0
 40
0.5
100
AcDbArc
 50
270.0
 51
0.0
  0
ARC
  5
3FC8
330
1F
100
AcDbEntity
  8
0
  6
Continuous
100
AcDbCircle
 10
1878.643729385653
 20
-5.324981881325357
 30
0.0
 40
1.0
100
AcDbArc
 50
270.0
 51
0.0
  0
LINE
  5
3FC9
330
1F
100
AcDbEntity
  8
0
  6
Continuous
100
AcDbLine
 10
1879.643729385653
 20
-5.324981881325357
 30
0.0
 11
1879.643729385653
 21
-5.324981881325357
 31
0.0
  0
LINE
  5
3FCA
330
1F
100
AcDbEntity
  8
0
  6
Continuous
100
AcDbLine
 10
1879.293729385653
 20
-5.474981881324537
 30
0.0
 11
1879.293729385653
 21
-5.174981881325492
 31
0.0
  0
ARC
  5
3FCB
102
{ACAD_REACTORS
330
3FD4
330
3FD7
102
}
330
1F
100
AcDbEntity
  8
0
  6
Continuous
100
AcDbCircle
 10
1878.643729385653
 20
-5.324981881325357
 30
0.0
 40
1.0
100
AcDbArc
 50
0.0
 51
90.0
  0
ARC
  5
3FCC
330
1F
100
AcDbEntity
  8
0
  6
Continuous
100
AcDbCircle
 10
1878.793729385653
 20
-5.474981881324537
 30
0.0
 40
0.5
100
AcDbArc
 50
270.0
 51
0.0
  0
ARC
  5
3FCD
330
1F
100
AcDbEntity
  8
0
  6
Continuous
100
AcDbCircle
 10
1878.793729385653
 20
-5.174981881325492
 30
0.0
 40
0.5
100
AcDbArc
 50
0.0
 51
90.0
  0
ARC
  5
3FCE
330
1F
100
AcDbEntity
  8
0
  6
Continuous
100
AcDbCircle
 10
1863.793729385653
 20
19.8250181186745
 30
0.0
 40
0.5
100
AcDbArc
 50
0.0
 51
90.0
  0
DIMENSION
  5
3FCF
102
{ACAD_XDICTIONARY
360
3FD0
102
}
102
{ACAD_REACTORS
330
3FD1
102
}
330
1F
100
AcDbEntity
  8
s
100
AcDbDimension
  2
*D24
 10
1864.643729385653
 20
34.90711753846245
 30
0.0
 11
1849.643729385653
 21
37.53211753846244
 31
0.0
 70
    32
 71
     5
 42
30.0
  3
寸法 1-1
100
AcDbAlignedDimension
 13
1834.643729385653
 23
19.67501811867465
 33
0.0
 14
1864.643729385653
 24
19.67501811867465
 34
0.0
100
AcDbRotatedDimension
  0
DIMENSION
  5
3FD2
102
{ACAD_XDICTIONARY
360
3FD3
102
}
102
{ACAD_REACTORS
330
3FD4
102
}
330
1F
100
AcDbEntity
  8
s
100
AcDbDimension
  2
*D25
 10
1879.643729385653
 20
-22.40783287734462
 30
0.0
 11
1849.643729385653
 21
-19.78283287734461
 31
0.0
 70
    32
 71
     5
 42
60.0
  3
寸法 1-1
100
AcDbAlignedDimension
 13
1819.643729385653
 23
-5.324981881325357
 33
0.0
 14
1879.643729385653
 24
-5.324981881325357
 34
0.0
100
AcDbRotatedDimension
  0
DIMENSION
  5
3FD5
102
{ACAD_XDICTIONARY
360
3FD6
102
}
102
{ACAD_REACTORS
330
3FD7
102
}
330
1F
100
AcDbEntity
  8
s
100
AcDbDimension
  2
*D26
 10
1873.482943655457
 20
-4.324981881324445
 30
0.0
 11
1870.857943655457
 21
7.175018118675398
 31
0.0
 70
    32
 71
     5
 42
22.99999999999909
  3
寸法 1-1
100
AcDbAlignedDimension
 13
1863.643729385653
 23
18.67501811867464
 33
0.0
 14
1878.643729385653
 24
-4.324981881324447
 34
0.0
 50
90.0
100
AcDbRotatedDimension
  0
ARC
  5
4045
330
1F
100
AcDbEntity
  8
0
  6
Continuous
100
AcDbCircle
 10
1850.818729385653
 20
17.67501811867464
 30
0.0
 40
1.0
100
AcDbArc
 50
90.0
 51
180.0
  0
ARC
  5
4046
330
1F
100
AcDbEntity
  8
0
  6
Continuous
100
AcDbCircle
 10
1850.818729385653
 20
-3.324981881325356
 30
0.0
 40
1.0
100
AcDbArc
 50
180.0
 51
270.0
  0
ARC
  5
4047
330
1F
100
AcDbEntity
  8
0
  6
Continuous
100
AcDbCircle
 10
1850.968729385653
 20
-3.174981881324583
 30
0.0
 40
1.5
100
AcDbArc
 50
180.0
 51
270.0
  0
ARC
  5
4048
330
1F
100
AcDbEntity
  8
0
  6
Continuous
100
AcDbCircle
 10
1850.968729385653
 20
17.52501811867454
 30
0.0
 40
1.5
100
AcDbArc
 50
90.0
 51
180.0
  0
TEXT
  5
56FB
330
1F
100
AcDbEntity
  8
s
100
AcDbText
 10
2122.966188523475
 20
84.37756615264742
 30
0.0
 40
12.0
  1
YSK-13
  7
文字用　bighont
100
AcDbText
  0
TEXT
  5
56FC
330
1F
100
AcDbEntity
  8
s
100
AcDbText
 10
1960.784168570446
 20
86.02598149021558
 30
0.0
 40
12.0
  1
YSK-14
  7
文字用　bighont
100
AcDbText
  0
TEXT
  5
56FD
330
1F
100
AcDbEntity
  8
s
100
AcDbText
 10
1632.590472834448
 20
83.75334682665105
 30
0.0
 40
12.0
  1
YSK-15
  7
文字用　bighont
100
AcDbText
  0
TEXT
  5
56FE
330
1F
100
AcDbEntity
  8
s
100
AcDbText
 10
1794.47117587477
 20
84.50886221904509
 30
0.0
 40
12.0
  1
YSK-16
  7
文字用　bighont
100
AcDbText
  0
VIEWPORT
  5
71
102
{ACAD_XDICTIONARY
360
10221
102
}
330
55
100
AcDbEntity
 67
     1
  8
0
100
AcDbViewport
 10
150.1652135264906
 20
101.599997546291
 30
0.0
 40
339.1973820494347
 41
164.5360435314421
 68
     1
 69
     1
 12
150.1652135264906
 22
101.599997546291
 13
0.0
 23
0.0
 14
10.0
 24
10.0
 15
10.0
 25
10.0
 16
0.0
 26
0.0
 36
1.0
 17
0.0
 27
0.0
 37
0.0
 42
50.0
 43
0.0
 44
0.0
 45
164.5360435314421
 50
0.0
 51
0.0
 72
  1000
 90
    32864
  1

281
     0
 71
     1
 74
     0
110
0.0
120
0.0
130
0.0
111
1.0
121
0.0
131
0.0
112
0.0
122
1.0
132
0.0
 79
     0
146
0.0
  0
VIEWPORT
  5
73
102
{ACAD_XDICTIONARY
360
10223
102
}
330
55
100
AcDbEntity
 67
     1
  8
0
100
AcDbViewport
 10
133.3499939441681
 20
101.5999939441681
 30
0.0
 40
213.3599903106689
 41
162.5599903106689
 68
     2
 69
     2
 12
210.0
 22
148.5
 13
0.0
 23
0.0
 14
10.0
 24
10.0
 15
10.0
 25
10.0
 16
0.0
 26
0.0
 36
1.0
 17
0.0
 27
0.0
 37
0.0
 42
50.0
 43
0.0
 44
0.0
 45
324.0677920111345
 50
0.0
 51
0.0
 72
   100
 90
    32864
  1

281
     0
 71
     1
 74
     0
110
0.0
120
0.0
130
0.0
111
1.0
121
0.0
131
0.0
112
0.0
122
1.0
132
0.0
 79
     0
146
0.0
  0
ENDSEC
  0
SECTION
  2
OBJECTS
  0
DICTIONARY
  5
C
330
0
100
AcDbDictionary
281
     1
  3
ACAD_CIP_PREVIOUS_PRODUCT_INFO
350
6279
  3
ACAD_COLOR
350
85
  3
ACAD_DETAILVIEWSTYLE
350
6273
  3
ACAD_GROUP
350
D
  3
ACAD_LAYOUT
350
1A
  3
ACAD_MATERIAL
350
84
  3
ACAD_MLEADERSTYLE
350
626F
  3
ACAD_MLINESTYLE
350
17
  3
ACAD_PLOTSETTINGS
350
19
  3
ACAD_PLOTSTYLENAME
350
E
  3
ACAD_SCALELIST
350
625D
  3
ACAD_SECTIONVIEWSTYLE
350
6271
  3
ACAD_TABLESTYLE
350
A1
  3
ACAD_VISUALSTYLE
350
6244
  3
ACDB_RECOMPOSE_DATA
350
1020D
  3
AcDbVariableDictionary
350
5E
  3
AcDsDecomposeData
350
10214
  3
DWGPROPS
350
1020E
  0
DICTIONARY
  5
2C0
330
2
100
AcDbDictionary
280
     1
281
     1
  3
ACAD_LAYERFILTERS
360
2C5
  3
ACAD_LAYERSTATES
360
A43
  3
ACLYDICTIONARY
360
2C4
  0
DICTIONARY
  5
B50B
330
10
100
AcDbDictionary
280
     1
281
     1
  3
ADSK_XREC_LAYER_RECONCILED
360
B50C
  0
DICTIONARY
  5
B50F
330
2C3
100
AcDbDictionary
280
     1
281
     1
  3
ADSK_XREC_LAYER_RECONCILED
360
B510
  0
DICTIONARY
  5
FCC8
330
FCC7
100
AcDbDictionary
280
     1
281
     1
  0
DICTIONARY
  5
47A
330
1F
100
AcDbDictionary
280
     1
281
     1
  3
ACAD_SORTENTS
360
47B
  0
DICTIONARY
  5
1021D
330
6B
100
AcDbDictionary
280
     1
281
     1
  3
ACAD_XREC_ROUNDTRIP
360
1021E
  0
DICTIONARY
  5
1021F
330
6D
100
AcDbDictionary
280
     1
281
     1
  3
ACAD_XREC_ROUNDTRIP
360
10220
  0
DICTIONARY
  5
3C71
330
3C70
100
AcDbDictionary
280
     1
281
     1
  3
ACAD_DIMASSOC
360
3C72
  0
DICTIONARY
  5
3C79
330
3C78
100
AcDbDictionary
280
     1
281
     1
  3
ACAD_DIMASSOC
360
3C7A
  0
DICTIONARY
  5
3C7C
330
3C7B
100
AcDbDictionary
280
     1
281
     1
  3
ACAD_DIMASSOC
360
3C7D
  0
DICTIONARY
  5
3C7F
330
3C7E
100
AcDbDictionary
280
     1
281
     1
  3
ACAD_DIMASSOC
360
3C80
  0
DICTIONARY
  5
3DF6
330
3DF5
100
AcDbDictionary
280
     1
281
     1
  3
ACAD_DIMASSOC
360
3DF7
  0
DICTIONARY
  5
3E52
330
3E45
100
AcDbDictionary
280
     1
281
     1
  3
ACAD_DIMASSOC
360
3E5C
  0
DICTIONARY
  5
3EC8
330
3EBB
100
AcDbDictionary
280
     1
281
     1
  3
ACAD_DIMASSOC
360
3ED2
  0
DICTIONARY
  5
3EF9
330
3EF8
100
AcDbDictionary
280
     1
281
     1
  3
ACAD_DIMASSOC
360
3EFA
  0
DICTIONARY
  5
3F00
330
3EFF
100
AcDbDictionary
280
     1
281
     1
  3
ACAD_DIMASSOC
360
3F01
  0
DICTIONARY
  5
3F03
330
3F02
100
AcDbDictionary
280
     1
281
     1
  3
ACAD_DIMASSOC
360
3F04
  0
DICTIONARY
  5
3FD0
330
3FCF
100
AcDbDictionary
280
     1
281
     1
  3
ACAD_DIMASSOC
360
3FD1
  0
DICTIONARY
  5
3FD3
330
3FD2
100
AcDbDictionary
280
     1
281
     1
  3
ACAD_DIMASSOC
360
3FD4
  0
DICTIONARY
  5
3FD6
330
3FD5
100
AcDbDictionary
280
     1
281
     1
  3
ACAD_DIMASSOC
360
3FD7
  0
DICTIONARY
  5
10221
330
71
100
AcDbDictionary
280
     1
281
     1
  3
ACAD_XREC_ROUNDTRIP
360
10222
  0
DICTIONARY
  5
10223
330
73
100
AcDbDictionary
280
     1
281
     1
  3
ACAD_XREC_ROUNDTRIP
360
10224
  0
XRECORD
  5
6279
102
{ACAD_REACTORS
330
C
102
}
330
C
100
AcDbXrecord
280
     1
300
ACDLT
300
2014
300
ACDLT_F_S
  0
DICTIONARY
  5
85
102
{ACAD_REACTORS
330
C
102
}
330
C
100
AcDbDictionary
281
     1
  0
DICTIONARY
  5
6273
102
{ACAD_REACTORS
330
C
102
}
330
C
100
AcDbDictionary
281
     1
  3
Imperial24
350
B446
  3
Metric50
350
6274
  0
DICTIONARY
  5
D
102
{ACAD_REACTORS
330
C
102
}
330
C
100
AcDbDictionary
281
     1
  0
DICTIONARY
  5
1A
102
{ACAD_REACTORS
330
C
102
}
330
C
100
AcDbDictionary
281
     1
  3
Model
350
22
  3
レイアウト1
350
51
  3
レイアウト2
350
56
  0
DICTIONARY
  5
84
102
{ACAD_REACTORS
330
C
102
}
330
C
100
AcDbDictionary
281
     1
  3
ByBlock
350
6234
  3
ByLayer
350
622C
  3
Global
350
623C
  0
DICTIONARY
  5
626F
102
{ACAD_REACTORS
330
C
102
}
330
C
100
AcDbDictionary
281
     1
  3
Standard
350
6270
  0
DICTIONARY
  5
17
102
{ACAD_REACTORS
330
C
102
}
330
C
100
AcDbDictionary
281
     1
  3
Standard
350
18
  0
DICTIONARY
  5
19
102
{ACAD_REACTORS
330
C
102
}
330
C
100
AcDbDictionary
281
     1
  0
ACDBDICTIONARYWDFLT
  5
E
102
{ACAD_REACTORS
330
C
102
}
330
C
100
AcDbDictionary
281
     1
  3
Normal
350
F
100
AcDbDictionaryWithDefault
340
F
  0
DICTIONARY
  5
625D
102
{ACAD_REACTORS
330
C
102
}
330
C
100
AcDbDictionary
281
     1
  3
A0
350
625E
  3
A1
350
625F
  3
A2
350
6260
  3
A3
350
6261
  3
A4
350
6262
  3
A5
350
6263
  3
A6
350
6264
  3
A7
350
6265
  3
A8
350
6266
  3
A9
350
6267
  3
B0
350
6268
  3
B1
350
6269
  3
B2
350
626A
  3
B3
350
626B
  3
B4
350
626C
  3
B5
350
626D
  3
B6
350
626E
  0
DICTIONARY
  5
6271
102
{ACAD_REACTORS
330
C
102
}
330
C
100
AcDbDictionary
281
     1
  3
Imperial24
350
B445
  3
Metric50
350
6272
  0
DICTIONARY
  5
A1
102
{ACAD_REACTORS
330
C
102
}
330
C
100
AcDbDictionary
281
     1
  3
Standard
350
A2
  0
DICTIONARY
  5
6244
102
{ACAD_REACTORS
330
C
102
}
330
C
100
AcDbDictionary
281
     1
  3
2dWireframe
350
624A
  3
Basic
350
6249
  3
Brighten
350
6250
  3
ColorChange
350
6254
  3
Conceptual
350
624D
  3
Dim
350
624F
  3
EdgeColorOff
350
625C
  3
Facepattern
350
6253
  3
Flat
350
6245
  3
FlatWithEdges
350
6246
  3
Gouraud
350
6247
  3
GouraudWithEdges
350
6248
  3
Hidden
350
624C
  3
JitterOff
350
625A
  3
Linepattern
350
6252
  3
OverhangOff
350
625B
  3
Realistic
350
624E
  3
Shaded
350
6259
  3
Shaded with edges
350
6258
  3
Shades of Gray
350
6255
  3
Sketchy
350
6256
  3
Thicken
350
6251
  3
Wireframe
350
624B
  3
X-Ray
350
6257
  0
XRECORD
  5
1020D
102
{ACAD_REACTORS
330
C
102
}
330
C
100
AcDbXrecord
280
     1
 90
        1
330
A2
  0
DICTIONARY
  5
5E
102
{ACAD_REACTORS
330
C
102
}
330
C
100
AcDbDictionary
281
     1
  3
CANNOSCALE
350
EDB4
  3
CMLEADERSTYLE
350
EDB1
  3
CTABLESTYLE
350
B8
  3
CVIEWDETAILSTYLE
350
EDB2
  3
CVIEWSECTIONSTYLE
350
EDB3
  3
DIMASSOC
350
5F
  3
HIDETEXT
350
63
  3
INDEXCTL
350
EDB6
  3
LAYEREVAL
350
EE18
  3
LAYERNOTIFY
350
EE19
  3
LIGHTINGUNITS
350
EE17
  3
MSLTSCALE
350
EE16
  3
PROJECTNAME
350
A3D
  3
SORTENTS
350
EDB5
  3
XCLIPFRAME
350
FFD3
  0
DICTIONARY
  5
10214
102
{ACAD_REACTORS
330
C
102
}
330
C
100
AcDbDictionary
281
     1
  3
AcDsRecords
350
10216
  3
AcDsSchemas
350
10215
1001
ACAD
1070
     2
  0
XRECORD
  5
1020E
102
{ACAD_REACTORS
330
C
102
}
330
C
100
AcDbXrecord
280
     1
  1
DWGPROPS COOKIE
  2

  3

  4

  6

  7

  8
CAD齋藤
  9

300
=
301
=
302
=
303
=
304
=
305
=
306
=
307
=
308
=
309
=
 40
0.3569303009259259
 41
2455616.743265197
 42
2458698.749668715
  1

 90
        0
  0
DICTIONARY
  5
2C5
102
{ACAD_REACTORS
330
2C0
102
}
330
2C0
100
AcDbDictionary
281
     1
  0
DICTIONARY
  5
A43
102
{ACAD_REACTORS
330
2C0
102
}
330
2C0
100
AcDbDictionary
281
     1
  0
DICTIONARY
  5
2C4
102
{ACAD_REACTORS
330
2C0
102
}
330
2C0
100
AcDbDictionary
281
     1
1001
ACAD
1000
<All
  0
XRECORD
  5
B50C
102
{ACAD_REACTORS
330
B50B
102
}
330
B50B
100
AcDbXrecord
280
     1
290
     1
  0
XRECORD
  5
B510
102
{ACAD_REACTORS
330
B50F
102
}
330
B50F
100
AcDbXrecord
280
     1
290
     1
  0
SORTENTSTABLE
  5
47B
102
{ACAD_REACTORS
330
47A
102
}
330
47A
100
AcDbSortentsTable
330
1F
331
3C77
  5
3D78
331
3EEA
  5
3EEE
331
4045
  5
3FBC
331
3EF2
  5
3EF6
331
3FC6
  5
3FCE
331
3EBB
  5
3EE9
331
3DE5
  5
3DEE
331
3FCE
  5
4047
331
3F02
  5
3FA5
331
56FE
  5
56FE
331
3DED
  5
3DF8
331
3DF5
  5
3E94
331
3D76
  5
3C66
331
3C60
  5
3C6A
331
3FA7
  5
3FAB
331
3C68
  5
3C75
331
3E94
  5
3DED
331
3FAF
  5
3FB3
331
3FB7
  5
3FBB
331
3C70
  5
3D6A
331
3EEB
  5
3EEF
331
3C78
  5
3D82
331
4046
  5
3FC5
331
3EF3
  5
3EF7
331
3FC7
  5
3FCF
331
3EFB
  5
3EFF
331
3DE6
  5
3DF0
331
3FCF
  5
4048
331
3E45
  5
3EE6
331
3DEE
  5
3DF9
331
3C61
  5
3C6B
331
3D77
  5
3C69
331
3FA8
  5
3FAC
331
3C69
  5
3C76
331
3E95
  5
3DEF
331
3FB0
  5
3FB4
331
3EEC
  5
3EF0
331
3FB8
  5
3FBD
331
4047
  5
3FC7
331
3EF4
  5
3EF8
331
3DDF
  5
3DE6
331
3FC0
  5
3FCA
331
3EFC
  5
3F02
331
3FC8
  5
3FD2
331
3C5A
  5
3C61
331
3DEF
  5
3E45
331
3C62
  5
3C6C
331
3D78
  5
3C64
331
3C6A
  5
3C77
331
3FA9
  5
3FAD
331
3FB1
  5
3FB5
331
3EED
  5
3EF1
331
3FB9
  5
3FC1
331
3DE0
  5
3DE8
331
3EF5
  5
3EFB
331
4048
  5
3FC0
331
3EFD
  5
3F08
331
3FC9
  5
3FD5
331
3DE8
  5
3DF1
331
3C5B
  5
3C62
331
3DF0
  5
3E5D
331
3C63
  5
3C6D
331
3C6B
  5
3C78
331
3FAA
  5
3FAE
331
3E9F
  5
3DF2
331
3FB2
  5
3FB6
331
3C7B
  5
3DDF
331
3EEE
  5
3EF2
331
3FBA
  5
3FC4
331
3DE1
  5
3DEA
331
3EF6
  5
3EFC
331
3EFE
  5
3FA3
331
3FCA
  5
3FD8
331
3FD2
  5
4049
331
3C5C
  5
3C63
331
3DF1
  5
3E75
331
3C64
  5
3C70
331
3FA3
  5
3FA7
331
3D82
  5
3DE5
331
3C6C
  5
3C7B
331
3FAB
  5
3FAF
331
3EE7
  5
3EEB
331
3FB3
  5
3FB7
331
3EA0
  5
3DEB
331
3C74
  5
3D75
331
3EEF
  5
3EF3
331
3FBB
  5
3FC6
331
3EF7
  5
3EFD
331
3FC3
  5
3FCB
331
3EFF
  5
3FA4
331
3FCB
  5
3FD9
331
56FB
  5
56FB
331
3DEA
  5
3DF3
331
3DF2
  5
3E76
331
3FA4
  5
3FA8
331
3C6D
  5
3C7E
331
3FAC
  5
3FB0
331
3FB4
  5
3FB8
331
3EE8
  5
3EEC
331
3EA1
  5
3EE8
331
3C75
  5
3D76
331
3EF0
  5
3EF4
331
3FBC
  5
3FC8
331
3EF8
  5
3EFE
331
3FC4
  5
3FCC
331
3FCC
  5
4045
331
56FC
  5
56FC
331
3DEB
  5
3DF4
331
3D74
  5
3C68
331
3DF3
  5
3E77
331
3C66
  5
3C73
331
3FA5
  5
3FA9
331
3C6E
  5
3C81
331
3FAD
  5
3FB1
331
3FB5
  5
3FB9
331
3EE9
  5
3EED
331
3C76
  5
3D77
331
3C7E
  5
3DE0
331
3EF1
  5
3EF5
331
3FBD
  5
3FC9
331
3FC5
  5
3FCD
331
3FCD
  5
4046
331
3FD5
  5
404A
331
56FD
  5
56FD
331
3DEC
  5
3DF5
331
3D75
  5
3C74
331
3DF4
  5
3E93
331
3E93
  5
3DEC
331
3FA6
  5
3FAA
331
3C6F
  5
3D69
331
3FAE
  5
3FB2
331
3FB6
  5
3FBA
  0
XRECORD
  5
1021E
102
{ACAD_REACTORS
330
1021D
102
}
330
1021D
100
AcDbXrecord
280
     1
102
SHADEPLOT
 70
     0
  0
XRECORD
  5
10220
102
{ACAD_REACTORS
330
1021F
102
}
330
1021F
100
AcDbXrecord
280
     1
102
SHADEPLOT
 70
     0
  0
DIMASSOC
  5
3C72
102
{ACAD_REACTORS
330
3C71
102
}
330
3C71
100
AcDbDimAssoc
330
3C70
 90
        3
 70
     0
 71
     0
  1
AcDbOsnapPointRef
 72
    13
331
3C60
 73
     2
 91
        0
 40
0.0
 10
0.0
 20
0.0
 30
2.000000000000000E+50
 75
     0
  1
AcDbOsnapPointRef
 72
     1
331
3C6C
 73
     2
 91
        0
 40
1.0
 10
0.0
 20
0.0
 30
2.000000000000000E+50
 75
     0
  0
DIMASSOC
  5
3C7A
102
{ACAD_REACTORS
330
3C79
102
}
330
3C79
100
AcDbDimAssoc
330
3C78
 90
        1
 70
     0
 71
     0
  1
AcDbOsnapPointRef
 72
     1
331
3C69
 73
     2
 91
        0
 40
4.712388980384688
 10
0.0
 20
0.0
 30
2.000000000000000E+50
 75
     0
  0
DIMASSOC
  5
3C7D
102
{ACAD_REACTORS
330
3C7C
102
}
330
3C7C
100
AcDbDimAssoc
330
3C7B
 90
        1
 70
     0
 71
     0
  1
AcDbOsnapPointRef
 72
    13
331
3C77
 73
     2
 91
        0
 40
0.0
 10
0.0
 20
0.0
 30
2.000000000000000E+50
 75
     0
  0
DIMASSOC
  5
3C80
102
{ACAD_REACTORS
330
3C7F
102
}
330
3C7F
100
AcDbDimAssoc
330
3C7E
 90
        1
 70
     0
 71
     0
  1
AcDbOsnapPointRef
 72
     1
331
3C77
 73
     2
 91
        0
 40
1.0
 10
0.0
 20
0.0
 30
2.000000000000000E+50
 75
     0
  0
DIMASSOC
  5
3DF7
102
{ACAD_REACTORS
330
3DF6
102
}
330
3DF6
100
AcDbDimAssoc
330
3DF5
 90
        3
 70
     0
 71
     0
  1
AcDbOsnapPointRef
 72
    13
331
3DE5
 73
     2
 91
        0
 40
0.0
 10
0.0
 20
0.0
 30
2.000000000000000E+50
 75
     0
  1
AcDbOsnapPointRef
 72
     1
331
3DF1
 73
     2
 91
        0
 40
1.0
 10
0.0
 20
0.0
 30
2.000000000000000E+50
 75
     0
  0
DIMASSOC
  5
3E5C
102
{ACAD_REACTORS
330
3E52
102
}
330
3E52
100
AcDbDimAssoc
330
3E45
 90
        1
 70
     0
 71
     0
  1
AcDbOsnapPointRef
 72
     1
331
3DF0
 73
     2
 91
        0
 40
1.0
 10
0.0
 20
0.0
 30
2.000000000000000E+50
 75
     0
  0
DIMASSOC
  5
3ED2
102
{ACAD_REACTORS
330
3EC8
102
}
330
3EC8
100
AcDbDimAssoc
330
3EBB
 90
        2
 70
     0
 71
     0
  1
AcDbOsnapPointRef
 72
     1
331
3DF1
 73
     2
 91
        0
 40
1.0
 10
0.0
 20
0.0
 30
2.000000000000000E+50
 75
     0
  0
DIMASSOC
  5
3EFA
102
{ACAD_REACTORS
330
3EF9
102
}
330
3EF9
100
AcDbDimAssoc
330
3EF8
 90
        1
 70
     0
 71
     0
  1
AcDbOsnapPointRef
 72
    13
331
3EE7
 73
     2
 91
        0
 40
0.0
 10
0.0
 20
0.0
 30
2.000000000000000E+50
 75
     0
  0
DIMASSOC
  5
3F01
102
{ACAD_REACTORS
330
3F00
102
}
330
3F00
100
AcDbDimAssoc
330
3EFF
 90
        1
 70
     0
 71
     0
  1
AcDbOsnapPointRef
 72
     1
331
3EF3
 73
     2
 91
        0
 40
4.712388980384688
 10
0.0
 20
0.0
 30
2.000000000000000E+50
 75
     0
  0
DIMASSOC
  5
3F04
102
{ACAD_REACTORS
330
3F03
102
}
330
3F03
100
AcDbDimAssoc
330
3F02
 90
        1
 70
     0
 71
     0
  1
AcDbOsnapPointRef
 72
    13
331
3EFE
 73
     2
 91
        0
 40
0.0
 10
0.0
 20
0.0
 30
2.000000000000000E+50
 75
     0
  0
DIMASSOC
  5
3FD1
102
{ACAD_REACTORS
330
3FD0
102
}
330
3FD0
100
AcDbDimAssoc
330
3FCF
 90
        3
 70
     0
 71
     0
  1
AcDbOsnapPointRef
 72
    13
331
3FAD
 73
     2
 91
        0
 40
3.141592653589792
 10
0.0
 20
0.0
 30
2.000000000000000E+50
 75
     0
  1
AcDbOsnapPointRef
 72
    13
331
3FC4
 73
     2
 91
        0
 40
0.0000000000000568
 10
0.0
 20
0.0
 30
2.000000000000000E+50
 75
     0
  0
DIMASSOC
  5
3FD4
102
{ACAD_REACTORS
330
3FD3
102
}
330
3FD3
100
AcDbDimAssoc
330
3FD2
 90
        3
 70
     0
 71
     0
  1
AcDbOsnapPointRef
 72
     1
331
3FB5
 73
     2
 91
        0
 40
0.0
 10
0.0
 20
0.0
 30
2.000000000000000E+50
 75
     0
  1
AcDbOsnapPointRef
 72
    13
331
3FCB
 73
     2
 91
        0
 40
0.0
 10
0.0
 20
0.0
 30
2.000000000000000E+50
 75
     0
  0
DIMASSOC
  5
3FD7
102
{ACAD_REACTORS
330
3FD6
102
}
330
3FD6
100
AcDbDimAssoc
330
3FD5
 90
        3
 70
     0
 71
     0
  1
AcDbOsnapPointRef
 72
    13
331
3FC3
 73
     2
 91
        0
 40
4.712388980384688
 10
0.0
 20
0.0
 30
2.000000000000000E+50
 75
     0
  1
AcDbOsnapPointRef
 72
     1
331
3FCB
 73
     2
 91
        0
 40
1.570796326794896
 10
0.0
 20
0.0
 30
2.000000000000000E+50
 75
     0
  0
XRECORD
  5
10222
102
{ACAD_REACTORS
330
10221
102
}
330
10221
100
AcDbXrecord
280
     1
102
SHADEPLOT
 70
     0
  0
XRECORD
  5
10224
102
{ACAD_REACTORS
330
10223
102
}
330
10223
100
AcDbXrecord
280
     1
102
SHADEPLOT
 70
     0
  0
ACDBDETAILVIEWSTYLE
  5
B446
102
{ACAD_XDICTIONARY
360
10024
102
}
102
{ACAD_REACTORS
330
6273
102
}
330
6273
100
AcDbModelDocViewStyle
 70
     0
  3
Imperial24
290
     0
100
AcDbDetailViewStyle
 70
     0
 71
     0
 90
        3
 71
     1
340
11
 40
0.24
340
0
 40
0.24
300

 40
0.36
280
     3
 71
     2
340
16
 90
       25
 71
     3
340
11
 40
0.24
 90
        1
 40
0.75
 90
        1
300
%<\AcVar ViewType \f "%tc1">% %<\AcVar ViewDetailId>%\PSCALE %<\AcVar ViewScale \f "%sn">%
 71
     4
340
16
 90
       25
340
16
 90
       25
280
     0
  0
ACDBDETAILVIEWSTYLE
  5
6274
102
{ACAD_XDICTIONARY
360
10020
102
}
102
{ACAD_REACTORS
330
6273
102
}
330
6273
100
AcDbModelDocViewStyle
 70
     0
  3
Metric50
290
     0
100
AcDbDetailViewStyle
 70
     0
 71
     0
 90
        3
 71
     1
340
11
 40
5.0
340
0
 40
5.0
300

 40
0.0
280
     1
 71
     2
340
16
 90
       25
 71
     3
340
11
 40
5.0
 90
        0
 40
15.0
 90
        1
300
%<\AcVar ViewDetailId>% (%<\AcVar ViewScale \f "%sn">%)
 71
     4
340
16
 90
       25
340
16
 90
       25
280
     0
  0
LAYOUT
  5
22
102
{ACAD_XDICTIONARY
360
10217
102
}
102
{ACAD_REACTORS
330
1A
102
}
330
1A
100
AcDbPlotSettings
  1

  2
none_device
  4
ANSI_A_(8.50_x_11.00_Inches)
  6

 40
6.349999904632567
 41
19.04999923706055
 42
6.350006103515625
 43
19.04998779296875
 44
215.8999938964844
 45
279.3999938964844
 46
0.0
 47
0.0
 48
0.0
 49
0.0
140
0.0
141
0.0
142
1.0
143
78.436453180766
 70
 11952
 72
     0
 73
     1
 74
     0
  7

 75
     0
147
0.0127491741332998
148
0.0
149
0.0
100
AcDbLayout
  1
Model
 70
     1
 71
     0
 10
0.0
 20
0.0
 11
12.0
 21
9.0
 12
0.0
 22
0.0
 32
0.0
 14
0.0
 24
0.0
 34
0.0
 15
0.0
 25
0.0
 35
0.0
146
0.0
 13
0.0
 23
0.0
 33
0.0
 16
1.0
 26
0.0
 36
0.0
 17
0.0
 27
1.0
 37
0.0
 76
     0
330
1F
331
6217
  0
LAYOUT
  5
51
102
{ACAD_XDICTIONARY
360
10219
102
}
102
{ACAD_REACTORS
330
1A
102
}
330
1A
100
AcDbPlotSettings
  1

  2
none_device
  4
Letter_(8.50_x_11.00_Inches)
  6

 40
6.349999904632567
 41
6.349999904632567
 42
6.350006103515625
 43
6.350006103515625
 44
215.8999938964844
 45
279.3999938964844
 46
0.0
 47
0.0
 48
0.0
 49
0.0
140
0.0
141
0.0
142
1.0
143
1.0
 70
   688
 72
     1
 73
     1
 74
     5
  7

 75
    16
147
1.0
148
0.0
149
0.0
100
AcDbLayout
  1
レイアウト1
 70
     1
 71
     1
 10
-6.350006103515625
 20
-6.349999904632567
 11
273.0499877929688
 21
209.5499939918518
 12
0.0
 22
0.0
 32
0.0
 14
26.66999878883363
 24
20.31999878883363
 34
0.0
 15
240.0299890995026
 25
182.8799890995025
 35
0.0
146
0.0
 13
0.0
 23
0.0
 33
0.0
 16
1.0
 26
0.0
 36
0.0
 17
0.0
 27
1.0
 37
0.0
 76
     0
330
50
331
6B
  0
LAYOUT
  5
56
102
{ACAD_XDICTIONARY
360
1021B
102
}
102
{ACAD_REACTORS
330
1A
102
}
330
1A
100
AcDbPlotSettings
  1

  2
none_device
  4
Letter_(8.50_x_11.00_Inches)
  6

 40
6.349999904632567
 41
6.349999904632567
 42
6.350006103515625
 43
6.350006103515625
 44
215.8999938964844
 45
279.3999938964844
 46
0.0
 47
0.0
 48
0.0
 49
0.0
140
0.0
141
0.0
142
1.0
143
1.0
 70
   688
 72
     1
 73
     1
 74
     5
  7

 75
    16
147
1.0
148
0.0
149
0.0
100
AcDbLayout
  1
レイアウト2
 70
     1
 71
     2
 10
-6.350006103515625
 20
-6.349999904632567
 11
273.0499877929688
 21
209.5499939918518
 12
0.0
 22
0.0
 32
0.0
 14
26.66999878883363
 24
20.31999878883363
 34
0.0
 15
240.0299890995026
 25
182.8799890995025
 35
0.0
146
0.0
 13
0.0
 23
0.0
 33
0.0
 16
1.0
 26
0.0
 36
0.0
 17
0.0
 27
1.0
 37
0.0
 76
     0
330
55
331
71
  0
MATERIAL
  5
6234
102
{ACAD_XDICTIONARY
360
6235
102
}
102
{ACAD_REACTORS
330
84
102
}
330
84
100
AcDbMaterial
  1
ByBlock
 72
     0
 43
0.0008202099737533
 43
0.0
 43
0.0
 43
0.0
 43
0.0
 43
0.0008202099737533
 43
0.0
 43
0.0
 43
0.0
 43
0.0
 43
1.0
 43
0.0
 43
0.0
 43
0.0
 43
0.0
 43
1.0
 77
     0
 47
0.0008202099737533
 47
0.0
 47
0.0
 47
0.0
 47
0.0
 47
0.0008202099737533
 47
0.0
 47
0.0
 47
0.0
 47
0.0
 47
1.0
 47
0.0
 47
0.0
 47
0.0
 47
0.0
 47
1.0
171
     0
 49
0.0008202099737533
 49
0.0
 49
0.0
 49
0.0
 49
0.0
 49
0.0008202099737533
 49
0.0
 49
0.0
 49
0.0
 49
0.0
 49
1.0
 49
0.0
 49
0.0
 49
0.0
 49
0.0
 49
1.0
175
     0
142
0.0008202099737533
142
0.0
142
0.0
142
0.0
142
0.0
142
0.0008202099737533
142
0.0
142
0.0
142
0.0
142
0.0
142
1.0
142
0.0
142
0.0
142
0.0
142
0.0
142
1.0
179
     0
144
0.0008202099737533
144
0.0
144
0.0
144
0.0
144
0.0
144
0.0008202099737533
144
0.0
144
0.0
144
0.0
144
0.0
144
1.0
144
0.0
144
0.0
144
0.0
144
0.0
144
1.0
147
0.0008202099737533
147
0.0
147
0.0
147
0.0
147
0.0
147
0.0008202099737533
147
0.0
147
0.0
147
0.0
147
0.0
147
1.0
147
0.0
147
0.0
147
0.0
147
0.0
147
1.0
  0
MATERIAL
  5
622C
102
{ACAD_XDICTIONARY
360
622D
102
}
102
{ACAD_REACTORS
330
84
102
}
330
84
100
AcDbMaterial
  1
ByLayer
 72
     0
 43
0.0008202099737533
 43
0.0
 43
0.0
 43
0.0
 43
0.0
 43
0.0008202099737533
 43
0.0
 43
0.0
 43
0.0
 43
0.0
 43
1.0
 43
0.0
 43
0.0
 43
0.0
 43
0.0
 43
1.0
 77
     0
 47
0.0008202099737533
 47
0.0
 47
0.0
 47
0.0
 47
0.0
 47
0.0008202099737533
 47
0.0
 47
0.0
 47
0.0
 47
0.0
 47
1.0
 47
0.0
 47
0.0
 47
0.0
 47
0.0
 47
1.0
171
     0
 49
0.0008202099737533
 49
0.0
 49
0.0
 49
0.0
 49
0.0
 49
0.0008202099737533
 49
0.0
 49
0.0
 49
0.0
 49
0.0
 49
1.0
 49
0.0
 49
0.0
 49
0.0
 49
0.0
 49
1.0
175
     0
142
0.0008202099737533
142
0.0
142
0.0
142
0.0
142
0.0
142
0.0008202099737533
142
0.0
142
0.0
142
0.0
142
0.0
142
1.0
142
0.0
142
0.0
142
0.0
142
0.0
142
1.0
179
     0
144
0.0008202099737533
144
0.0
144
0.0
144
0.0
144
0.0
144
0.0008202099737533
144
0.0
144
0.0
144
0.0
144
0.0
144
1.0
144
0.0
144
0.0
144
0.0
144
0.0
144
1.0
147
0.0008202099737533
147
0.0
147
0.0
147
0.0
147
0.0
147
0.0008202099737533
147
0.0
147
0.0
147
0.0
147
0.0
147
1.0
147
0.0
147
0.0
147
0.0
147
0.0
147
1.0
  0
MATERIAL
  5
623C
102
{ACAD_XDICTIONARY
360
623D
102
}
102
{ACAD_REACTORS
330
84
102
}
330
84
100
AcDbMaterial
  1
Global
 72
     0
 43
0.0008202099737533
 43
0.0
 43
0.0
 43
0.0
 43
0.0
 43
0.0008202099737533
 43
0.0
 43
0.0
 43
0.0
 43
0.0
 43
1.0
 43
0.0
 43
0.0
 43
0.0
 43
0.0
 43
1.0
 77
     0
 47
0.0008202099737533
 47
0.0
 47
0.0
 47
0.0
 47
0.0
 47
0.0008202099737533
 47
0.0
 47
0.0
 47
0.0
 47
0.0
 47
1.0
 47
0.0
 47
0.0
 47
0.0
 47
0.0
 47
1.0
171
     0
 49
0.0008202099737533
 49
0.0
 49
0.0
 49
0.0
 49
0.0
 49
0.0008202099737533
 49
0.0
 49
0.0
 49
0.0
 49
0.0
 49
1.0
 49
0.0
 49
0.0
 49
0.0
 49
0.0
 49
1.0
175
     0
142
0.0008202099737533
142
0.0
142
0.0
142
0.0
142
0.0
142
0.0008202099737533
142
0.0
142
0.0
142
0.0
142
0.0
142
1.0
142
0.0
142
0.0
142
0.0
142
0.0
142
1.0
179
     0
144
0.0008202099737533
144
0.0
144
0.0
144
0.0
144
0.0
144
0.0008202099737533
144
0.0
144
0.0
144
0.0
144
0.0
144
1.0
144
0.0
144
0.0
144
0.0
144
0.0
144
1.0
147
0.0008202099737533
147
0.0
147
0.0
147
0.0
147
0.0
147
0.0008202099737533
147
0.0
147
0.0
147
0.0
147
0.0
147
1.0
147
0.0
147
0.0
147
0.0
147
0.0
147
1.0
  0
MLEADERSTYLE
  5
6270
102
{ACAD_REACTORS
330
626F
102
}
330
626F
100
AcDbMLeaderStyle
170
     2
171
     1
172
     0
 90
        2
 40
0.0
 41
0.0
173
     1
 91
-1056964608
340
14
 92
       -2
290
     1
 42
2.0
291
     1
 43
0.36
  3
Standard
 44
4.0
300

342
11
174
     1
178
     6
175
     1
176
     0
 93
-1056964608
 45
4.0
292
     0
297
     0
 46
4.0
 94
-1056964608
 47
1.0
 49
1.0
140
1.0
293
     1
141
0.0
294
     1
177
     0
142
1.0
295
     0
296
     0
143
0.125
1001
ACAD_MLEADERVER
1070
     2
  0
MLINESTYLE
  5
18
102
{ACAD_REACTORS
330
17
102
}
330
17
100
AcDbMlineStyle
  2
STANDARD
 70
     0
  3

 62
   256
 51
90.0
 52
90.0
 71
     2
 49
0.5
 62
   256
  6
BYLAYER
 49
-0.5
 62
   256
  6
BYLAYER
  0
ACDBPLACEHOLDER
  5
F
102
{ACAD_REACTORS
330
E
102
}
330
E
  0
SCALE
  5
625E
102
{ACAD_REACTORS
330
625D
102
}
330
625D
100
AcDbScale
 70
     0
300
1:1
140
1.0
141
1.0
290
     1
  0
SCALE
  5
625F
102
{ACAD_REACTORS
330
625D
102
}
330
625D
100
AcDbScale
 70
     0
300
1:2
140
1.0
141
2.0
290
     0
  0
SCALE
  5
6260
102
{ACAD_REACTORS
330
625D
102
}
330
625D
100
AcDbScale
 70
     0
300
1:4
140
1.0
141
4.0
290
     0
  0
SCALE
  5
6261
102
{ACAD_REACTORS
330
625D
102
}
330
625D
100
AcDbScale
 70
     0
300
1:5
140
1.0
141
5.0
290
     0
  0
SCALE
  5
6262
102
{ACAD_REACTORS
330
625D
102
}
330
625D
100
AcDbScale
 70
     0
300
1:8
140
1.0
141
8.0
290
     0
  0
SCALE
  5
6263
102
{ACAD_REACTORS
330
625D
102
}
330
625D
100
AcDbScale
 70
     0
300
1:10
140
1.0
141
10.0
290
     0
  0
SCALE
  5
6264
102
{ACAD_REACTORS
330
625D
102
}
330
625D
100
AcDbScale
 70
     0
300
1:16
140
1.0
141
16.0
290
     0
  0
SCALE
  5
6265
102
{ACAD_REACTORS
330
625D
102
}
330
625D
100
AcDbScale
 70
     0
300
1:20
140
1.0
141
20.0
290
     0
  0
SCALE
  5
6266
102
{ACAD_REACTORS
330
625D
102
}
330
625D
100
AcDbScale
 70
     0
300
1:30
140
1.0
141
30.0
290
     0
  0
SCALE
  5
6267
102
{ACAD_REACTORS
330
625D
102
}
330
625D
100
AcDbScale
 70
     0
300
1:40
140
1.0
141
40.0
290
     0
  0
SCALE
  5
6268
102
{ACAD_REACTORS
330
625D
102
}
330
625D
100
AcDbScale
 70
     0
300
1:50
140
1.0
141
50.0
290
     0
  0
SCALE
  5
6269
102
{ACAD_REACTORS
330
625D
102
}
330
625D
100
AcDbScale
 70
     0
300
1:100
140
1.0
141
100.0
290
     0
  0
SCALE
  5
626A
102
{ACAD_REACTORS
330
625D
102
}
330
625D
100
AcDbScale
 70
     0
300
2:1
140
2.0
141
1.0
290
     0
  0
SCALE
  5
626B
102
{ACAD_REACTORS
330
625D
102
}
330
625D
100
AcDbScale
 70
     0
300
4:1
140
4.0
141
1.0
290
     0
  0
SCALE
  5
626C
102
{ACAD_REACTORS
330
625D
102
}
330
625D
100
AcDbScale
 70
     0
300
8:1
140
8.0
141
1.0
290
     0
  0
SCALE
  5
626D
102
{ACAD_REACTORS
330
625D
102
}
330
625D
100
AcDbScale
 70
     0
300
10:1
140
10.0
141
1.0
290
     0
  0
SCALE
  5
626E
102
{ACAD_REACTORS
330
625D
102
}
330
625D
100
AcDbScale
 70
     0
300
100:1
140
100.0
141
1.0
290
     0
  0
ACDBSECTIONVIEWSTYLE
  5
B445
102
{ACAD_XDICTIONARY
360
10022
102
}
102
{ACAD_REACTORS
330
6271
102
}
330
6271
100
AcDbModelDocViewStyle
 70
     0
  3
Imperial24
290
     0
100
AcDbSectionViewStyle
 70
     0
 71
     0
 90
       78
 71
     1
340
11
 40
0.24
340
0
340
0
 40
0.24
300
I, O, Q, S, X, Z
 40
0.48
 90
        3
 40
0.18
 90
        1
 71
     2
340
16
 90
       25
340
16
 90
       50
 40
0.24
 40
0.0
 40
0.24
 71
     3
340
11
 40
0.24
 90
        1
 40
0.75
 90
        1
300
%<\AcVar ViewType \f "%tc1">% %<\AcVar ViewSectionStartId>%-%<\AcVar ViewSectionEndId>%\PSCALE %<\AcVar ViewScale \f "%sn">%
 71
     4
300
ANSI31
 40
1.0
 90
        0
290
     0
290
     0
 90
        6
 40
0.0
 40
1.570796326794896
 40
0.2617993877991494
 40
1.308996938995747
 40
-0.2617993877991494
 40
1.832595714594044
  0
ACDBSECTIONVIEWSTYLE
  5
6272
102
{ACAD_XDICTIONARY
360
1001E
102
}
102
{ACAD_REACTORS
330
6271
102
}
330
6271
100
AcDbModelDocViewStyle
 70
     0
  3
Metric50
290
     0
100
AcDbSectionViewStyle
 70
     0
 71
     0
 90
      102
 71
     1
340
11
 40
5.0
340
0
340
0
 40
5.0
300
I, O, Q, S, X, Z
 40
10.0
 90
        0
 40
2.5
 90
        0
 71
     2
340
16
 90
       25
340
16
 90
       50
 40
5.0
 40
2.5
 40
5.0
 71
     3
340
11
 40
5.0
 90
        0
 40
15.0
 90
        1
300
%<\AcVar ViewSectionStartId>%-%<\AcVar ViewSectionEndId>% (%<\AcVar ViewScale \f "%sn">%)
 71
     4
300
ANSI31
 40
1.0
 90
        0
290
     0
290
     0
 90
        6
 40
0.0
 40
1.570796326794896
 40
0.2617993877991494
 40
1.308996938995747
 40
-0.2617993877991494
 40
1.832595714594044
  0
TABLESTYLE
  5
A2
102
{ACAD_XDICTIONARY
360
FCFE
102
}
102
{ACAD_REACTORS
330
A1
102
}
330
A1
100
AcDbTableStyle
  3
Standard
 70
     0
 71
     0
 40
1.5
 41
1.5
280
     0
281
     0
  7
Standard
140
4.5
170
     2
 62
     0
 63
     7
283
     0
274
    -2
284
     1
 64
     0
275
    -2
285
     1
 65
     0
276
    -2
286
     1
 66
     0
277
    -2
287
     1
 67
     0
278
    -2
288
     1
 68
     0
279
    -2
289
     1
 69
     0
  7
Standard
140
6.0
170
     5
 62
     0
 63
     7
283
     0
274
    -2
284
     1
 64
     0
275
    -2
285
     1
 65
     0
276
    -2
286
     1
 66
     0
277
    -2
287
     1
 67
     0
278
    -2
288
     1
 68
     0
279
    -2
289
     1
 69
     0
  7
Standard
140
4.5
170
     5
 62
     0
 63
     7
283
     0
274
    -2
284
     1
 64
     0
275
    -2
285
     1
 65
     0
276
    -2
286
     1
 66
     0
277
    -2
287
     1
 67
     0
278
    -2
288
     1
 68
     0
279
    -2
289
     1
 69
     0
  0
VISUALSTYLE
  5
624A
102
{ACAD_XDICTIONARY
360
10230
102
}
102
{ACAD_REACTORS
330
6244
102
}
330
6244
100
AcDbVisualStyle
  2

 70
     4
 71
     0
 72
     2
 73
     0
 90
        0
 40
-0.6
 41
-30.0
 62
     5
 63
     7
 74
     1
 91
        4
 64
     7
 65
   257
 75
     1
175
     1
 42
1.0
 92
        0
 66
   257
 43
1.0
 76
     1
 77
     6
 78
     2
 67
     7
 79
     5
170
     0
171
     0
290
     0
174
     0
 93
        1
 44
0.0
173
     0
291
     0
 45
0.0
1001
ACAD
1000
AcDbSavedByObjectVersion
1070
     0
  0
VISUALSTYLE
  5
6249
102
{ACAD_XDICTIONARY
360
1022E
102
}
102
{ACAD_REACTORS
330
6244
102
}
330
6244
100
AcDbVisualStyle
  2

 70
     7
 71
     1
 72
     0
 73
     1
 90
        0
 40
-0.6
 41
-30.0
 62
     5
 63
     7
 74
     0
 91
        4
 64
     7
 65
   257
 75
     1
175
     1
 42
1.0
 92
        8
 66
     7
 43
1.0
 76
     1
 77
     6
 78
     2
 67
     7
 79
     5
170
     0
171
     0
290
     0
174
     0
 93
        1
 44
0.0
173
     0
291
     1
 45
0.0
1001
ACAD
1000
AcDbSavedByObjectVersion
1070
     0
  0
VISUALSTYLE
  5
6250
102
{ACAD_XDICTIONARY
360
1023C
102
}
102
{ACAD_REACTORS
330
6244
102
}
330
6244
100
AcDbVisualStyle
  2

 70
    12
 71
     2
 72
     2
 73
     0
 90
        0
 40
-0.6
 41
-30.0
 62
     5
 63
     7
 74
     1
 91
        4
 64
     7
 65
   257
 75
     1
175
     1
 42
1.0
 92
        8
 66
     7
 43
1.0
 76
     1
 77
     6
 78
     2
 67
     7
 79
     5
170
     0
171
     0
290
     0
174
     0
 93
        1
 44
50.0
173
     0
291
     1
 45
0.0
1001
ACAD
1000
AcDbSavedByObjectVersion
1070
     0
  0
VISUALSTYLE
  5
6254
102
{ACAD_XDICTIONARY
360
10244
102
}
102
{ACAD_REACTORS
330
6244
102
}
330
6244
100
AcDbVisualStyle
  2

 70
    16
 71
     2
 72
     2
 73
     3
 90
        0
 40
-0.6
 41
-30.0
 62
     5
 63
     8
 74
     1
 91
        4
 64
     7
 65
   257
 75
     1
175
     1
 42
1.0
 92
        8
 66
     8
 43
1.0
 76
     1
 77
     6
 78
     2
 67
     7
 79
     5
170
     0
171
     0
290
     0
174
     0
 93
        1
 44
0.0
173
     0
291
     1
 45
0.0
1001
ACAD
1000
AcDbSavedByObjectVersion
1070
     0
  0
VISUALSTYLE
  5
624D
102
{ACAD_XDICTIONARY
360
10236
102
}
102
{ACAD_REACTORS
330
6244
102
}
330
6244
100
AcDbVisualStyle
  2

 70
     9
 71
     3
 72
     2
 73
     0
 90
        0
 40
-0.6
 41
-30.0
 62
     5
 63
     7
 74
     2
 91
        2
 64
     7
 65
   257
 75
     1
175
     1
 42
179.0
 92
        8
 66
     7
 43
1.0
 76
     1
 77
     6
 78
     2
 67
     7
 79
     3
170
     0
171
     0
290
     0
174
     0
 93
        1
 44
0.0
173
     0
291
     0
 45
0.0
1001
ACAD
1000
AcDbSavedByObjectVersion
1070
     0
  0
VISUALSTYLE
  5
624F
102
{ACAD_XDICTIONARY
360
1023A
102
}
102
{ACAD_REACTORS
330
6244
102
}
330
6244
100
AcDbVisualStyle
  2

 70
    11
 71
     2
 72
     2
 73
     0
 90
        0
 40
-0.6
 41
-30.0
 62
     5
 63
     7
 74
     1
 91
        4
 64
     7
 65
   257
 75
     1
175
     1
 42
1.0
 92
        8
 66
     7
 43
1.0
 76
     1
 77
     6
 78
     2
 67
     7
 79
     5
170
     0
171
     0
290
     0
174
     0
 93
        1
 44
-50.0
173
     0
291
     1
 45
0.0
1001
ACAD
1000
AcDbSavedByObjectVersion
1070
     0
  0
VISUALSTYLE
  5
625C
102
{ACAD_XDICTIONARY
360
10254
102
}
102
{ACAD_REACTORS
330
6244
102
}
330
6244
100
AcDbVisualStyle
  2

 70
    22
 71
     2
 72
     2
 73
     0
 90
        0
 40
-0.6
 41
-30.0
 62
     5
 63
     7
 74
     1
 91
        4
 64
     7
 65
   257
 75
     1
175
     1
 42
1.0
 92
        8
 66
     7
 43
1.0
 76
     1
 77
     6
 78
     2
 67
     7
 79
     5
170
     0
171
     0
290
     0
174
     0
 93
        1
 44
0.0
173
     0
291
     1
 45
0.0
1001
ACAD
1000
AcDbSavedByObjectVersion
1070
     0
  0
VISUALSTYLE
  5
6253
102
{ACAD_XDICTIONARY
360
10242
102
}
102
{ACAD_REACTORS
330
6244
102
}
330
6244
100
AcDbVisualStyle
  2

 70
    15
 71
     2
 72
     2
 73
     0
 90
        0
 40
-0.6
 41
-30.0
 62
     5
 63
     7
 74
     1
 91
        4
 64
     7
 65
   257
 75
     1
175
     1
 42
1.0
 92
        8
 66
     7
 43
1.0
 76
     1
 77
     6
 78
     2
 67
     7
 79
     5
170
     0
171
     0
290
     0
174
     0
 93
        1
 44
0.0
173
     0
291
     1
 45
0.0
1001
ACAD
1000
AcDbSavedByObjectVersion
1070
     0
  0
VISUALSTYLE
  5
6245
102
{ACAD_XDICTIONARY
360
10226
102
}
102
{ACAD_REACTORS
330
6244
102
}
330
6244
100
AcDbVisualStyle
  2

 70
     0
 71
     2
 72
     1
 73
     1
 90
        2
 40
-0.6
 41
30.0
 62
     5
 63
     7
 74
     0
 91
        0
 64
     7
 65
   257
 75
     1
175
     1
 42
1.0
 92
        8
 66
     7
 43
1.0
 76
     1
 77
     6
 78
     2
 67
     7
 79
     5
170
     0
171
     0
290
     0
174
     0
 93
       13
 44
0.0
173
     0
291
     1
 45
0.0
1001
ACAD
1000
AcDbSavedByObjectVersion
1070
     0
  0
VISUALSTYLE
  5
6246
102
{ACAD_XDICTIONARY
360
10228
102
}
102
{ACAD_REACTORS
330
6244
102
}
330
6244
100
AcDbVisualStyle
  2

 70
     1
 71
     2
 72
     1
 73
     1
 90
        2
 40
-0.6
 41
30.0
 62
     5
 63
     7
 74
     1
 91
        0
 64
     7
 65
   257
 75
     1
175
     1
 42
1.0
 92
        0
 66
   257
 43
1.0
 76
     1
 77
     6
 78
     2
 67
     7
 79
     5
170
     0
171
     0
290
     0
174
     0
 93
       13
 44
0.0
173
     0
291
     1
 45
0.0
1001
ACAD
1000
AcDbSavedByObjectVersion
1070
     0
  0
VISUALSTYLE
  5
6247
102
{ACAD_XDICTIONARY
360
1022A
102
}
102
{ACAD_REACTORS
330
6244
102
}
330
6244
100
AcDbVisualStyle
  2

 70
     2
 71
     2
 72
     2
 73
     1
 90
        2
 40
-0.6
 41
30.0
 62
     5
 63
     7
 74
     0
 91
        0
 64
     7
 65
   257
 75
     1
175
     1
 42
1.0
 92
        0
 66
     7
 43
1.0
 76
     1
 77
     6
 78
     2
 67
     7
 79
     5
170
     0
171
     0
290
     0
174
     0
 93
       13
 44
0.0
173
     0
291
     1
 45
0.0
1001
ACAD
1000
AcDbSavedByObjectVersion
1070
     0
  0
VISUALSTYLE
  5
6248
102
{ACAD_XDICTIONARY
360
1022C
102
}
102
{ACAD_REACTORS
330
6244
102
}
330
6244
100
AcDbVisualStyle
  2

 70
     3
 71
     2
 72
     2
 73
     1
 90
        2
 40
-0.6
 41
30.0
 62
     5
 63
     7
 74
     1
 91
        0
 64
     7
 65
   257
 75
     1
175
     1
 42
1.0
 92
        0
 66
   257
 43
1.0
 76
     1
 77
     6
 78
     2
 67
     7
 79
     5
170
     0
171
     0
290
     0
174
     0
 93
       13
 44
0.0
173
     0
291
     1
 45
0.0
1001
ACAD
1000
AcDbSavedByObjectVersion
1070
     0
  0
VISUALSTYLE
  5
624C
102
{ACAD_XDICTIONARY
360
10234
102
}
102
{ACAD_REACTORS
330
6244
102
}
330
6244
100
AcDbVisualStyle
  2

 70
     6
 71
     1
 72
     2
 73
     2
 90
        0
 40
-0.6
 41
-30.0
 62
     5
 63
     7
 74
     2
 91
        2
 64
     7
 65
   257
 75
     2
175
     1
 42
40.0
 92
        0
 66
   257
 43
1.0
 76
     1
 77
     6
 78
     2
 67
     7
 79
     3
170
     0
171
     0
290
     0
174
     0
 93
        1
 44
0.0
173
     0
291
     0
 45
0.0
1001
ACAD
1000
AcDbSavedByObjectVersion
1070
     0
  0
VISUALSTYLE
  5
625A
102
{ACAD_XDICTIONARY
360
10250
102
}
102
{ACAD_REACTORS
330
6244
102
}
330
6244
100
AcDbVisualStyle
  2

 70
    20
 71
     2
 72
     2
 73
     0
 90
        0
 40
-0.6
 41
-30.0
 62
     5
 63
     7
 74
     1
 91
        4
 64
     7
 65
   257
 75
     1
175
     1
 42
1.0
 92
       10
 66
     7
 43
1.0
 76
     1
 77
     6
 78
     2
 67
     7
 79
     5
170
     0
171
     0
290
     0
174
     0
 93
        1
 44
0.0
173
     0
291
     1
 45
0.0
1001
ACAD
1000
AcDbSavedByObjectVersion
1070
     0
  0
VISUALSTYLE
  5
6252
102
{ACAD_XDICTIONARY
360
10240
102
}
102
{ACAD_REACTORS
330
6244
102
}
330
6244
100
AcDbVisualStyle
  2

 70
    14
 71
     2
 72
     2
 73
     0
 90
        0
 40
-0.6
 41
-30.0
 62
     5
 63
     7
 74
     1
 91
        4
 64
     7
 65
   257
 75
     7
175
     7
 42
1.0
 92
        8
 66
     7
 43
1.0
 76
     1
 77
     6
 78
     2
 67
     7
 79
     5
170
     0
171
     0
290
     0
174
     0
 93
        1
 44
0.0
173
     0
291
     1
 45
0.0
1001
ACAD
1000
AcDbSavedByObjectVersion
1070
     0
  0
VISUALSTYLE
  5
625B
102
{ACAD_XDICTIONARY
360
10252
102
}
102
{ACAD_REACTORS
330
6244
102
}
330
6244
100
AcDbVisualStyle
  2

 70
    21
 71
     2
 72
     2
 73
     0
 90
        0
 40
-0.6
 41
-30.0
 62
     5
 63
     7
 74
     1
 91
        4
 64
     7
 65
   257
 75
     1
175
     1
 42
1.0
 92
        9
 66
     7
 43
1.0
 76
     1
 77
     6
 78
     2
 67
     7
 79
     5
170
     0
171
     0
290
     0
174
     0
 93
        1
 44
0.0
173
     0
291
     1
 45
0.0
1001
ACAD
1000
AcDbSavedByObjectVersion
1070
     0
  0
VISUALSTYLE
  5
624E
102
{ACAD_XDICTIONARY
360
10238
102
}
102
{ACAD_REACTORS
330
6244
102
}
330
6244
100
AcDbVisualStyle
  2

 70
     8
 71
     2
 72
     3
 73
     0
 90
        2
 40
-0.6
 41
30.0
 62
     5
 63
     7
 74
     0
 91
        0
 64
     7
 65
   257
 75
     1
175
     1
 42
1.0
 92
        8
 66
   257
 43
1.0
 76
     1
 77
     6
 78
     2
 67
     7
 79
     3
170
     0
171
     0
290
     0
174
     0
 93
       13
 44
0.0
173
     0
291
     0
 45
0.0
1001
ACAD
1000
AcDbSavedByObjectVersion
1070
     0
  0
VISUALSTYLE
  5
6259
102
{ACAD_XDICTIONARY
360
1024E
102
}
102
{ACAD_REACTORS
330
6244
102
}
330
6244
100
AcDbVisualStyle
  2

 70
    27
 71
     2
 72
     2
 73
     1
 90
        2
 40
-0.6
 41
30.0
 62
     5
 63
     7
 74
     0
 91
        4
 64
     7
 65
   257
 75
     1
175
     1
 42
1.0
 92
        8
 66
   257
 43
1.0
 76
     1
 77
     6
 78
     2
 67
     8
 79
     3
170
     0
171
     0
290
     0
174
     0
 93
        5
 44
0.0
173
     0
291
     0
 45
0.0
1001
ACAD
1000
AcDbSavedByObjectVersion
1070
     0
  0
VISUALSTYLE
  5
6258
102
{ACAD_XDICTIONARY
360
1024C
102
}
102
{ACAD_REACTORS
330
6244
102
}
330
6244
100
AcDbVisualStyle
  2

 70
    26
 71
     2
 72
     2
 73
     1
 90
        2
 40
-0.6
 41
30.0
 62
     5
 63
     7
 74
     1
 91
       10
 64
     7
 65
   257
 75
     2
175
     1
 42
1.0
 92
        8
 66
   257
 43
1.0
 76
     1
 77
     6
 78
     2
 67
     7
 79
     3
170
     0
171
     0
290
     0
174
     0
 93
        5
 44
0.0
173
     0
291
     0
 45
0.0
1001
ACAD
1000
AcDbSavedByObjectVersion
1070
     0
  0
VISUALSTYLE
  5
6255
102
{ACAD_XDICTIONARY
360
10246
102
}
102
{ACAD_REACTORS
330
6244
102
}
330
6244
100
AcDbVisualStyle
  2

 70
    23
 71
     2
 72
     2
 73
     3
 90
        0
 40
-0.6
 41
-30.0
 62
     5
 63
     7
 74
     2
 91
        2
 64
     7
 65
     7
 75
     1
175
     1
 42
40.0
 92
        8
 66
     7
 43
1.0
 76
     1
 77
     6
 78
     2
 67
     7
 79
     3
170
     0
171
     0
290
     0
174
     0
 93
        1
 44
0.0
173
     0
291
     0
 45
0.0
1001
ACAD
1000
AcDbSavedByObjectVersion
1070
     0
  0
VISUALSTYLE
  5
6256
102
{ACAD_XDICTIONARY
360
10248
102
}
102
{ACAD_REACTORS
330
6244
102
}
330
6244
100
AcDbVisualStyle
  2

 70
    24
 71
     1
 72
     2
 73
     2
 90
        0
 40
-0.6
 41
-30.0
 62
     5
 63
     7
 74
     2
 91
        2
 64
     7
 65
     7
 75
     1
175
     1
 42
40.0
 92
       11
 66
     7
 43
1.0
 76
     1
 77
     6
 78
     2
 67
     7
 79
     6
170
     0
171
     0
290
     0
174
     0
 93
        1
 44
0.0
173
     0
291
     0
 45
0.0
1001
ACAD
1000
AcDbSavedByObjectVersion
1070
     0
  0
VISUALSTYLE
  5
6251
102
{ACAD_XDICTIONARY
360
1023E
102
}
102
{ACAD_REACTORS
330
6244
102
}
330
6244
100
AcDbVisualStyle
  2

 70
    13
 71
     2
 72
     2
 73
     0
 90
        0
 40
-0.6
 41
-30.0
 62
     5
 63
     7
 74
     1
 91
        4
 64
     7
 65
   257
 75
     1
175
     1
 42
1.0
 92
       12
 66
     7
 43
1.0
 76
     1
 77
     6
 78
     2
 67
     7
 79
     5
170
     0
171
     0
290
     0
174
     0
 93
        1
 44
0.0
173
     0
291
     1
 45
0.0
1001
ACAD
1000
AcDbSavedByObjectVersion
1070
     0
  0
VISUALSTYLE
  5
624B
102
{ACAD_XDICTIONARY
360
10232
102
}
102
{ACAD_REACTORS
330
6244
102
}
330
6244
100
AcDbVisualStyle
  2

 70
     5
 71
     0
 72
     2
 73
     0
 90
        0
 40
-0.6
 41
-30.0
 62
     5
 63
     7
 74
     1
 91
        4
 64
     7
 65
   257
 75
     1
175
     1
 42
1.0
 92
        0
 66
   257
 43
1.0
 76
     1
 77
     6
 78
     2
 67
     7
 79
     3
170
     0
171
     0
290
     0
174
     0
 93
        1
 44
0.0
173
     0
291
     0
 45
0.0
1001
ACAD
1000
AcDbSavedByObjectVersion
1070
     0
  0
VISUALSTYLE
  5
6257
102
{ACAD_XDICTIONARY
360
1024A
102
}
102
{ACAD_REACTORS
330
6244
102
}
330
6244
100
AcDbVisualStyle
  2

 70
    25
 71
     2
 72
     2
 73
     1
 90
        1
 40
0.5
 41
-30.0
 62
     5
 63
     7
 74
     1
 91
        0
 64
     7
 65
   257
 75
     1
175
     1
 42
1.0
 92
        8
 66
     7
 43
1.0
 76
     1
 77
     6
 78
     2
 67
     7
 79
     3
170
     0
171
     0
290
     0
174
     0
 93
       13
 44
0.0
173
     0
291
     0
 45
0.0
1001
ACAD
1000
AcDbSavedByObjectVersion
1070
     0
  0
DICTIONARYVAR
  5
EDB4
102
{ACAD_REACTORS
330
5E
102
}
330
5E
100
DictionaryVariables
280
     0
  1
1:1
  0
DICTIONARYVAR
  5
EDB1
102
{ACAD_REACTORS
330
5E
102
}
330
5E
100
DictionaryVariables
280
     0
  1
STANDARD
  0
DICTIONARYVAR
  5
B8
102
{ACAD_REACTORS
330
5E
102
}
330
5E
100
DictionaryVariables
280
     0
  1
STANDARD
  0
DICTIONARYVAR
  5
EDB2
102
{ACAD_REACTORS
330
5E
102
}
330
5E
100
DictionaryVariables
280
     0
  1
Metric50
  0
DICTIONARYVAR
  5
EDB3
102
{ACAD_REACTORS
330
5E
102
}
330
5E
100
DictionaryVariables
280
     0
  1
Metric50
  0
DICTIONARYVAR
  5
5F
102
{ACAD_REACTORS
330
5E
102
}
330
5E
100
DictionaryVariables
280
     0
  1
2
  0
DICTIONARYVAR
  5
63
102
{ACAD_REACTORS
330
5E
102
}
330
5E
100
DictionaryVariables
280
     0
  1
1
  0
DICTIONARYVAR
  5
EDB6
102
{ACAD_REACTORS
330
5E
102
}
330
5E
100
DictionaryVariables
280
     0
  1
0
  0
DICTIONARYVAR
  5
EE18
102
{ACAD_REACTORS
330
5E
102
}
330
5E
100
DictionaryVariables
280
     0
  1
1
  0
DICTIONARYVAR
  5
EE19
102
{ACAD_REACTORS
330
5E
102
}
330
5E
100
DictionaryVariables
280
     0
  1
15
  0
DICTIONARYVAR
  5
EE17
102
{ACAD_REACTORS
330
5E
102
}
330
5E
100
DictionaryVariables
280
     0
  1
0
  0
DICTIONARYVAR
  5
EE16
102
{ACAD_REACTORS
330
5E
102
}
330
5E
100
DictionaryVariables
280
     0
  1
0
  0
DICTIONARYVAR
  5
A3D
102
{ACAD_REACTORS
330
5E
102
}
330
5E
100
DictionaryVariables
280
     0
  1

  0
DICTIONARYVAR
  5
EDB5
102
{ACAD_REACTORS
330
5E
102
}
330
5E
100
DictionaryVariables
280
     0
  1
127
  0
DICTIONARYVAR
  5
FFD3
102
{ACAD_REACTORS
330
5E
102
}
330
5E
100
DictionaryVariables
280
     0
  1
2
  0
DICTIONARY
  5
10216
102
{ACAD_REACTORS
330
10214
102
}
330
10214
100
AcDbDictionary
281
     1
  0
DICTIONARY
  5
10215
102
{ACAD_REACTORS
330
10214
102
}
330
10214
100
AcDbDictionary
281
     1
  3
2129883896
350
1020F
  3
2129883904
350
10210
  3
2129883912
350
10211
  3
2129883920
350
10212
  3
2129883928
350
10213
  0
DICTIONARY
  5
10024
330
B446
100
AcDbDictionary
280
     1
281
     1
  3
ACAD_XREC_ROUNDTRIP
360
10259
  0
DICTIONARY
  5
10020
330
6274
100
AcDbDictionary
280
     1
281
     1
  3
ACAD_XREC_ROUNDTRIP
360
10257
  0
DICTIONARY
  5
10217
330
22
100
AcDbDictionary
280
     1
281
     1
  3
ACAD_XREC_ROUNDTRIP
360
10218
  0
DICTIONARY
  5
10219
330
51
100
AcDbDictionary
280
     1
281
     1
  3
ACAD_XREC_ROUNDTRIP
360
1021A
  0
DICTIONARY
  5
1021B
330
56
100
AcDbDictionary
280
     1
281
     1
  3
ACAD_XREC_ROUNDTRIP
360
1021C
  0
DICTIONARY
  5
6235
330
6234
100
AcDbDictionary
280
     1
281
     1
  3
ACAD_XREC_ROUNDTRIP
360
FD18
  3
BUMPTILE
360
6237
  3
DIFFUSETILE
360
6236
  3
OPACITYTILE
360
623A
  3
REFLECTIONTILE
360
6239
  3
REFRACTIONTILE
360
623B
  3
SPECULARTILE
360
6238
  0
DICTIONARY
  5
622D
330
622C
100
AcDbDictionary
280
     1
281
     1
  3
ACAD_XREC_ROUNDTRIP
360
FD17
  3
BUMPTILE
360
622F
  3
DIFFUSETILE
360
622E
  3
OPACITYTILE
360
6232
  3
REFLECTIONTILE
360
6231
  3
REFRACTIONTILE
360
6233
  3
SPECULARTILE
360
6230
  0
DICTIONARY
  5
623D
330
623C
100
AcDbDictionary
280
     1
281
     1
  3
ACAD_XREC_ROUNDTRIP
360
FD19
  3
BUMPTILE
360
623F
  3
DIFFUSETILE
360
623E
  3
OPACITYTILE
360
6242
  3
REFLECTIONTILE
360
6241
  3
REFRACTIONTILE
360
6243
  3
SPECULARTILE
360
6240
  0
DICTIONARY
  5
10022
330
B445
100
AcDbDictionary
280
     1
281
     1
  3
ACAD_XREC_ROUNDTRIP
360
10258
  0
DICTIONARY
  5
1001E
330
6272
100
AcDbDictionary
280
     1
281
     1
  3
ACAD_XREC_ROUNDTRIP
360
10256
  0
DICTIONARY
  5
FCFE
330
A2
100
AcDbDictionary
280
     1
281
     1
  3
ACAD_ROUNDTRIP_2008_TABLESTYLE_CELLSTYLEMAP
360
1020C
  3
ACAD_XREC_ROUNDTRIP
360
10225
  0
DICTIONARY
  5
10230
330
624A
100
AcDbDictionary
280
     1
281
     1
  3
ACAD_XREC_ROUNDTRIP
360
10231
  0
DICTIONARY
  5
1022E
330
6249
100
AcDbDictionary
280
     1
281
     1
  3
ACAD_XREC_ROUNDTRIP
360
1022F
  0
DICTIONARY
  5
1023C
330
6250
100
AcDbDictionary
280
     1
281
     1
  3
ACAD_XREC_ROUNDTRIP
360
1023D
  0
DICTIONARY
  5
10244
330
6254
100
AcDbDictionary
280
     1
281
     1
  3
ACAD_XREC_ROUNDTRIP
360
10245
  0
DICTIONARY
  5
10236
330
624D
100
AcDbDictionary
280
     1
281
     1
  3
ACAD_XREC_ROUNDTRIP
360
10237
  0
DICTIONARY
  5
1023A
330
624F
100
AcDbDictionary
280
     1
281
     1
  3
ACAD_XREC_ROUNDTRIP
360
1023B
  0
DICTIONARY
  5
10254
330
625C
100
AcDbDictionary
280
     1
281
     1
  3
ACAD_XREC_ROUNDTRIP
360
10255
  0
DICTIONARY
  5
10242
330
6253
100
AcDbDictionary
280
     1
281
     1
  3
ACAD_XREC_ROUNDTRIP
360
10243
  0
DICTIONARY
  5
10226
330
6245
100
AcDbDictionary
280
     1
281
     1
  3
ACAD_XREC_ROUNDTRIP
360
10227
  0
DICTIONARY
  5
10228
330
6246
100
AcDbDictionary
280
     1
281
     1
  3
ACAD_XREC_ROUNDTRIP
360
10229
  0
DICTIONARY
  5
1022A
330
6247
100
AcDbDictionary
280
     1
281
     1
  3
ACAD_XREC_ROUNDTRIP
360
1022B
  0
DICTIONARY
  5
1022C
330
6248
100
AcDbDictionary
280
     1
281
     1
  3
ACAD_XREC_ROUNDTRIP
360
1022D
  0
DICTIONARY
  5
10234
330
624C
100
AcDbDictionary
280
     1
281
     1
  3
ACAD_XREC_ROUNDTRIP
360
10235
  0
DICTIONARY
  5
10250
330
625A
100
AcDbDictionary
280
     1
281
     1
  3
ACAD_XREC_ROUNDTRIP
360
10251
  0
DICTIONARY
  5
10240
330
6252
100
AcDbDictionary
280
     1
281
     1
  3
ACAD_XREC_ROUNDTRIP
360
10241
  0
DICTIONARY
  5
10252
330
625B
100
AcDbDictionary
280
     1
281
     1
  3
ACAD_XREC_ROUNDTRIP
360
10253
  0
DICTIONARY
  5
10238
330
624E
100
AcDbDictionary
280
     1
281
     1
  3
ACAD_XREC_ROUNDTRIP
360
10239
  0
DICTIONARY
  5
1024E
330
6259
100
AcDbDictionary
280
     1
281
     1
  3
ACAD_XREC_ROUNDTRIP
360
1024F
  0
DICTIONARY
  5
1024C
330
6258
100
AcDbDictionary
280
     1
281
     1
  3
ACAD_XREC_ROUNDTRIP
360
1024D
  0
DICTIONARY
  5
10246
330
6255
100
AcDbDictionary
280
     1
281
     1
  3
ACAD_XREC_ROUNDTRIP
360
10247
  0
DICTIONARY
  5
10248
330
6256
100
AcDbDictionary
280
     1
281
     1
  3
ACAD_XREC_ROUNDTRIP
360
10249
  0
DICTIONARY
  5
1023E
330
6251
100
AcDbDictionary
280
     1
281
     1
  3
ACAD_XREC_ROUNDTRIP
360
1023F
  0
DICTIONARY
  5
10232
330
624B
100
AcDbDictionary
280
     1
281
     1
  3
ACAD_XREC_ROUNDTRIP
360
10233
  0
DICTIONARY
  5
1024A
330
6257
100
AcDbDictionary
280
     1
281
     1
  3
ACAD_XREC_ROUNDTRIP
360
1024B
  0
XRECORD
  5
1020F
102
{ACAD_REACTORS
330
10215
102
}
330
10215
100
AcDbXrecord
280
     1
  1
AcDb_Thumbnail_Schema
102
{ATTRRECORD
341
10210
  2
AcDbDs::TreatedAsObjectData
280
     1
291
     1
102
ATTRRECORD}
102
{ATTRRECORD
341
10211
  2
AcDbDs::Legacy
280
     1
291
     1
102
ATTRRECORD}
  2
AcDbDs::ID
280
    10
 91
        8
102
{ATTRRECORD
341
10212
  2
AcDs:Indexable
280
     1
291
     1
102
ATTRRECORD}
102
{ATTRRECORD
341
10213
  2
AcDbDs::HandleAttribute
280
     7
282
     1
102
ATTRRECORD}
  2
Thumbnail_Data
280
    15
 91
        0
  0
XRECORD
  5
10210
102
{ACAD_REACTORS
330
10215
102
}
330
10215
100
AcDbXrecord
280
     1
  1
AcDbDs::TreatedAsObjectDataSchema
  2
AcDbDs::TreatedAsObjectData
280
     1
 91
        0
  0
XRECORD
  5
10211
102
{ACAD_REACTORS
330
10215
102
}
330
10215
100
AcDbXrecord
280
     1
  1
AcDbDs::LegacySchema
  2
AcDbDs::Legacy
280
     1
 91
        0
  0
XRECORD
  5
10212
102
{ACAD_REACTORS
330
10215
102
}
330
10215
100
AcDbXrecord
280
     1
  1
AcDbDs::IndexedPropertySchema
  2
AcDs:Indexable
280
     1
 91
        0
  0
XRECORD
  5
10213
102
{ACAD_REACTORS
330
10215
102
}
330
10215
100
AcDbXrecord
280
     1
  1
AcDbDs::HandleAttributeSchema
  2
AcDbDs::HandleAttribute
280
     7
 91
        1
284
     1
  0
XRECORD
  5
10259
102
{ACAD_REACTORS
330
10024
102
}
330
10024
100
AcDbXrecord
280
     1
102
DISPLAYNAME
  1
Imperial24
102
FLAGS
 90
        0
  0
XRECORD
  5
10257
102
{ACAD_REACTORS
330
10020
102
}
330
10020
100
AcDbXrecord
280
     1
102
DISPLAYNAME
  1
Metric50
102
FLAGS
 90
        0
  0
XRECORD
  5
10218
102
{ACAD_REACTORS
330
10217
102
}
330
10217
100
AcDbXrecord
280
     1
102
SHADEPLOT
 70
     0
102
SHADEPLOTRESLEVEL
 70
     2
102
SHADEPLOTCUSTOMDPI
 70
   300
  0
XRECORD
  5
1021A
102
{ACAD_REACTORS
330
10219
102
}
330
10219
100
AcDbXrecord
280
     1
102
SHADEPLOT
 70
     0
102
SHADEPLOTRESLEVEL
 70
     2
102
SHADEPLOTCUSTOMDPI
 70
   300
  0
XRECORD
  5
1021C
102
{ACAD_REACTORS
330
1021B
102
}
330
1021B
100
AcDbXrecord
280
     1
102
SHADEPLOT
 70
     0
102
SHADEPLOTRESLEVEL
 70
     2
102
SHADEPLOTCUSTOMDPI
 70
   300
  0
XRECORD
  5
FD18
102
{ACAD_REACTORS
330
6235
102
}
330
6235
100
AcDbXrecord
280
     1
102
MATERIAL
148
0.0
149
0.0
149
0.0
 93
        0
 94
      127
282
     0
 72
     0
 77
     0
171
     0
175
     0
179
     0
273
     0
  0
XRECORD
  5
6237
102
{ACAD_REACTORS
330
6235
102
}
330
6235
100
AcDbXrecord
280
     1
270
     1
271
     1
  0
XRECORD
  5
6236
102
{ACAD_REACTORS
330
6235
102
}
330
6235
100
AcDbXrecord
280
     1
270
     1
271
     1
  0
XRECORD
  5
623A
102
{ACAD_REACTORS
330
6235
102
}
330
6235
100
AcDbXrecord
280
     1
270
     1
271
     1
  0
XRECORD
  5
6239
102
{ACAD_REACTORS
330
6235
102
}
330
6235
100
AcDbXrecord
280
     1
270
     1
271
     1
  0
XRECORD
  5
623B
102
{ACAD_REACTORS
330
6235
102
}
330
6235
100
AcDbXrecord
280
     1
270
     1
271
     1
  0
XRECORD
  5
6238
102
{ACAD_REACTORS
330
6235
102
}
330
6235
100
AcDbXrecord
280
     1
270
     1
271
     1
  0
XRECORD
  5
FD17
102
{ACAD_REACTORS
330
622D
102
}
330
622D
100
AcDbXrecord
280
     1
102
MATERIAL
148
0.0
149
0.0
149
0.0
 93
        0
 94
      127
282
     0
 72
     0
 77
     0
171
     0
175
     0
179
     0
273
     0
  0
XRECORD
  5
622F
102
{ACAD_REACTORS
330
622D
102
}
330
622D
100
AcDbXrecord
280
     1
270
     1
271
     1
  0
XRECORD
  5
622E
102
{ACAD_REACTORS
330
622D
102
}
330
622D
100
AcDbXrecord
280
     1
270
     1
271
     1
  0
XRECORD
  5
6232
102
{ACAD_REACTORS
330
622D
102
}
330
622D
100
AcDbXrecord
280
     1
270
     1
271
     1
  0
XRECORD
  5
6231
102
{ACAD_REACTORS
330
622D
102
}
330
622D
100
AcDbXrecord
280
     1
270
     1
271
     1
  0
XRECORD
  5
6233
102
{ACAD_REACTORS
330
622D
102
}
330
622D
100
AcDbXrecord
280
     1
270
     1
271
     1
  0
XRECORD
  5
6230
102
{ACAD_REACTORS
330
622D
102
}
330
622D
100
AcDbXrecord
280
     1
270
     1
271
     1
  0
XRECORD
  5
FD19
102
{ACAD_REACTORS
330
623D
102
}
330
623D
100
AcDbXrecord
280
     1
102
MATERIAL
148
0.0
149
0.0
149
0.0
 93
        0
 94
      127
282
     0
 72
     0
 77
     0
171
     0
175
     0
179
     0
273
     0
  0
XRECORD
  5
623F
102
{ACAD_REACTORS
330
623D
102
}
330
623D
100
AcDbXrecord
280
     1
270
     1
271
     1
  0
XRECORD
  5
623E
102
{ACAD_REACTORS
330
623D
102
}
330
623D
100
AcDbXrecord
280
     1
270
     1
271
     1
  0
XRECORD
  5
6242
102
{ACAD_REACTORS
330
623D
102
}
330
623D
100
AcDbXrecord
280
     1
270
     1
271
     1
  0
XRECORD
  5
6241
102
{ACAD_REACTORS
330
623D
102
}
330
623D
100
AcDbXrecord
280
     1
270
     1
271
     1
  0
XRECORD
  5
6243
102
{ACAD_REACTORS
330
623D
102
}
330
623D
100
AcDbXrecord
280
     1
270
     1
271
     1
  0
XRECORD
  5
6240
102
{ACAD_REACTORS
330
623D
102
}
330
623D
100
AcDbXrecord
280
     1
270
     1
271
     1
  0
XRECORD
  5
10258
102
{ACAD_REACTORS
330
10022
102
}
330
10022
100
AcDbXrecord
280
     1
102
DISPLAYNAME
  1
Imperial24
102
FLAGS
 90
        0
  0
XRECORD
  5
10256
102
{ACAD_REACTORS
330
1001E
102
}
330
1001E
100
AcDbXrecord
280
     1
102
DISPLAYNAME
  1
Metric50
102
FLAGS
 90
        0
  0
CELLSTYLEMAP
  5
1020C
102
{ACAD_REACTORS
330
FCFE
102
}
330
FCFE
100
AcDbCellStyleMap
 90
        3
300
CELLSTYLE
  1
TABLEFORMAT_BEGIN
 90
        5
170
     1
 91
        0
 92
    32768
 62
   257
 93
        1
300
CONTENTFORMAT
  1
CONTENTFORMAT_BEGIN
 90
        0
 91
        0
 92
        4
 93
        0
300

 40
0.0
140
1.0
 94
        5
 62
     0
340
11
144
6.0
309
CONTENTFORMAT_END
171
     1
301
MARGIN
  1
CELLMARGIN_BEGIN
 40
1.5
 40
1.5
 40
1.5
 40
1.5
 40
0.18
 40
0.18
309
CELLMARGIN_END
 94
        6
 95
        1
302
GRIDFORMAT
  1
GRIDFORMAT_BEGIN
 90
        0
 91
        1
 62
     0
 92
       -2
340
0
 93
        0
 40
0.045
309
GRIDFORMAT_END
 95
        2
302
GRIDFORMAT
  1
GRIDFORMAT_BEGIN
 90
        0
 91
        1
 62
     0
 92
       -2
340
0
 93
        0
 40
0.045
309
GRIDFORMAT_END
 95
        4
302
GRIDFORMAT
  1
GRIDFORMAT_BEGIN
 90
        0
 91
        1
 62
     0
 92
       -2
340
0
 93
        0
 40
0.045
309
GRIDFORMAT_END
 95
        8
302
GRIDFORMAT
  1
GRIDFORMAT_BEGIN
 90
        0
 91
        1
 62
     0
 92
       -2
340
0
 93
        0
 40
0.045
309
GRIDFORMAT_END
 95
       16
302
GRIDFORMAT
  1
GRIDFORMAT_BEGIN
 90
        0
 91
        1
 62
     0
 92
       -2
340
0
 93
        0
 40
0.045
309
GRIDFORMAT_END
 95
       32
302
GRIDFORMAT
  1
GRIDFORMAT_BEGIN
 90
        0
 91
        1
 62
     0
 92
       -2
340
0
 93
        0
 40
0.045
309
GRIDFORMAT_END
309
TABLEFORMAT_END
  1
CELLSTYLE_BEGIN
 90
        1
 91
        1
300
_TITLE
309
CELLSTYLE_END
300
CELLSTYLE
  1
TABLEFORMAT_BEGIN
 90
        5
170
     1
 91
        0
 92
        0
 62
   257
 93
        1
300
CONTENTFORMAT
  1
CONTENTFORMAT_BEGIN
 90
        0
 91
        0
 92
        4
 93
        0
300

 40
0.0
140
1.0
 94
        5
 62
     0
340
11
144
4.5
309
CONTENTFORMAT_END
171
     1
301
MARGIN
  1
CELLMARGIN_BEGIN
 40
1.5
 40
1.5
 40
1.5
 40
1.5
 40
0.18
 40
0.18
309
CELLMARGIN_END
 94
        6
 95
        1
302
GRIDFORMAT
  1
GRIDFORMAT_BEGIN
 90
        0
 91
        1
 62
     0
 92
       -2
340
0
 93
        0
 40
0.045
309
GRIDFORMAT_END
 95
        2
302
GRIDFORMAT
  1
GRIDFORMAT_BEGIN
 90
        0
 91
        1
 62
     0
 92
       -2
340
0
 93
        0
 40
0.045
309
GRIDFORMAT_END
 95
        4
302
GRIDFORMAT
  1
GRIDFORMAT_BEGIN
 90
        0
 91
        1
 62
     0
 92
       -2
340
0
 93
        0
 40
0.045
309
GRIDFORMAT_END
 95
        8
302
GRIDFORMAT
  1
GRIDFORMAT_BEGIN
 90
        0
 91
        1
 62
     0
 92
       -2
340
0
 93
        0
 40
0.045
309
GRIDFORMAT_END
 95
       16
302
GRIDFORMAT
  1
GRIDFORMAT_BEGIN
 90
        0
 91
        1
 62
     0
 92
       -2
340
0
 93
        0
 40
0.045
309
GRIDFORMAT_END
 95
       32
302
GRIDFORMAT
  1
GRIDFORMAT_BEGIN
 90
        0
 91
        1
 62
     0
 92
       -2
340
0
 93
        0
 40
0.045
309
GRIDFORMAT_END
309
TABLEFORMAT_END
  1
CELLSTYLE_BEGIN
 90
        2
 91
        1
300
_HEADER
309
CELLSTYLE_END
300
CELLSTYLE
  1
TABLEFORMAT_BEGIN
 90
        5
170
     1
 91
        0
 92
        0
 62
   257
 93
        1
300
CONTENTFORMAT
  1
CONTENTFORMAT_BEGIN
 90
        0
 91
        0
 92
        4
 93
        0
300

 40
0.0
140
1.0
 94
        2
 62
     0
340
11
144
4.5
309
CONTENTFORMAT_END
171
     1
301
MARGIN
  1
CELLMARGIN_BEGIN
 40
1.5
 40
1.5
 40
1.5
 40
1.5
 40
0.18
 40
0.18
309
CELLMARGIN_END
 94
        6
 95
        1
302
GRIDFORMAT
  1
GRIDFORMAT_BEGIN
 90
        0
 91
        1
 62
     0
 92
       -2
340
0
 93
        0
 40
0.045
309
GRIDFORMAT_END
 95
        2
302
GRIDFORMAT
  1
GRIDFORMAT_BEGIN
 90
        0
 91
        1
 62
     0
 92
       -2
340
0
 93
        0
 40
0.045
309
GRIDFORMAT_END
 95
        4
302
GRIDFORMAT
  1
GRIDFORMAT_BEGIN
 90
        0
 91
        1
 62
     0
 92
       -2
340
0
 93
        0
 40
0.045
309
GRIDFORMAT_END
 95
        8
302
GRIDFORMAT
  1
GRIDFORMAT_BEGIN
 90
        0
 91
        1
 62
     0
 92
       -2
340
0
 93
        0
 40
0.045
309
GRIDFORMAT_END
 95
       16
302
GRIDFORMAT
  1
GRIDFORMAT_BEGIN
 90
        0
 91
        1
 62
     0
 92
       -2
340
0
 93
        0
 40
0.045
309
GRIDFORMAT_END
 95
       32
302
GRIDFORMAT
  1
GRIDFORMAT_BEGIN
 90
        0
 91
        1
 62
     0
 92
       -2
340
0
 93
        0
 40
0.045
309
GRIDFORMAT_END
309
TABLEFORMAT_END
  1
CELLSTYLE_BEGIN
 90
        3
 91
        2
300
_DATA
309
CELLSTYLE_END
  0
XRECORD
  5
10225
102
{ACAD_REACTORS
330
FCFE
102
}
330
FCFE
100
AcDbXrecord
280
     1
102
ACAD_ROUNDTRIP_PRE2007_TABLESTYLE
 90
        4
 91
        0
  1

 92
        4
 93
        0
  2

 94
        4
 95
        0
  3

  0
XRECORD
  5
10231
102
{ACAD_REACTORS
330
10230
102
}
330
10230
100
AcDbXrecord
280
     1
102
RTVSPost2010Prop28
280
     1
102
RTVSPost2010PropOp28
 70
     1
102
RTVSPost2010Prop29
280
     1
102
RTVSPost2010PropOp29
 70
     1
102
RTVSPost2010Prop30
280
     0
102
RTVSPost2010PropOp30
 70
     1
102
RTVSPost2010Prop31
280
     0
102
RTVSPost2010PropOp31
 70
     1
102
RTVSPost2010Prop32
280
     0
102
RTVSPost2010PropOp32
 70
     1
102
RTVSPost2010Prop33
280
     0
102
RTVSPost2010PropOp33
 70
     1
102
RTVSPost2010Prop34
280
     0
102
RTVSPost2010PropOp34
 70
     1
102
RTVSPost2010Prop35
280
     0
102
RTVSPost2010PropOp35
 70
     1
102
RTVSPost2010Prop36
280
     0
102
RTVSPost2010PropOp36
 70
     1
102
RTVSPost2010Prop37
 90
       50
102
RTVSPost2010PropOp37
 70
     1
102
RTVSPost2010Prop38
140
0.0
102
RTVSPost2010PropOp38
 70
     1
102
RTVSPost2010Prop39
140
1.0
102
RTVSPost2010PropOp39
 70
     1
102
RTVSPost2010Prop40
 90
        0
102
RTVSPost2010PropOp40
 70
     1
102
RTVSPost2010Prop41ColorIndex
 90
       18
102
RTVSPost2010Prop41ColorRGB
 90
        0
102
RTVSPost2010PropOp41
 70
     1
102
RTVSPost2010Prop42
 90
       50
102
RTVSPost2010PropOp42
 70
     1
102
RTVSPost2010Prop43
 90
        3
102
RTVSPost2010PropOp43
 70
     1
102
RTVSPost2010Prop44ColorIndex
 90
        5
102
RTVSPost2010Prop44ColorRGB
 90
      255
102
RTVSPost2010PropOp44
 70
     1
102
RTVSPost2010Prop45
280
     0
102
RTVSPost2010PropOp45
 70
     1
102
RTVSPost2010Prop46
 90
       50
102
RTVSPost2010PropOp46
 70
     1
102
RTVSPost2010Prop47
 90
       50
102
RTVSPost2010PropOp47
 70
     1
102
RTVSPost2010Prop48
 90
       50
102
RTVSPost2010PropOp48
 70
     1
102
RTVSPost2010Prop49
280
     0
102
RTVSPost2010PropOp49
 70
     1
102
RTVSPost2010Prop50
 90
       50
102
RTVSPost2010PropOp50
 70
     1
102
RTVSPost2010Prop51ColorIndex
 90
      256
102
RTVSPost2010Prop51ColorRGB
 90
-16777216
102
RTVSPost2010PropOp51
 70
     0
102
RTVSPost2010Prop52
140
1.0
102
RTVSPost2010PropOp52
 70
     0
102
RTVSPost2010Prop53
 90
        2
102
RTVSPost2010PropOp53
 70
     1
102
RTVSPost2010Prop54
  1
strokes_ogs.tif
102
RTVSPost2010PropOp54
 70
     1
102
RTVSPost2010Prop55
280
     0
102
RTVSPost2010PropOp55
 70
     1
102
RTVSPost2010Prop56
140
1.0
102
RTVSPost2010PropOp56
 70
     1
102
RTVSPost2010Prop57
140
1.0
102
RTVSPost2010PropOp57
 70
     1
102
RTVSPropertyOp0
 70
     1
102
RTVSPropertyOp1
 70
     1
102
RTVSPropertyOp2
 70
     1
102
RTVSPropertyOp3
 70
     1
102
RTVSPropertyOp4
 70
     1
102
RTVSPropertyOp5
 70
     1
102
RTVSPropertyOp6
 70
     1
102
RTVSPropertyOp7
 70
     1
102
RTVSPropertyOp8
 70
     1
102
RTVSPropertyOp9
 70
     1
102
RTVSPropertyOp10
 70
     1
102
RTVSPropertyOp11
 70
     1
102
RTVSPropertyOp12
 70
     1
102
RTVSPropertyOp13
 70
     1
102
RTVSPropertyOp14
 70
     1
102
RTVSPropertyOp15
 70
     1
102
RTVSPropertyOp16
 70
     1
102
RTVSPropertyOp17
 70
     1
102
RTVSPropertyOp18
 70
     1
102
RTVSPropertyOp19
 70
     1
102
RTVSPropertyOp20
 70
     1
102
RTVSPropertyOp21
 70
     1
102
RTVSPropertyOp22
 70
     1
102
RTVSPropertyOp23
 70
     1
102
RTVSPropertyOp24
 70
     1
102
RTVSPropertyOp25
 70
     1
102
RTVSPropertyOp26
 70
     1
102
RTVSPropertyOp27
 70
     1
102
RTVSPropertyOp28
 70
     1
102
RTVSPropertyOp29
 70
     1
102
RTVSPropertyOp30
 70
     1
102
RTVSPropertyOp31
 70
     1
102
RTVSPropertyOp32
 70
     1
102
RTVSPropertyOp33
 70
     1
102
RTVSPropertyOp34
 70
     1
102
RTVSPropertyOp35
 70
     1
102
RTVSPropertyOp36
 70
     1
102
RTVSPropertyOp37
 70
     1
102
RTVSPropertyOp38
 70
     1
102
RTVSPropertyOp39
 70
     1
102
RTVSPropertyOp40
 70
     1
102
RTVSPropertyOp41
 70
     1
102
RTVSPropertyOp42
 70
     1
102
RTVSPropertyOp43
 70
     1
102
RTVSPropertyOp44
 70
     1
102
RTVSPropertyOp45
 70
     1
102
RTVSPropertyOp46
 70
     1
102
RTVSPropertyOp47
 70
     1
102
RTVSPropertyOp48
 70
     1
102
RTVSPropertyOp49
 70
     1
102
RTVSPropertyOp50
 70
     1
102
RTVSPropertyOp51
 70
     0
102
RTVSPropertyOp52
 70
     0
102
RTVSPropertyOp53
 70
     1
102
RTVSPropertyOp54
 70
     1
102
RTVSPropertyOp55
 70
     1
102
RTVSPropertyOp56
 70
     1
102
RTVSPropertyOp57
 70
     1
102
RTVSPropertyOp58
 70
     1
102
RTVSPropertyOp59
 70
     1
102
RTVSPropertyOp60
 70
     1
102
RTVSPropertyOp61
 70
     1
102
RTVSPropertyOp62
 70
     1
  0
XRECORD
  5
1022F
102
{ACAD_REACTORS
330
1022E
102
}
330
1022E
100
AcDbXrecord
280
     1
102
RTVSPost2010Prop28
280
     0
102
RTVSPost2010PropOp28
 70
     1
102
RTVSPost2010Prop29
280
     1
102
RTVSPost2010PropOp29
 70
     1
102
RTVSPost2010Prop30
280
     1
102
RTVSPost2010PropOp30
 70
     1
102
RTVSPost2010Prop31
280
     0
102
RTVSPost2010PropOp31
 70
     1
102
RTVSPost2010Prop32
280
     0
102
RTVSPost2010PropOp32
 70
     1
102
RTVSPost2010Prop33
280
     0
102
RTVSPost2010PropOp33
 70
     1
102
RTVSPost2010Prop34
280
     0
102
RTVSPost2010PropOp34
 70
     1
102
RTVSPost2010Prop35
280
     0
102
RTVSPost2010PropOp35
 70
     1
102
RTVSPost2010Prop36
280
     0
102
RTVSPost2010PropOp36
 70
     1
102
RTVSPost2010Prop37
 90
       50
102
RTVSPost2010PropOp37
 70
     1
102
RTVSPost2010Prop38
140
0.0
102
RTVSPost2010PropOp38
 70
     1
102
RTVSPost2010Prop39
140
1.0
102
RTVSPost2010PropOp39
 70
     1
102
RTVSPost2010Prop40
 90
        0
102
RTVSPost2010PropOp40
 70
     1
102
RTVSPost2010Prop41ColorIndex
 90
       18
102
RTVSPost2010Prop41ColorRGB
 90
        0
102
RTVSPost2010PropOp41
 70
     1
102
RTVSPost2010Prop42
 90
       50
102
RTVSPost2010PropOp42
 70
     1
102
RTVSPost2010Prop43
 90
        3
102
RTVSPost2010PropOp43
 70
     1
102
RTVSPost2010Prop44ColorIndex
 90
        5
102
RTVSPost2010Prop44ColorRGB
 90
      255
102
RTVSPost2010PropOp44
 70
     1
102
RTVSPost2010Prop45
280
     0
102
RTVSPost2010PropOp45
 70
     1
102
RTVSPost2010Prop46
 90
       50
102
RTVSPost2010PropOp46
 70
     1
102
RTVSPost2010Prop47
 90
       50
102
RTVSPost2010PropOp47
 70
     1
102
RTVSPost2010Prop48
 90
       50
102
RTVSPost2010PropOp48
 70
     1
102
RTVSPost2010Prop49
280
     0
102
RTVSPost2010PropOp49
 70
     1
102
RTVSPost2010Prop50
 90
       50
102
RTVSPost2010PropOp50
 70
     1
102
RTVSPost2010Prop51ColorIndex
 90
      256
102
RTVSPost2010Prop51ColorRGB
 90
-16777216
102
RTVSPost2010PropOp51
 70
     0
102
RTVSPost2010Prop52
140
1.0
102
RTVSPost2010PropOp52
 70
     0
102
RTVSPost2010Prop53
 90
        2
102
RTVSPost2010PropOp53
 70
     1
102
RTVSPost2010Prop54
  1
strokes_ogs.tif
102
RTVSPost2010PropOp54
 70
     1
102
RTVSPost2010Prop55
280
     0
102
RTVSPost2010PropOp55
 70
     1
102
RTVSPost2010Prop56
140
1.0
102
RTVSPost2010PropOp56
 70
     1
102
RTVSPost2010Prop57
140
1.0
102
RTVSPost2010PropOp57
 70
     1
102
RTVSPropertyOp0
 70
     1
102
RTVSPropertyOp1
 70
     1
102
RTVSPropertyOp2
 70
     1
102
RTVSPropertyOp3
 70
     1
102
RTVSPropertyOp4
 70
     1
102
RTVSPropertyOp5
 70
     1
102
RTVSPropertyOp6
 70
     1
102
RTVSPropertyOp7
 70
     1
102
RTVSPropertyOp8
 70
     1
102
RTVSPropertyOp9
 70
     1
102
RTVSPropertyOp10
 70
     1
102
RTVSPropertyOp11
 70
     1
102
RTVSPropertyOp12
 70
     1
102
RTVSPropertyOp13
 70
     1
102
RTVSPropertyOp14
 70
     1
102
RTVSPropertyOp15
 70
     1
102
RTVSPropertyOp16
 70
     1
102
RTVSPropertyOp17
 70
     1
102
RTVSPropertyOp18
 70
     1
102
RTVSPropertyOp19
 70
     1
102
RTVSPropertyOp20
 70
     1
102
RTVSPropertyOp21
 70
     1
102
RTVSPropertyOp22
 70
     1
102
RTVSPropertyOp23
 70
     1
102
RTVSPropertyOp24
 70
     1
102
RTVSPropertyOp25
 70
     1
102
RTVSPropertyOp26
 70
     1
102
RTVSPropertyOp27
 70
     1
102
RTVSPropertyOp28
 70
     1
102
RTVSPropertyOp29
 70
     1
102
RTVSPropertyOp30
 70
     1
102
RTVSPropertyOp31
 70
     1
102
RTVSPropertyOp32
 70
     1
102
RTVSPropertyOp33
 70
     1
102
RTVSPropertyOp34
 70
     1
102
RTVSPropertyOp35
 70
     1
102
RTVSPropertyOp36
 70
     1
102
RTVSPropertyOp37
 70
     1
102
RTVSPropertyOp38
 70
     1
102
RTVSPropertyOp39
 70
     1
102
RTVSPropertyOp40
 70
     1
102
RTVSPropertyOp41
 70
     1
102
RTVSPropertyOp42
 70
     1
102
RTVSPropertyOp43
 70
     1
102
RTVSPropertyOp44
 70
     1
102
RTVSPropertyOp45
 70
     1
102
RTVSPropertyOp46
 70
     1
102
RTVSPropertyOp47
 70
     1
102
RTVSPropertyOp48
 70
     1
102
RTVSPropertyOp49
 70
     1
102
RTVSPropertyOp50
 70
     1
102
RTVSPropertyOp51
 70
     0
102
RTVSPropertyOp52
 70
     0
102
RTVSPropertyOp53
 70
     1
102
RTVSPropertyOp54
 70
     1
102
RTVSPropertyOp55
 70
     1
102
RTVSPropertyOp56
 70
     1
102
RTVSPropertyOp57
 70
     1
102
RTVSPropertyOp58
 70
     1
102
RTVSPropertyOp59
 70
     1
102
RTVSPropertyOp60
 70
     1
102
RTVSPropertyOp61
 70
     1
102
RTVSPropertyOp62
 70
     1
  0
XRECORD
  5
1023D
102
{ACAD_REACTORS
330
1023C
102
}
330
1023C
100
AcDbXrecord
280
     1
102
RTVSPost2010Prop28
280
     0
102
RTVSPost2010PropOp28
 70
     1
102
RTVSPost2010Prop29
280
     1
102
RTVSPost2010PropOp29
 70
     1
102
RTVSPost2010Prop30
280
     1
102
RTVSPost2010PropOp30
 70
     1
102
RTVSPost2010Prop31
280
     0
102
RTVSPost2010PropOp31
 70
     1
102
RTVSPost2010Prop32
280
     0
102
RTVSPost2010PropOp32
 70
     1
102
RTVSPost2010Prop33
280
     0
102
RTVSPost2010PropOp33
 70
     1
102
RTVSPost2010Prop34
280
     0
102
RTVSPost2010PropOp34
 70
     1
102
RTVSPost2010Prop35
280
     0
102
RTVSPost2010PropOp35
 70
     1
102
RTVSPost2010Prop36
280
     0
102
RTVSPost2010PropOp36
 70
     1
102
RTVSPost2010Prop37
 90
       50
102
RTVSPost2010PropOp37
 70
     1
102
RTVSPost2010Prop38
140
0.0
102
RTVSPost2010PropOp38
 70
     1
102
RTVSPost2010Prop39
140
1.0
102
RTVSPost2010PropOp39
 70
     1
102
RTVSPost2010Prop40
 90
        0
102
RTVSPost2010PropOp40
 70
     1
102
RTVSPost2010Prop41ColorIndex
 90
       18
102
RTVSPost2010Prop41ColorRGB
 90
        0
102
RTVSPost2010PropOp41
 70
     1
102
RTVSPost2010Prop42
 90
       50
102
RTVSPost2010PropOp42
 70
     1
102
RTVSPost2010Prop43
 90
        3
102
RTVSPost2010PropOp43
 70
     1
102
RTVSPost2010Prop44ColorIndex
 90
        5
102
RTVSPost2010Prop44ColorRGB
 90
      255
102
RTVSPost2010PropOp44
 70
     1
102
RTVSPost2010Prop45
280
     0
102
RTVSPost2010PropOp45
 70
     1
102
RTVSPost2010Prop46
 90
       50
102
RTVSPost2010PropOp46
 70
     1
102
RTVSPost2010Prop47
 90
       50
102
RTVSPost2010PropOp47
 70
     1
102
RTVSPost2010Prop48
 90
       50
102
RTVSPost2010PropOp48
 70
     1
102
RTVSPost2010Prop49
280
     0
102
RTVSPost2010PropOp49
 70
     1
102
RTVSPost2010Prop50
 90
       50
102
RTVSPost2010PropOp50
 70
     1
102
RTVSPost2010Prop51ColorIndex
 90
      256
102
RTVSPost2010Prop51ColorRGB
 90
-16777216
102
RTVSPost2010PropOp51
 70
     0
102
RTVSPost2010Prop52
140
1.0
102
RTVSPost2010PropOp52
 70
     0
102
RTVSPost2010Prop53
 90
        2
102
RTVSPost2010PropOp53
 70
     1
102
RTVSPost2010Prop54
  1
strokes_ogs.tif
102
RTVSPost2010PropOp54
 70
     1
102
RTVSPost2010Prop55
280
     0
102
RTVSPost2010PropOp55
 70
     1
102
RTVSPost2010Prop56
140
1.0
102
RTVSPost2010PropOp56
 70
     1
102
RTVSPost2010Prop57
140
1.0
102
RTVSPost2010PropOp57
 70
     1
102
RTVSPropertyOp0
 70
     1
102
RTVSPropertyOp1
 70
     1
102
RTVSPropertyOp2
 70
     1
102
RTVSPropertyOp3
 70
     1
102
RTVSPropertyOp4
 70
     1
102
RTVSPropertyOp5
 70
     1
102
RTVSPropertyOp6
 70
     1
102
RTVSPropertyOp7
 70
     1
102
RTVSPropertyOp8
 70
     1
102
RTVSPropertyOp9
 70
     1
102
RTVSPropertyOp10
 70
     1
102
RTVSPropertyOp11
 70
     1
102
RTVSPropertyOp12
 70
     1
102
RTVSPropertyOp13
 70
     1
102
RTVSPropertyOp14
 70
     1
102
RTVSPropertyOp15
 70
     1
102
RTVSPropertyOp16
 70
     1
102
RTVSPropertyOp17
 70
     1
102
RTVSPropertyOp18
 70
     1
102
RTVSPropertyOp19
 70
     1
102
RTVSPropertyOp20
 70
     1
102
RTVSPropertyOp21
 70
     1
102
RTVSPropertyOp22
 70
     1
102
RTVSPropertyOp23
 70
     1
102
RTVSPropertyOp24
 70
     1
102
RTVSPropertyOp25
 70
     1
102
RTVSPropertyOp26
 70
     1
102
RTVSPropertyOp27
 70
     1
102
RTVSPropertyOp28
 70
     1
102
RTVSPropertyOp29
 70
     1
102
RTVSPropertyOp30
 70
     1
102
RTVSPropertyOp31
 70
     1
102
RTVSPropertyOp32
 70
     1
102
RTVSPropertyOp33
 70
     1
102
RTVSPropertyOp34
 70
     1
102
RTVSPropertyOp35
 70
     1
102
RTVSPropertyOp36
 70
     1
102
RTVSPropertyOp37
 70
     1
102
RTVSPropertyOp38
 70
     1
102
RTVSPropertyOp39
 70
     1
102
RTVSPropertyOp40
 70
     1
102
RTVSPropertyOp41
 70
     1
102
RTVSPropertyOp42
 70
     1
102
RTVSPropertyOp43
 70
     1
102
RTVSPropertyOp44
 70
     1
102
RTVSPropertyOp45
 70
     1
102
RTVSPropertyOp46
 70
     1
102
RTVSPropertyOp47
 70
     1
102
RTVSPropertyOp48
 70
     1
102
RTVSPropertyOp49
 70
     1
102
RTVSPropertyOp50
 70
     1
102
RTVSPropertyOp51
 70
     0
102
RTVSPropertyOp52
 70
     0
102
RTVSPropertyOp53
 70
     1
102
RTVSPropertyOp54
 70
     1
102
RTVSPropertyOp55
 70
     1
102
RTVSPropertyOp56
 70
     1
102
RTVSPropertyOp57
 70
     1
102
RTVSPropertyOp58
 70
     1
102
RTVSPropertyOp59
 70
     1
102
RTVSPropertyOp60
 70
     1
102
RTVSPropertyOp61
 70
     1
102
RTVSPropertyOp62
 70
     1
  0
XRECORD
  5
10245
102
{ACAD_REACTORS
330
10244
102
}
330
10244
100
AcDbXrecord
280
     1
102
RTVSPost2010Prop28
280
     0
102
RTVSPost2010PropOp28
 70
     1
102
RTVSPost2010Prop29
280
     1
102
RTVSPost2010PropOp29
 70
     1
102
RTVSPost2010Prop30
280
     1
102
RTVSPost2010PropOp30
 70
     1
102
RTVSPost2010Prop31
280
     0
102
RTVSPost2010PropOp31
 70
     1
102
RTVSPost2010Prop32
280
     0
102
RTVSPost2010PropOp32
 70
     1
102
RTVSPost2010Prop33
280
     0
102
RTVSPost2010PropOp33
 70
     1
102
RTVSPost2010Prop34
280
     0
102
RTVSPost2010PropOp34
 70
     1
102
RTVSPost2010Prop35
280
     0
102
RTVSPost2010PropOp35
 70
     1
102
RTVSPost2010Prop36
280
     0
102
RTVSPost2010PropOp36
 70
     1
102
RTVSPost2010Prop37
 90
       50
102
RTVSPost2010PropOp37
 70
     1
102
RTVSPost2010Prop38
140
0.0
102
RTVSPost2010PropOp38
 70
     1
102
RTVSPost2010Prop39
140
1.0
102
RTVSPost2010PropOp39
 70
     1
102
RTVSPost2010Prop40
 90
        0
102
RTVSPost2010PropOp40
 70
     1
102
RTVSPost2010Prop41ColorIndex
 90
       18
102
RTVSPost2010Prop41ColorRGB
 90
        0
102
RTVSPost2010PropOp41
 70
     1
102
RTVSPost2010Prop42
 90
       50
102
RTVSPost2010PropOp42
 70
     1
102
RTVSPost2010Prop43
 90
        3
102
RTVSPost2010PropOp43
 70
     1
102
RTVSPost2010Prop44ColorIndex
 90
        5
102
RTVSPost2010Prop44ColorRGB
 90
      255
102
RTVSPost2010PropOp44
 70
     1
102
RTVSPost2010Prop45
280
     0
102
RTVSPost2010PropOp45
 70
     1
102
RTVSPost2010Prop46
 90
       50
102
RTVSPost2010PropOp46
 70
     1
102
RTVSPost2010Prop47
 90
       50
102
RTVSPost2010PropOp47
 70
     1
102
RTVSPost2010Prop48
 90
       50
102
RTVSPost2010PropOp48
 70
     1
102
RTVSPost2010Prop49
280
     0
102
RTVSPost2010PropOp49
 70
     1
102
RTVSPost2010Prop50
 90
       50
102
RTVSPost2010PropOp50
 70
     1
102
RTVSPost2010Prop51ColorIndex
 90
      256
102
RTVSPost2010Prop51ColorRGB
 90
-16777216
102
RTVSPost2010PropOp51
 70
     0
102
RTVSPost2010Prop52
140
1.0
102
RTVSPost2010PropOp52
 70
     0
102
RTVSPost2010Prop53
 90
        2
102
RTVSPost2010PropOp53
 70
     1
102
RTVSPost2010Prop54
  1
strokes_ogs.tif
102
RTVSPost2010PropOp54
 70
     1
102
RTVSPost2010Prop55
280
     0
102
RTVSPost2010PropOp55
 70
     1
102
RTVSPost2010Prop56
140
1.0
102
RTVSPost2010PropOp56
 70
     1
102
RTVSPost2010Prop57
140
1.0
102
RTVSPost2010PropOp57
 70
     1
102
RTVSPropertyOp0
 70
     1
102
RTVSPropertyOp1
 70
     1
102
RTVSPropertyOp2
 70
     1
102
RTVSPropertyOp3
 70
     1
102
RTVSPropertyOp4
 70
     1
102
RTVSPropertyOp5
 70
     1
102
RTVSPropertyOp6
 70
     1
102
RTVSPropertyOp7
 70
     1
102
RTVSPropertyOp8
 70
     1
102
RTVSPropertyOp9
 70
     1
102
RTVSPropertyOp10
 70
     1
102
RTVSPropertyOp11
 70
     1
102
RTVSPropertyOp12
 70
     1
102
RTVSPropertyOp13
 70
     1
102
RTVSPropertyOp14
 70
     1
102
RTVSPropertyOp15
 70
     1
102
RTVSPropertyOp16
 70
     1
102
RTVSPropertyOp17
 70
     1
102
RTVSPropertyOp18
 70
     1
102
RTVSPropertyOp19
 70
     1
102
RTVSPropertyOp20
 70
     1
102
RTVSPropertyOp21
 70
     1
102
RTVSPropertyOp22
 70
     1
102
RTVSPropertyOp23
 70
     1
102
RTVSPropertyOp24
 70
     1
102
RTVSPropertyOp25
 70
     1
102
RTVSPropertyOp26
 70
     1
102
RTVSPropertyOp27
 70
     1
102
RTVSPropertyOp28
 70
     1
102
RTVSPropertyOp29
 70
     1
102
RTVSPropertyOp30
 70
     1
102
RTVSPropertyOp31
 70
     1
102
RTVSPropertyOp32
 70
     1
102
RTVSPropertyOp33
 70
     1
102
RTVSPropertyOp34
 70
     1
102
RTVSPropertyOp35
 70
     1
102
RTVSPropertyOp36
 70
     1
102
RTVSPropertyOp37
 70
     1
102
RTVSPropertyOp38
 70
     1
102
RTVSPropertyOp39
 70
     1
102
RTVSPropertyOp40
 70
     1
102
RTVSPropertyOp41
 70
     1
102
RTVSPropertyOp42
 70
     1
102
RTVSPropertyOp43
 70
     1
102
RTVSPropertyOp44
 70
     1
102
RTVSPropertyOp45
 70
     1
102
RTVSPropertyOp46
 70
     1
102
RTVSPropertyOp47
 70
     1
102
RTVSPropertyOp48
 70
     1
102
RTVSPropertyOp49
 70
     1
102
RTVSPropertyOp50
 70
     1
102
RTVSPropertyOp51
 70
     0
102
RTVSPropertyOp52
 70
     0
102
RTVSPropertyOp53
 70
     1
102
RTVSPropertyOp54
 70
     1
102
RTVSPropertyOp55
 70
     1
102
RTVSPropertyOp56
 70
     1
102
RTVSPropertyOp57
 70
     1
102
RTVSPropertyOp58
 70
     1
102
RTVSPropertyOp59
 70
     1
102
RTVSPropertyOp60
 70
     1
102
RTVSPropertyOp61
 70
     1
102
RTVSPropertyOp62
 70
     1
  0
XRECORD
  5
10237
102
{ACAD_REACTORS
330
10236
102
}
330
10236
100
AcDbXrecord
280
     1
102
RTVSPost2010Prop28
280
     0
102
RTVSPost2010PropOp28
 70
     1
102
RTVSPost2010Prop29
280
     1
102
RTVSPost2010PropOp29
 70
     1
102
RTVSPost2010Prop30
280
     1
102
RTVSPost2010PropOp30
 70
     1
102
RTVSPost2010Prop31
280
     0
102
RTVSPost2010PropOp31
 70
     1
102
RTVSPost2010Prop32
280
     0
102
RTVSPost2010PropOp32
 70
     1
102
RTVSPost2010Prop33
280
     0
102
RTVSPost2010PropOp33
 70
     1
102
RTVSPost2010Prop34
280
     0
102
RTVSPost2010PropOp34
 70
     1
102
RTVSPost2010Prop35
280
     0
102
RTVSPost2010PropOp35
 70
     1
102
RTVSPost2010Prop36
280
     0
102
RTVSPost2010PropOp36
 70
     1
102
RTVSPost2010Prop37
 90
       50
102
RTVSPost2010PropOp37
 70
     1
102
RTVSPost2010Prop38
140
0.0
102
RTVSPost2010PropOp38
 70
     1
102
RTVSPost2010Prop39
140
1.0
102
RTVSPost2010PropOp39
 70
     1
102
RTVSPost2010Prop40
 90
        0
102
RTVSPost2010PropOp40
 70
     1
102
RTVSPost2010Prop41ColorIndex
 90
       18
102
RTVSPost2010Prop41ColorRGB
 90
        0
102
RTVSPost2010PropOp41
 70
     1
102
RTVSPost2010Prop42
 90
       50
102
RTVSPost2010PropOp42
 70
     1
102
RTVSPost2010Prop43
 90
        3
102
RTVSPost2010PropOp43
 70
     1
102
RTVSPost2010Prop44ColorIndex
 90
        5
102
RTVSPost2010Prop44ColorRGB
 90
      255
102
RTVSPost2010PropOp44
 70
     1
102
RTVSPost2010Prop45
280
     0
102
RTVSPost2010PropOp45
 70
     1
102
RTVSPost2010Prop46
 90
       50
102
RTVSPost2010PropOp46
 70
     1
102
RTVSPost2010Prop47
 90
       50
102
RTVSPost2010PropOp47
 70
     1
102
RTVSPost2010Prop48
 90
       50
102
RTVSPost2010PropOp48
 70
     1
102
RTVSPost2010Prop49
280
     0
102
RTVSPost2010PropOp49
 70
     1
102
RTVSPost2010Prop50
 90
       50
102
RTVSPost2010PropOp50
 70
     1
102
RTVSPost2010Prop51ColorIndex
 90
      256
102
RTVSPost2010Prop51ColorRGB
 90
-16777216
102
RTVSPost2010PropOp51
 70
     0
102
RTVSPost2010Prop52
140
1.0
102
RTVSPost2010PropOp52
 70
     0
102
RTVSPost2010Prop53
 90
        2
102
RTVSPost2010PropOp53
 70
     1
102
RTVSPost2010Prop54
  1
strokes_ogs.tif
102
RTVSPost2010PropOp54
 70
     1
102
RTVSPost2010Prop55
280
     0
102
RTVSPost2010PropOp55
 70
     1
102
RTVSPost2010Prop56
140
1.0
102
RTVSPost2010PropOp56
 70
     1
102
RTVSPost2010Prop57
140
1.0
102
RTVSPost2010PropOp57
 70
     1
102
RTVSPropertyOp0
 70
     1
102
RTVSPropertyOp1
 70
     1
102
RTVSPropertyOp2
 70
     1
102
RTVSPropertyOp3
 70
     1
102
RTVSPropertyOp4
 70
     1
102
RTVSPropertyOp5
 70
     1
102
RTVSPropertyOp6
 70
     1
102
RTVSPropertyOp7
 70
     1
102
RTVSPropertyOp8
 70
     1
102
RTVSPropertyOp9
 70
     1
102
RTVSPropertyOp10
 70
     1
102
RTVSPropertyOp11
 70
     1
102
RTVSPropertyOp12
 70
     1
102
RTVSPropertyOp13
 70
     1
102
RTVSPropertyOp14
 70
     1
102
RTVSPropertyOp15
 70
     1
102
RTVSPropertyOp16
 70
     1
102
RTVSPropertyOp17
 70
     1
102
RTVSPropertyOp18
 70
     1
102
RTVSPropertyOp19
 70
     1
102
RTVSPropertyOp20
 70
     1
102
RTVSPropertyOp21
 70
     1
102
RTVSPropertyOp22
 70
     1
102
RTVSPropertyOp23
 70
     1
102
RTVSPropertyOp24
 70
     1
102
RTVSPropertyOp25
 70
     1
102
RTVSPropertyOp26
 70
     1
102
RTVSPropertyOp27
 70
     1
102
RTVSPropertyOp28
 70
     1
102
RTVSPropertyOp29
 70
     1
102
RTVSPropertyOp30
 70
     1
102
RTVSPropertyOp31
 70
     1
102
RTVSPropertyOp32
 70
     1
102
RTVSPropertyOp33
 70
     1
102
RTVSPropertyOp34
 70
     1
102
RTVSPropertyOp35
 70
     1
102
RTVSPropertyOp36
 70
     1
102
RTVSPropertyOp37
 70
     1
102
RTVSPropertyOp38
 70
     1
102
RTVSPropertyOp39
 70
     1
102
RTVSPropertyOp40
 70
     1
102
RTVSPropertyOp41
 70
     1
102
RTVSPropertyOp42
 70
     1
102
RTVSPropertyOp43
 70
     1
102
RTVSPropertyOp44
 70
     1
102
RTVSPropertyOp45
 70
     1
102
RTVSPropertyOp46
 70
     1
102
RTVSPropertyOp47
 70
     1
102
RTVSPropertyOp48
 70
     1
102
RTVSPropertyOp49
 70
     1
102
RTVSPropertyOp50
 70
     1
102
RTVSPropertyOp51
 70
     0
102
RTVSPropertyOp52
 70
     0
102
RTVSPropertyOp53
 70
     1
102
RTVSPropertyOp54
 70
     1
102
RTVSPropertyOp55
 70
     1
102
RTVSPropertyOp56
 70
     1
102
RTVSPropertyOp57
 70
     1
102
RTVSPropertyOp58
 70
     1
102
RTVSPropertyOp59
 70
     1
102
RTVSPropertyOp60
 70
     1
102
RTVSPropertyOp61
 70
     1
102
RTVSPropertyOp62
 70
     1
  0
XRECORD
  5
1023B
102
{ACAD_REACTORS
330
1023A
102
}
330
1023A
100
AcDbXrecord
280
     1
102
RTVSPost2010Prop28
280
     0
102
RTVSPost2010PropOp28
 70
     1
102
RTVSPost2010Prop29
280
     1
102
RTVSPost2010PropOp29
 70
     1
102
RTVSPost2010Prop30
280
     1
102
RTVSPost2010PropOp30
 70
     1
102
RTVSPost2010Prop31
280
     0
102
RTVSPost2010PropOp31
 70
     1
102
RTVSPost2010Prop32
280
     0
102
RTVSPost2010PropOp32
 70
     1
102
RTVSPost2010Prop33
280
     0
102
RTVSPost2010PropOp33
 70
     1
102
RTVSPost2010Prop34
280
     0
102
RTVSPost2010PropOp34
 70
     1
102
RTVSPost2010Prop35
280
     0
102
RTVSPost2010PropOp35
 70
     1
102
RTVSPost2010Prop36
280
     0
102
RTVSPost2010PropOp36
 70
     1
102
RTVSPost2010Prop37
 90
       50
102
RTVSPost2010PropOp37
 70
     1
102
RTVSPost2010Prop38
140
0.0
102
RTVSPost2010PropOp38
 70
     1
102
RTVSPost2010Prop39
140
1.0
102
RTVSPost2010PropOp39
 70
     1
102
RTVSPost2010Prop40
 90
        0
102
RTVSPost2010PropOp40
 70
     1
102
RTVSPost2010Prop41ColorIndex
 90
       18
102
RTVSPost2010Prop41ColorRGB
 90
        0
102
RTVSPost2010PropOp41
 70
     1
102
RTVSPost2010Prop42
 90
       50
102
RTVSPost2010PropOp42
 70
     1
102
RTVSPost2010Prop43
 90
        3
102
RTVSPost2010PropOp43
 70
     1
102
RTVSPost2010Prop44ColorIndex
 90
        5
102
RTVSPost2010Prop44ColorRGB
 90
      255
102
RTVSPost2010PropOp44
 70
     1
102
RTVSPost2010Prop45
280
     0
102
RTVSPost2010PropOp45
 70
     1
102
RTVSPost2010Prop46
 90
       50
102
RTVSPost2010PropOp46
 70
     1
102
RTVSPost2010Prop47
 90
       50
102
RTVSPost2010PropOp47
 70
     1
102
RTVSPost2010Prop48
 90
       50
102
RTVSPost2010PropOp48
 70
     1
102
RTVSPost2010Prop49
280
     0
102
RTVSPost2010PropOp49
 70
     1
102
RTVSPost2010Prop50
 90
       50
102
RTVSPost2010PropOp50
 70
     1
102
RTVSPost2010Prop51ColorIndex
 90
      256
102
RTVSPost2010Prop51ColorRGB
 90
-16777216
102
RTVSPost2010PropOp51
 70
     0
102
RTVSPost2010Prop52
140
1.0
102
RTVSPost2010PropOp52
 70
     0
102
RTVSPost2010Prop53
 90
        2
102
RTVSPost2010PropOp53
 70
     1
102
RTVSPost2010Prop54
  1
strokes_ogs.tif
102
RTVSPost2010PropOp54
 70
     1
102
RTVSPost2010Prop55
280
     0
102
RTVSPost2010PropOp55
 70
     1
102
RTVSPost2010Prop56
140
1.0
102
RTVSPost2010PropOp56
 70
     1
102
RTVSPost2010Prop57
140
1.0
102
RTVSPost2010PropOp57
 70
     1
102
RTVSPropertyOp0
 70
     1
102
RTVSPropertyOp1
 70
     1
102
RTVSPropertyOp2
 70
     1
102
RTVSPropertyOp3
 70
     1
102
RTVSPropertyOp4
 70
     1
102
RTVSPropertyOp5
 70
     1
102
RTVSPropertyOp6
 70
     1
102
RTVSPropertyOp7
 70
     1
102
RTVSPropertyOp8
 70
     1
102
RTVSPropertyOp9
 70
     1
102
RTVSPropertyOp10
 70
     1
102
RTVSPropertyOp11
 70
     1
102
RTVSPropertyOp12
 70
     1
102
RTVSPropertyOp13
 70
     1
102
RTVSPropertyOp14
 70
     1
102
RTVSPropertyOp15
 70
     1
102
RTVSPropertyOp16
 70
     1
102
RTVSPropertyOp17
 70
     1
102
RTVSPropertyOp18
 70
     1
102
RTVSPropertyOp19
 70
     1
102
RTVSPropertyOp20
 70
     1
102
RTVSPropertyOp21
 70
     1
102
RTVSPropertyOp22
 70
     1
102
RTVSPropertyOp23
 70
     1
102
RTVSPropertyOp24
 70
     1
102
RTVSPropertyOp25
 70
     1
102
RTVSPropertyOp26
 70
     1
102
RTVSPropertyOp27
 70
     1
102
RTVSPropertyOp28
 70
     1
102
RTVSPropertyOp29
 70
     1
102
RTVSPropertyOp30
 70
     1
102
RTVSPropertyOp31
 70
     1
102
RTVSPropertyOp32
 70
     1
102
RTVSPropertyOp33
 70
     1
102
RTVSPropertyOp34
 70
     1
102
RTVSPropertyOp35
 70
     1
102
RTVSPropertyOp36
 70
     1
102
RTVSPropertyOp37
 70
     1
102
RTVSPropertyOp38
 70
     1
102
RTVSPropertyOp39
 70
     1
102
RTVSPropertyOp40
 70
     1
102
RTVSPropertyOp41
 70
     1
102
RTVSPropertyOp42
 70
     1
102
RTVSPropertyOp43
 70
     1
102
RTVSPropertyOp44
 70
     1
102
RTVSPropertyOp45
 70
     1
102
RTVSPropertyOp46
 70
     1
102
RTVSPropertyOp47
 70
     1
102
RTVSPropertyOp48
 70
     1
102
RTVSPropertyOp49
 70
     1
102
RTVSPropertyOp50
 70
     1
102
RTVSPropertyOp51
 70
     0
102
RTVSPropertyOp52
 70
     0
102
RTVSPropertyOp53
 70
     1
102
RTVSPropertyOp54
 70
     1
102
RTVSPropertyOp55
 70
     1
102
RTVSPropertyOp56
 70
     1
102
RTVSPropertyOp57
 70
     1
102
RTVSPropertyOp58
 70
     1
102
RTVSPropertyOp59
 70
     1
102
RTVSPropertyOp60
 70
     1
102
RTVSPropertyOp61
 70
     1
102
RTVSPropertyOp62
 70
     1
  0
XRECORD
  5
10255
102
{ACAD_REACTORS
330
10254
102
}
330
10254
100
AcDbXrecord
280
     1
102
RTVSPost2010Prop28
280
     0
102
RTVSPost2010PropOp28
 70
     1
102
RTVSPost2010Prop29
280
     1
102
RTVSPost2010PropOp29
 70
     1
102
RTVSPost2010Prop30
280
     1
102
RTVSPost2010PropOp30
 70
     1
102
RTVSPost2010Prop31
280
     0
102
RTVSPost2010PropOp31
 70
     1
102
RTVSPost2010Prop32
280
     0
102
RTVSPost2010PropOp32
 70
     1
102
RTVSPost2010Prop33
280
     0
102
RTVSPost2010PropOp33
 70
     1
102
RTVSPost2010Prop34
280
     0
102
RTVSPost2010PropOp34
 70
     1
102
RTVSPost2010Prop35
280
     0
102
RTVSPost2010PropOp35
 70
     1
102
RTVSPost2010Prop36
280
     0
102
RTVSPost2010PropOp36
 70
     1
102
RTVSPost2010Prop37
 90
       50
102
RTVSPost2010PropOp37
 70
     0
102
RTVSPost2010Prop38
140
0.0
102
RTVSPost2010PropOp38
 70
     0
102
RTVSPost2010Prop39
140
1.0
102
RTVSPost2010PropOp39
 70
     0
102
RTVSPost2010Prop40
 90
        0
102
RTVSPost2010PropOp40
 70
     0
102
RTVSPost2010Prop41ColorIndex
 90
       18
102
RTVSPost2010Prop41ColorRGB
 90
        0
102
RTVSPost2010PropOp41
 70
     0
102
RTVSPost2010Prop42
 90
       50
102
RTVSPost2010PropOp42
 70
     0
102
RTVSPost2010Prop43
 90
        3
102
RTVSPost2010PropOp43
 70
     0
102
RTVSPost2010Prop44ColorIndex
 90
        5
102
RTVSPost2010Prop44ColorRGB
 90
      255
102
RTVSPost2010PropOp44
 70
     0
102
RTVSPost2010Prop45
280
     0
102
RTVSPost2010PropOp45
 70
     1
102
RTVSPost2010Prop46
 90
       50
102
RTVSPost2010PropOp46
 70
     0
102
RTVSPost2010Prop47
 90
       50
102
RTVSPost2010PropOp47
 70
     0
102
RTVSPost2010Prop48
 90
       50
102
RTVSPost2010PropOp48
 70
     0
102
RTVSPost2010Prop49
280
     0
102
RTVSPost2010PropOp49
 70
     1
102
RTVSPost2010Prop50
 90
       50
102
RTVSPost2010PropOp50
 70
     0
102
RTVSPost2010Prop51ColorIndex
 90
      256
102
RTVSPost2010Prop51ColorRGB
 90
-16777216
102
RTVSPost2010PropOp51
 70
     0
102
RTVSPost2010Prop52
140
1.0
102
RTVSPost2010PropOp52
 70
     0
102
RTVSPost2010Prop53
 90
        2
102
RTVSPost2010PropOp53
 70
     0
102
RTVSPost2010Prop54
  1
strokes_ogs.tif
102
RTVSPost2010PropOp54
 70
     0
102
RTVSPost2010Prop55
280
     0
102
RTVSPost2010PropOp55
 70
     1
102
RTVSPost2010Prop56
140
1.0
102
RTVSPost2010PropOp56
 70
     0
102
RTVSPost2010Prop57
140
1.0
102
RTVSPost2010PropOp57
 70
     0
102
RTVSPropertyOp0
 70
     0
102
RTVSPropertyOp1
 70
     0
102
RTVSPropertyOp2
 70
     0
102
RTVSPropertyOp3
 70
     0
102
RTVSPropertyOp4
 70
     0
102
RTVSPropertyOp5
 70
     0
102
RTVSPropertyOp6
 70
     0
102
RTVSPropertyOp7
 70
     0
102
RTVSPropertyOp8
 70
     0
102
RTVSPropertyOp9
 70
     0
102
RTVSPropertyOp10
 70
     0
102
RTVSPropertyOp11
 70
     0
102
RTVSPropertyOp12
 70
     0
102
RTVSPropertyOp13
 70
     0
102
RTVSPropertyOp14
 70
     2
102
RTVSPropertyOp15
 70
     0
102
RTVSPropertyOp16
 70
     0
102
RTVSPropertyOp17
 70
     0
102
RTVSPropertyOp18
 70
     0
102
RTVSPropertyOp19
 70
     0
102
RTVSPropertyOp20
 70
     0
102
RTVSPropertyOp21
 70
     0
102
RTVSPropertyOp22
 70
     0
102
RTVSPropertyOp23
 70
     0
102
RTVSPropertyOp24
 70
     0
102
RTVSPropertyOp25
 70
     0
102
RTVSPropertyOp26
 70
     0
102
RTVSPropertyOp27
 70
     0
102
RTVSPropertyOp28
 70
     1
102
RTVSPropertyOp29
 70
     1
102
RTVSPropertyOp30
 70
     1
102
RTVSPropertyOp31
 70
     1
102
RTVSPropertyOp32
 70
     1
102
RTVSPropertyOp33
 70
     1
102
RTVSPropertyOp34
 70
     1
102
RTVSPropertyOp35
 70
     1
102
RTVSPropertyOp36
 70
     1
102
RTVSPropertyOp37
 70
     0
102
RTVSPropertyOp38
 70
     0
102
RTVSPropertyOp39
 70
     0
102
RTVSPropertyOp40
 70
     0
102
RTVSPropertyOp41
 70
     0
102
RTVSPropertyOp42
 70
     0
102
RTVSPropertyOp43
 70
     0
102
RTVSPropertyOp44
 70
     0
102
RTVSPropertyOp45
 70
     1
102
RTVSPropertyOp46
 70
     0
102
RTVSPropertyOp47
 70
     0
102
RTVSPropertyOp48
 70
     0
102
RTVSPropertyOp49
 70
     1
102
RTVSPropertyOp50
 70
     0
102
RTVSPropertyOp51
 70
     0
102
RTVSPropertyOp52
 70
     0
102
RTVSPropertyOp53
 70
     0
102
RTVSPropertyOp54
 70
     0
102
RTVSPropertyOp55
 70
     1
102
RTVSPropertyOp56
 70
     0
102
RTVSPropertyOp57
 70
     0
102
RTVSPropertyOp58
 70
     1
102
RTVSPropertyOp59
 70
     1
102
RTVSPropertyOp60
 70
     1
102
RTVSPropertyOp61
 70
     1
102
RTVSPropertyOp62
 70
     1
  0
XRECORD
  5
10243
102
{ACAD_REACTORS
330
10242
102
}
330
10242
100
AcDbXrecord
280
     1
102
RTVSPost2010Prop28
280
     0
102
RTVSPost2010PropOp28
 70
     1
102
RTVSPost2010Prop29
280
     1
102
RTVSPost2010PropOp29
 70
     1
102
RTVSPost2010Prop30
280
     1
102
RTVSPost2010PropOp30
 70
     1
102
RTVSPost2010Prop31
280
     0
102
RTVSPost2010PropOp31
 70
     1
102
RTVSPost2010Prop32
280
     0
102
RTVSPost2010PropOp32
 70
     1
102
RTVSPost2010Prop33
280
     0
102
RTVSPost2010PropOp33
 70
     1
102
RTVSPost2010Prop34
280
     0
102
RTVSPost2010PropOp34
 70
     1
102
RTVSPost2010Prop35
280
     0
102
RTVSPost2010PropOp35
 70
     1
102
RTVSPost2010Prop36
280
     0
102
RTVSPost2010PropOp36
 70
     1
102
RTVSPost2010Prop37
 90
       50
102
RTVSPost2010PropOp37
 70
     1
102
RTVSPost2010Prop38
140
0.0
102
RTVSPost2010PropOp38
 70
     1
102
RTVSPost2010Prop39
140
1.0
102
RTVSPost2010PropOp39
 70
     1
102
RTVSPost2010Prop40
 90
        0
102
RTVSPost2010PropOp40
 70
     1
102
RTVSPost2010Prop41ColorIndex
 90
       18
102
RTVSPost2010Prop41ColorRGB
 90
        0
102
RTVSPost2010PropOp41
 70
     1
102
RTVSPost2010Prop42
 90
       50
102
RTVSPost2010PropOp42
 70
     1
102
RTVSPost2010Prop43
 90
        3
102
RTVSPost2010PropOp43
 70
     1
102
RTVSPost2010Prop44ColorIndex
 90
        5
102
RTVSPost2010Prop44ColorRGB
 90
      255
102
RTVSPost2010PropOp44
 70
     1
102
RTVSPost2010Prop45
280
     0
102
RTVSPost2010PropOp45
 70
     1
102
RTVSPost2010Prop46
 90
       50
102
RTVSPost2010PropOp46
 70
     1
102
RTVSPost2010Prop47
 90
       50
102
RTVSPost2010PropOp47
 70
     1
102
RTVSPost2010Prop48
 90
       50
102
RTVSPost2010PropOp48
 70
     1
102
RTVSPost2010Prop49
280
     0
102
RTVSPost2010PropOp49
 70
     1
102
RTVSPost2010Prop50
 90
       50
102
RTVSPost2010PropOp50
 70
     1
102
RTVSPost2010Prop51ColorIndex
 90
      256
102
RTVSPost2010Prop51ColorRGB
 90
-16777216
102
RTVSPost2010PropOp51
 70
     0
102
RTVSPost2010Prop52
140
1.0
102
RTVSPost2010PropOp52
 70
     0
102
RTVSPost2010Prop53
 90
        2
102
RTVSPost2010PropOp53
 70
     1
102
RTVSPost2010Prop54
  1
strokes_ogs.tif
102
RTVSPost2010PropOp54
 70
     1
102
RTVSPost2010Prop55
280
     0
102
RTVSPost2010PropOp55
 70
     1
102
RTVSPost2010Prop56
140
1.0
102
RTVSPost2010PropOp56
 70
     1
102
RTVSPost2010Prop57
140
1.0
102
RTVSPost2010PropOp57
 70
     1
102
RTVSPropertyOp0
 70
     1
102
RTVSPropertyOp1
 70
     1
102
RTVSPropertyOp2
 70
     1
102
RTVSPropertyOp3
 70
     1
102
RTVSPropertyOp4
 70
     1
102
RTVSPropertyOp5
 70
     1
102
RTVSPropertyOp6
 70
     1
102
RTVSPropertyOp7
 70
     1
102
RTVSPropertyOp8
 70
     1
102
RTVSPropertyOp9
 70
     1
102
RTVSPropertyOp10
 70
     1
102
RTVSPropertyOp11
 70
     1
102
RTVSPropertyOp12
 70
     1
102
RTVSPropertyOp13
 70
     1
102
RTVSPropertyOp14
 70
     1
102
RTVSPropertyOp15
 70
     1
102
RTVSPropertyOp16
 70
     1
102
RTVSPropertyOp17
 70
     1
102
RTVSPropertyOp18
 70
     1
102
RTVSPropertyOp19
 70
     1
102
RTVSPropertyOp20
 70
     1
102
RTVSPropertyOp21
 70
     1
102
RTVSPropertyOp22
 70
     1
102
RTVSPropertyOp23
 70
     1
102
RTVSPropertyOp24
 70
     1
102
RTVSPropertyOp25
 70
     1
102
RTVSPropertyOp26
 70
     1
102
RTVSPropertyOp27
 70
     1
102
RTVSPropertyOp28
 70
     1
102
RTVSPropertyOp29
 70
     1
102
RTVSPropertyOp30
 70
     1
102
RTVSPropertyOp31
 70
     1
102
RTVSPropertyOp32
 70
     1
102
RTVSPropertyOp33
 70
     1
102
RTVSPropertyOp34
 70
     1
102
RTVSPropertyOp35
 70
     1
102
RTVSPropertyOp36
 70
     1
102
RTVSPropertyOp37
 70
     1
102
RTVSPropertyOp38
 70
     1
102
RTVSPropertyOp39
 70
     1
102
RTVSPropertyOp40
 70
     1
102
RTVSPropertyOp41
 70
     1
102
RTVSPropertyOp42
 70
     1
102
RTVSPropertyOp43
 70
     1
102
RTVSPropertyOp44
 70
     1
102
RTVSPropertyOp45
 70
     1
102
RTVSPropertyOp46
 70
     1
102
RTVSPropertyOp47
 70
     1
102
RTVSPropertyOp48
 70
     1
102
RTVSPropertyOp49
 70
     1
102
RTVSPropertyOp50
 70
     1
102
RTVSPropertyOp51
 70
     0
102
RTVSPropertyOp52
 70
     0
102
RTVSPropertyOp53
 70
     1
102
RTVSPropertyOp54
 70
     1
102
RTVSPropertyOp55
 70
     1
102
RTVSPropertyOp56
 70
     1
102
RTVSPropertyOp57
 70
     1
102
RTVSPropertyOp58
 70
     1
102
RTVSPropertyOp59
 70
     1
102
RTVSPropertyOp60
 70
     1
102
RTVSPropertyOp61
 70
     1
102
RTVSPropertyOp62
 70
     1
  0
XRECORD
  5
10227
102
{ACAD_REACTORS
330
10226
102
}
330
10226
100
AcDbXrecord
280
     1
102
RTVSPost2010Prop28
280
     0
102
RTVSPost2010PropOp28
 70
     1
102
RTVSPost2010Prop29
280
     1
102
RTVSPost2010PropOp29
 70
     1
102
RTVSPost2010Prop30
280
     1
102
RTVSPost2010PropOp30
 70
     1
102
RTVSPost2010Prop31
280
     0
102
RTVSPost2010PropOp31
 70
     1
102
RTVSPost2010Prop32
280
     0
102
RTVSPost2010PropOp32
 70
     1
102
RTVSPost2010Prop33
280
     0
102
RTVSPost2010PropOp33
 70
     1
102
RTVSPost2010Prop34
280
     0
102
RTVSPost2010PropOp34
 70
     1
102
RTVSPost2010Prop35
280
     0
102
RTVSPost2010PropOp35
 70
     1
102
RTVSPost2010Prop36
280
     0
102
RTVSPost2010PropOp36
 70
     1
102
RTVSPost2010Prop37
 90
       50
102
RTVSPost2010PropOp37
 70
     1
102
RTVSPost2010Prop38
140
0.0
102
RTVSPost2010PropOp38
 70
     1
102
RTVSPost2010Prop39
140
1.0
102
RTVSPost2010PropOp39
 70
     1
102
RTVSPost2010Prop40
 90
        0
102
RTVSPost2010PropOp40
 70
     1
102
RTVSPost2010Prop41ColorIndex
 90
       18
102
RTVSPost2010Prop41ColorRGB
 90
        0
102
RTVSPost2010PropOp41
 70
     1
102
RTVSPost2010Prop42
 90
       50
102
RTVSPost2010PropOp42
 70
     1
102
RTVSPost2010Prop43
 90
        3
102
RTVSPost2010PropOp43
 70
     1
102
RTVSPost2010Prop44ColorIndex
 90
        5
102
RTVSPost2010Prop44ColorRGB
 90
      255
102
RTVSPost2010PropOp44
 70
     1
102
RTVSPost2010Prop45
280
     0
102
RTVSPost2010PropOp45
 70
     1
102
RTVSPost2010Prop46
 90
       50
102
RTVSPost2010PropOp46
 70
     1
102
RTVSPost2010Prop47
 90
       50
102
RTVSPost2010PropOp47
 70
     1
102
RTVSPost2010Prop48
 90
       50
102
RTVSPost2010PropOp48
 70
     1
102
RTVSPost2010Prop49
280
     0
102
RTVSPost2010PropOp49
 70
     1
102
RTVSPost2010Prop50
 90
       50
102
RTVSPost2010PropOp50
 70
     1
102
RTVSPost2010Prop51ColorIndex
 90
      256
102
RTVSPost2010Prop51ColorRGB
 90
-16777216
102
RTVSPost2010PropOp51
 70
     0
102
RTVSPost2010Prop52
140
1.0
102
RTVSPost2010PropOp52
 70
     0
102
RTVSPost2010Prop53
 90
        2
102
RTVSPost2010PropOp53
 70
     1
102
RTVSPost2010Prop54
  1
strokes_ogs.tif
102
RTVSPost2010PropOp54
 70
     1
102
RTVSPost2010Prop55
280
     0
102
RTVSPost2010PropOp55
 70
     1
102
RTVSPost2010Prop56
140
1.0
102
RTVSPost2010PropOp56
 70
     1
102
RTVSPost2010Prop57
140
1.0
102
RTVSPost2010PropOp57
 70
     1
102
RTVSPropertyOp0
 70
     1
102
RTVSPropertyOp1
 70
     1
102
RTVSPropertyOp2
 70
     1
102
RTVSPropertyOp3
 70
     1
102
RTVSPropertyOp4
 70
     1
102
RTVSPropertyOp5
 70
     1
102
RTVSPropertyOp6
 70
     1
102
RTVSPropertyOp7
 70
     1
102
RTVSPropertyOp8
 70
     1
102
RTVSPropertyOp9
 70
     1
102
RTVSPropertyOp10
 70
     1
102
RTVSPropertyOp11
 70
     1
102
RTVSPropertyOp12
 70
     1
102
RTVSPropertyOp13
 70
     1
102
RTVSPropertyOp14
 70
     1
102
RTVSPropertyOp15
 70
     1
102
RTVSPropertyOp16
 70
     1
102
RTVSPropertyOp17
 70
     1
102
RTVSPropertyOp18
 70
     1
102
RTVSPropertyOp19
 70
     1
102
RTVSPropertyOp20
 70
     1
102
RTVSPropertyOp21
 70
     1
102
RTVSPropertyOp22
 70
     1
102
RTVSPropertyOp23
 70
     1
102
RTVSPropertyOp24
 70
     1
102
RTVSPropertyOp25
 70
     1
102
RTVSPropertyOp26
 70
     1
102
RTVSPropertyOp27
 70
     1
102
RTVSPropertyOp28
 70
     1
102
RTVSPropertyOp29
 70
     1
102
RTVSPropertyOp30
 70
     1
102
RTVSPropertyOp31
 70
     1
102
RTVSPropertyOp32
 70
     1
102
RTVSPropertyOp33
 70
     1
102
RTVSPropertyOp34
 70
     1
102
RTVSPropertyOp35
 70
     1
102
RTVSPropertyOp36
 70
     1
102
RTVSPropertyOp37
 70
     1
102
RTVSPropertyOp38
 70
     1
102
RTVSPropertyOp39
 70
     1
102
RTVSPropertyOp40
 70
     1
102
RTVSPropertyOp41
 70
     1
102
RTVSPropertyOp42
 70
     1
102
RTVSPropertyOp43
 70
     1
102
RTVSPropertyOp44
 70
     1
102
RTVSPropertyOp45
 70
     1
102
RTVSPropertyOp46
 70
     1
102
RTVSPropertyOp47
 70
     1
102
RTVSPropertyOp48
 70
     1
102
RTVSPropertyOp49
 70
     1
102
RTVSPropertyOp50
 70
     1
102
RTVSPropertyOp51
 70
     0
102
RTVSPropertyOp52
 70
     0
102
RTVSPropertyOp53
 70
     1
102
RTVSPropertyOp54
 70
     1
102
RTVSPropertyOp55
 70
     1
102
RTVSPropertyOp56
 70
     1
102
RTVSPropertyOp57
 70
     1
102
RTVSPropertyOp58
 70
     1
102
RTVSPropertyOp59
 70
     1
102
RTVSPropertyOp60
 70
     1
102
RTVSPropertyOp61
 70
     1
102
RTVSPropertyOp62
 70
     1
  0
XRECORD
  5
10229
102
{ACAD_REACTORS
330
10228
102
}
330
10228
100
AcDbXrecord
280
     1
102
RTVSPost2010Prop28
280
     0
102
RTVSPost2010PropOp28
 70
     1
102
RTVSPost2010Prop29
280
     1
102
RTVSPost2010PropOp29
 70
     1
102
RTVSPost2010Prop30
280
     1
102
RTVSPost2010PropOp30
 70
     1
102
RTVSPost2010Prop31
280
     0
102
RTVSPost2010PropOp31
 70
     1
102
RTVSPost2010Prop32
280
     0
102
RTVSPost2010PropOp32
 70
     1
102
RTVSPost2010Prop33
280
     0
102
RTVSPost2010PropOp33
 70
     1
102
RTVSPost2010Prop34
280
     0
102
RTVSPost2010PropOp34
 70
     1
102
RTVSPost2010Prop35
280
     0
102
RTVSPost2010PropOp35
 70
     1
102
RTVSPost2010Prop36
280
     0
102
RTVSPost2010PropOp36
 70
     1
102
RTVSPost2010Prop37
 90
       50
102
RTVSPost2010PropOp37
 70
     1
102
RTVSPost2010Prop38
140
0.0
102
RTVSPost2010PropOp38
 70
     1
102
RTVSPost2010Prop39
140
1.0
102
RTVSPost2010PropOp39
 70
     1
102
RTVSPost2010Prop40
 90
        0
102
RTVSPost2010PropOp40
 70
     1
102
RTVSPost2010Prop41ColorIndex
 90
       18
102
RTVSPost2010Prop41ColorRGB
 90
        0
102
RTVSPost2010PropOp41
 70
     1
102
RTVSPost2010Prop42
 90
       50
102
RTVSPost2010PropOp42
 70
     1
102
RTVSPost2010Prop43
 90
        3
102
RTVSPost2010PropOp43
 70
     1
102
RTVSPost2010Prop44ColorIndex
 90
        5
102
RTVSPost2010Prop44ColorRGB
 90
      255
102
RTVSPost2010PropOp44
 70
     1
102
RTVSPost2010Prop45
280
     0
102
RTVSPost2010PropOp45
 70
     1
102
RTVSPost2010Prop46
 90
       50
102
RTVSPost2010PropOp46
 70
     1
102
RTVSPost2010Prop47
 90
       50
102
RTVSPost2010PropOp47
 70
     1
102
RTVSPost2010Prop48
 90
       50
102
RTVSPost2010PropOp48
 70
     1
102
RTVSPost2010Prop49
280
     0
102
RTVSPost2010PropOp49
 70
     1
102
RTVSPost2010Prop50
 90
       50
102
RTVSPost2010PropOp50
 70
     1
102
RTVSPost2010Prop51ColorIndex
 90
      256
102
RTVSPost2010Prop51ColorRGB
 90
-16777216
102
RTVSPost2010PropOp51
 70
     0
102
RTVSPost2010Prop52
140
1.0
102
RTVSPost2010PropOp52
 70
     0
102
RTVSPost2010Prop53
 90
        2
102
RTVSPost2010PropOp53
 70
     1
102
RTVSPost2010Prop54
  1
strokes_ogs.tif
102
RTVSPost2010PropOp54
 70
     1
102
RTVSPost2010Prop55
280
     0
102
RTVSPost2010PropOp55
 70
     1
102
RTVSPost2010Prop56
140
1.0
102
RTVSPost2010PropOp56
 70
     1
102
RTVSPost2010Prop57
140
1.0
102
RTVSPost2010PropOp57
 70
     1
102
RTVSPropertyOp0
 70
     1
102
RTVSPropertyOp1
 70
     1
102
RTVSPropertyOp2
 70
     1
102
RTVSPropertyOp3
 70
     1
102
RTVSPropertyOp4
 70
     1
102
RTVSPropertyOp5
 70
     1
102
RTVSPropertyOp6
 70
     1
102
RTVSPropertyOp7
 70
     1
102
RTVSPropertyOp8
 70
     1
102
RTVSPropertyOp9
 70
     1
102
RTVSPropertyOp10
 70
     1
102
RTVSPropertyOp11
 70
     1
102
RTVSPropertyOp12
 70
     1
102
RTVSPropertyOp13
 70
     1
102
RTVSPropertyOp14
 70
     1
102
RTVSPropertyOp15
 70
     1
102
RTVSPropertyOp16
 70
     1
102
RTVSPropertyOp17
 70
     1
102
RTVSPropertyOp18
 70
     1
102
RTVSPropertyOp19
 70
     1
102
RTVSPropertyOp20
 70
     1
102
RTVSPropertyOp21
 70
     1
102
RTVSPropertyOp22
 70
     1
102
RTVSPropertyOp23
 70
     1
102
RTVSPropertyOp24
 70
     1
102
RTVSPropertyOp25
 70
     1
102
RTVSPropertyOp26
 70
     1
102
RTVSPropertyOp27
 70
     1
102
RTVSPropertyOp28
 70
     1
102
RTVSPropertyOp29
 70
     1
102
RTVSPropertyOp30
 70
     1
102
RTVSPropertyOp31
 70
     1
102
RTVSPropertyOp32
 70
     1
102
RTVSPropertyOp33
 70
     1
102
RTVSPropertyOp34
 70
     1
102
RTVSPropertyOp35
 70
     1
102
RTVSPropertyOp36
 70
     1
102
RTVSPropertyOp37
 70
     1
102
RTVSPropertyOp38
 70
     1
102
RTVSPropertyOp39
 70
     1
102
RTVSPropertyOp40
 70
     1
102
RTVSPropertyOp41
 70
     1
102
RTVSPropertyOp42
 70
     1
102
RTVSPropertyOp43
 70
     1
102
RTVSPropertyOp44
 70
     1
102
RTVSPropertyOp45
 70
     1
102
RTVSPropertyOp46
 70
     1
102
RTVSPropertyOp47
 70
     1
102
RTVSPropertyOp48
 70
     1
102
RTVSPropertyOp49
 70
     1
102
RTVSPropertyOp50
 70
     1
102
RTVSPropertyOp51
 70
     0
102
RTVSPropertyOp52
 70
     0
102
RTVSPropertyOp53
 70
     1
102
RTVSPropertyOp54
 70
     1
102
RTVSPropertyOp55
 70
     1
102
RTVSPropertyOp56
 70
     1
102
RTVSPropertyOp57
 70
     1
102
RTVSPropertyOp58
 70
     1
102
RTVSPropertyOp59
 70
     1
102
RTVSPropertyOp60
 70
     1
102
RTVSPropertyOp61
 70
     1
102
RTVSPropertyOp62
 70
     1
  0
XRECORD
  5
1022B
102
{ACAD_REACTORS
330
1022A
102
}
330
1022A
100
AcDbXrecord
280
     1
102
RTVSPost2010Prop28
280
     0
102
RTVSPost2010PropOp28
 70
     1
102
RTVSPost2010Prop29
280
     1
102
RTVSPost2010PropOp29
 70
     1
102
RTVSPost2010Prop30
280
     1
102
RTVSPost2010PropOp30
 70
     1
102
RTVSPost2010Prop31
280
     0
102
RTVSPost2010PropOp31
 70
     1
102
RTVSPost2010Prop32
280
     0
102
RTVSPost2010PropOp32
 70
     1
102
RTVSPost2010Prop33
280
     0
102
RTVSPost2010PropOp33
 70
     1
102
RTVSPost2010Prop34
280
     0
102
RTVSPost2010PropOp34
 70
     1
102
RTVSPost2010Prop35
280
     0
102
RTVSPost2010PropOp35
 70
     1
102
RTVSPost2010Prop36
280
     0
102
RTVSPost2010PropOp36
 70
     1
102
RTVSPost2010Prop37
 90
       50
102
RTVSPost2010PropOp37
 70
     1
102
RTVSPost2010Prop38
140
0.0
102
RTVSPost2010PropOp38
 70
     1
102
RTVSPost2010Prop39
140
1.0
102
RTVSPost2010PropOp39
 70
     1
102
RTVSPost2010Prop40
 90
        0
102
RTVSPost2010PropOp40
 70
     1
102
RTVSPost2010Prop41ColorIndex
 90
       18
102
RTVSPost2010Prop41ColorRGB
 90
        0
102
RTVSPost2010PropOp41
 70
     1
102
RTVSPost2010Prop42
 90
       50
102
RTVSPost2010PropOp42
 70
     1
102
RTVSPost2010Prop43
 90
        3
102
RTVSPost2010PropOp43
 70
     1
102
RTVSPost2010Prop44ColorIndex
 90
        5
102
RTVSPost2010Prop44ColorRGB
 90
      255
102
RTVSPost2010PropOp44
 70
     1
102
RTVSPost2010Prop45
280
     0
102
RTVSPost2010PropOp45
 70
     1
102
RTVSPost2010Prop46
 90
       50
102
RTVSPost2010PropOp46
 70
     1
102
RTVSPost2010Prop47
 90
       50
102
RTVSPost2010PropOp47
 70
     1
102
RTVSPost2010Prop48
 90
       50
102
RTVSPost2010PropOp48
 70
     1
102
RTVSPost2010Prop49
280
     0
102
RTVSPost2010PropOp49
 70
     1
102
RTVSPost2010Prop50
 90
       50
102
RTVSPost2010PropOp50
 70
     1
102
RTVSPost2010Prop51ColorIndex
 90
      256
102
RTVSPost2010Prop51ColorRGB
 90
-16777216
102
RTVSPost2010PropOp51
 70
     0
102
RTVSPost2010Prop52
140
1.0
102
RTVSPost2010PropOp52
 70
     0
102
RTVSPost2010Prop53
 90
        2
102
RTVSPost2010PropOp53
 70
     1
102
RTVSPost2010Prop54
  1
strokes_ogs.tif
102
RTVSPost2010PropOp54
 70
     1
102
RTVSPost2010Prop55
280
     0
102
RTVSPost2010PropOp55
 70
     1
102
RTVSPost2010Prop56
140
1.0
102
RTVSPost2010PropOp56
 70
     1
102
RTVSPost2010Prop57
140
1.0
102
RTVSPost2010PropOp57
 70
     1
102
RTVSPropertyOp0
 70
     1
102
RTVSPropertyOp1
 70
     1
102
RTVSPropertyOp2
 70
     1
102
RTVSPropertyOp3
 70
     1
102
RTVSPropertyOp4
 70
     1
102
RTVSPropertyOp5
 70
     1
102
RTVSPropertyOp6
 70
     1
102
RTVSPropertyOp7
 70
     1
102
RTVSPropertyOp8
 70
     1
102
RTVSPropertyOp9
 70
     1
102
RTVSPropertyOp10
 70
     1
102
RTVSPropertyOp11
 70
     1
102
RTVSPropertyOp12
 70
     1
102
RTVSPropertyOp13
 70
     1
102
RTVSPropertyOp14
 70
     1
102
RTVSPropertyOp15
 70
     1
102
RTVSPropertyOp16
 70
     1
102
RTVSPropertyOp17
 70
     1
102
RTVSPropertyOp18
 70
     1
102
RTVSPropertyOp19
 70
     1
102
RTVSPropertyOp20
 70
     1
102
RTVSPropertyOp21
 70
     1
102
RTVSPropertyOp22
 70
     1
102
RTVSPropertyOp23
 70
     1
102
RTVSPropertyOp24
 70
     1
102
RTVSPropertyOp25
 70
     1
102
RTVSPropertyOp26
 70
     1
102
RTVSPropertyOp27
 70
     1
102
RTVSPropertyOp28
 70
     1
102
RTVSPropertyOp29
 70
     1
102
RTVSPropertyOp30
 70
     1
102
RTVSPropertyOp31
 70
     1
102
RTVSPropertyOp32
 70
     1
102
RTVSPropertyOp33
 70
     1
102
RTVSPropertyOp34
 70
     1
102
RTVSPropertyOp35
 70
     1
102
RTVSPropertyOp36
 70
     1
102
RTVSPropertyOp37
 70
     1
102
RTVSPropertyOp38
 70
     1
102
RTVSPropertyOp39
 70
     1
102
RTVSPropertyOp40
 70
     1
102
RTVSPropertyOp41
 70
     1
102
RTVSPropertyOp42
 70
     1
102
RTVSPropertyOp43
 70
     1
102
RTVSPropertyOp44
 70
     1
102
RTVSPropertyOp45
 70
     1
102
RTVSPropertyOp46
 70
     1
102
RTVSPropertyOp47
 70
     1
102
RTVSPropertyOp48
 70
     1
102
RTVSPropertyOp49
 70
     1
102
RTVSPropertyOp50
 70
     1
102
RTVSPropertyOp51
 70
     0
102
RTVSPropertyOp52
 70
     0
102
RTVSPropertyOp53
 70
     1
102
RTVSPropertyOp54
 70
     1
102
RTVSPropertyOp55
 70
     1
102
RTVSPropertyOp56
 70
     1
102
RTVSPropertyOp57
 70
     1
102
RTVSPropertyOp58
 70
     1
102
RTVSPropertyOp59
 70
     1
102
RTVSPropertyOp60
 70
     1
102
RTVSPropertyOp61
 70
     1
102
RTVSPropertyOp62
 70
     1
  0
XRECORD
  5
1022D
102
{ACAD_REACTORS
330
1022C
102
}
330
1022C
100
AcDbXrecord
280
     1
102
RTVSPost2010Prop28
280
     0
102
RTVSPost2010PropOp28
 70
     1
102
RTVSPost2010Prop29
280
     1
102
RTVSPost2010PropOp29
 70
     1
102
RTVSPost2010Prop30
280
     1
102
RTVSPost2010PropOp30
 70
     1
102
RTVSPost2010Prop31
280
     0
102
RTVSPost2010PropOp31
 70
     1
102
RTVSPost2010Prop32
280
     0
102
RTVSPost2010PropOp32
 70
     1
102
RTVSPost2010Prop33
280
     0
102
RTVSPost2010PropOp33
 70
     1
102
RTVSPost2010Prop34
280
     0
102
RTVSPost2010PropOp34
 70
     1
102
RTVSPost2010Prop35
280
     0
102
RTVSPost2010PropOp35
 70
     1
102
RTVSPost2010Prop36
280
     0
102
RTVSPost2010PropOp36
 70
     1
102
RTVSPost2010Prop37
 90
       50
102
RTVSPost2010PropOp37
 70
     1
102
RTVSPost2010Prop38
140
0.0
102
RTVSPost2010PropOp38
 70
     1
102
RTVSPost2010Prop39
140
1.0
102
RTVSPost2010PropOp39
 70
     1
102
RTVSPost2010Prop40
 90
        0
102
RTVSPost2010PropOp40
 70
     1
102
RTVSPost2010Prop41ColorIndex
 90
       18
102
RTVSPost2010Prop41ColorRGB
 90
        0
102
RTVSPost2010PropOp41
 70
     1
102
RTVSPost2010Prop42
 90
       50
102
RTVSPost2010PropOp42
 70
     1
102
RTVSPost2010Prop43
 90
        3
102
RTVSPost2010PropOp43
 70
     1
102
RTVSPost2010Prop44ColorIndex
 90
        5
102
RTVSPost2010Prop44ColorRGB
 90
      255
102
RTVSPost2010PropOp44
 70
     1
102
RTVSPost2010Prop45
280
     0
102
RTVSPost2010PropOp45
 70
     1
102
RTVSPost2010Prop46
 90
       50
102
RTVSPost2010PropOp46
 70
     1
102
RTVSPost2010Prop47
 90
       50
102
RTVSPost2010PropOp47
 70
     1
102
RTVSPost2010Prop48
 90
       50
102
RTVSPost2010PropOp48
 70
     1
102
RTVSPost2010Prop49
280
     0
102
RTVSPost2010PropOp49
 70
     1
102
RTVSPost2010Prop50
 90
       50
102
RTVSPost2010PropOp50
 70
     1
102
RTVSPost2010Prop51ColorIndex
 90
      256
102
RTVSPost2010Prop51ColorRGB
 90
-16777216
102
RTVSPost2010PropOp51
 70
     0
102
RTVSPost2010Prop52
140
1.0
102
RTVSPost2010PropOp52
 70
     0
102
RTVSPost2010Prop53
 90
        2
102
RTVSPost2010PropOp53
 70
     1
102
RTVSPost2010Prop54
  1
strokes_ogs.tif
102
RTVSPost2010PropOp54
 70
     1
102
RTVSPost2010Prop55
280
     0
102
RTVSPost2010PropOp55
 70
     1
102
RTVSPost2010Prop56
140
1.0
102
RTVSPost2010PropOp56
 70
     1
102
RTVSPost2010Prop57
140
1.0
102
RTVSPost2010PropOp57
 70
     1
102
RTVSPropertyOp0
 70
     1
102
RTVSPropertyOp1
 70
     1
102
RTVSPropertyOp2
 70
     1
102
RTVSPropertyOp3
 70
     1
102
RTVSPropertyOp4
 70
     1
102
RTVSPropertyOp5
 70
     1
102
RTVSPropertyOp6
 70
     1
102
RTVSPropertyOp7
 70
     1
102
RTVSPropertyOp8
 70
     1
102
RTVSPropertyOp9
 70
     1
102
RTVSPropertyOp10
 70
     1
102
RTVSPropertyOp11
 70
     1
102
RTVSPropertyOp12
 70
     1
102
RTVSPropertyOp13
 70
     1
102
RTVSPropertyOp14
 70
     1
102
RTVSPropertyOp15
 70
     1
102
RTVSPropertyOp16
 70
     1
102
RTVSPropertyOp17
 70
     1
102
RTVSPropertyOp18
 70
     1
102
RTVSPropertyOp19
 70
     1
102
RTVSPropertyOp20
 70
     1
102
RTVSPropertyOp21
 70
     1
102
RTVSPropertyOp22
 70
     1
102
RTVSPropertyOp23
 70
     1
102
RTVSPropertyOp24
 70
     1
102
RTVSPropertyOp25
 70
     1
102
RTVSPropertyOp26
 70
     1
102
RTVSPropertyOp27
 70
     1
102
RTVSPropertyOp28
 70
     1
102
RTVSPropertyOp29
 70
     1
102
RTVSPropertyOp30
 70
     1
102
RTVSPropertyOp31
 70
     1
102
RTVSPropertyOp32
 70
     1
102
RTVSPropertyOp33
 70
     1
102
RTVSPropertyOp34
 70
     1
102
RTVSPropertyOp35
 70
     1
102
RTVSPropertyOp36
 70
     1
102
RTVSPropertyOp37
 70
     1
102
RTVSPropertyOp38
 70
     1
102
RTVSPropertyOp39
 70
     1
102
RTVSPropertyOp40
 70
     1
102
RTVSPropertyOp41
 70
     1
102
RTVSPropertyOp42
 70
     1
102
RTVSPropertyOp43
 70
     1
102
RTVSPropertyOp44
 70
     1
102
RTVSPropertyOp45
 70
     1
102
RTVSPropertyOp46
 70
     1
102
RTVSPropertyOp47
 70
     1
102
RTVSPropertyOp48
 70
     1
102
RTVSPropertyOp49
 70
     1
102
RTVSPropertyOp50
 70
     1
102
RTVSPropertyOp51
 70
     0
102
RTVSPropertyOp52
 70
     0
102
RTVSPropertyOp53
 70
     1
102
RTVSPropertyOp54
 70
     1
102
RTVSPropertyOp55
 70
     1
102
RTVSPropertyOp56
 70
     1
102
RTVSPropertyOp57
 70
     1
102
RTVSPropertyOp58
 70
     1
102
RTVSPropertyOp59
 70
     1
102
RTVSPropertyOp60
 70
     1
102
RTVSPropertyOp61
 70
     1
102
RTVSPropertyOp62
 70
     1
  0
XRECORD
  5
10235
102
{ACAD_REACTORS
330
10234
102
}
330
10234
100
AcDbXrecord
280
     1
102
RTVSPost2010Prop28
280
     0
102
RTVSPost2010PropOp28
 70
     1
102
RTVSPost2010Prop29
280
     1
102
RTVSPost2010PropOp29
 70
     1
102
RTVSPost2010Prop30
280
     1
102
RTVSPost2010PropOp30
 70
     1
102
RTVSPost2010Prop31
280
     0
102
RTVSPost2010PropOp31
 70
     1
102
RTVSPost2010Prop32
280
     0
102
RTVSPost2010PropOp32
 70
     1
102
RTVSPost2010Prop33
280
     0
102
RTVSPost2010PropOp33
 70
     1
102
RTVSPost2010Prop34
280
     0
102
RTVSPost2010PropOp34
 70
     1
102
RTVSPost2010Prop35
280
     0
102
RTVSPost2010PropOp35
 70
     1
102
RTVSPost2010Prop36
280
     0
102
RTVSPost2010PropOp36
 70
     1
102
RTVSPost2010Prop37
 90
       50
102
RTVSPost2010PropOp37
 70
     1
102
RTVSPost2010Prop38
140
0.0
102
RTVSPost2010PropOp38
 70
     1
102
RTVSPost2010Prop39
140
1.0
102
RTVSPost2010PropOp39
 70
     1
102
RTVSPost2010Prop40
 90
        0
102
RTVSPost2010PropOp40
 70
     1
102
RTVSPost2010Prop41ColorIndex
 90
       18
102
RTVSPost2010Prop41ColorRGB
 90
        0
102
RTVSPost2010PropOp41
 70
     1
102
RTVSPost2010Prop42
 90
       50
102
RTVSPost2010PropOp42
 70
     1
102
RTVSPost2010Prop43
 90
        3
102
RTVSPost2010PropOp43
 70
     1
102
RTVSPost2010Prop44ColorIndex
 90
        5
102
RTVSPost2010Prop44ColorRGB
 90
      255
102
RTVSPost2010PropOp44
 70
     1
102
RTVSPost2010Prop45
280
     0
102
RTVSPost2010PropOp45
 70
     1
102
RTVSPost2010Prop46
 90
       50
102
RTVSPost2010PropOp46
 70
     1
102
RTVSPost2010Prop47
 90
       50
102
RTVSPost2010PropOp47
 70
     1
102
RTVSPost2010Prop48
 90
       50
102
RTVSPost2010PropOp48
 70
     1
102
RTVSPost2010Prop49
280
     0
102
RTVSPost2010PropOp49
 70
     1
102
RTVSPost2010Prop50
 90
       50
102
RTVSPost2010PropOp50
 70
     1
102
RTVSPost2010Prop51ColorIndex
 90
      256
102
RTVSPost2010Prop51ColorRGB
 90
-16777216
102
RTVSPost2010PropOp51
 70
     0
102
RTVSPost2010Prop52
140
1.0
102
RTVSPost2010PropOp52
 70
     0
102
RTVSPost2010Prop53
 90
        2
102
RTVSPost2010PropOp53
 70
     1
102
RTVSPost2010Prop54
  1
strokes_ogs.tif
102
RTVSPost2010PropOp54
 70
     1
102
RTVSPost2010Prop55
280
     0
102
RTVSPost2010PropOp55
 70
     1
102
RTVSPost2010Prop56
140
1.0
102
RTVSPost2010PropOp56
 70
     1
102
RTVSPost2010Prop57
140
1.0
102
RTVSPost2010PropOp57
 70
     1
102
RTVSPropertyOp0
 70
     1
102
RTVSPropertyOp1
 70
     1
102
RTVSPropertyOp2
 70
     1
102
RTVSPropertyOp3
 70
     1
102
RTVSPropertyOp4
 70
     1
102
RTVSPropertyOp5
 70
     1
102
RTVSPropertyOp6
 70
     1
102
RTVSPropertyOp7
 70
     1
102
RTVSPropertyOp8
 70
     1
102
RTVSPropertyOp9
 70
     1
102
RTVSPropertyOp10
 70
     1
102
RTVSPropertyOp11
 70
     1
102
RTVSPropertyOp12
 70
     1
102
RTVSPropertyOp13
 70
     1
102
RTVSPropertyOp14
 70
     1
102
RTVSPropertyOp15
 70
     1
102
RTVSPropertyOp16
 70
     1
102
RTVSPropertyOp17
 70
     1
102
RTVSPropertyOp18
 70
     1
102
RTVSPropertyOp19
 70
     1
102
RTVSPropertyOp20
 70
     1
102
RTVSPropertyOp21
 70
     1
102
RTVSPropertyOp22
 70
     1
102
RTVSPropertyOp23
 70
     1
102
RTVSPropertyOp24
 70
     1
102
RTVSPropertyOp25
 70
     1
102
RTVSPropertyOp26
 70
     1
102
RTVSPropertyOp27
 70
     1
102
RTVSPropertyOp28
 70
     1
102
RTVSPropertyOp29
 70
     1
102
RTVSPropertyOp30
 70
     1
102
RTVSPropertyOp31
 70
     1
102
RTVSPropertyOp32
 70
     1
102
RTVSPropertyOp33
 70
     1
102
RTVSPropertyOp34
 70
     1
102
RTVSPropertyOp35
 70
     1
102
RTVSPropertyOp36
 70
     1
102
RTVSPropertyOp37
 70
     1
102
RTVSPropertyOp38
 70
     1
102
RTVSPropertyOp39
 70
     1
102
RTVSPropertyOp40
 70
     1
102
RTVSPropertyOp41
 70
     1
102
RTVSPropertyOp42
 70
     1
102
RTVSPropertyOp43
 70
     1
102
RTVSPropertyOp44
 70
     1
102
RTVSPropertyOp45
 70
     1
102
RTVSPropertyOp46
 70
     1
102
RTVSPropertyOp47
 70
     1
102
RTVSPropertyOp48
 70
     1
102
RTVSPropertyOp49
 70
     1
102
RTVSPropertyOp50
 70
     1
102
RTVSPropertyOp51
 70
     0
102
RTVSPropertyOp52
 70
     0
102
RTVSPropertyOp53
 70
     1
102
RTVSPropertyOp54
 70
     1
102
RTVSPropertyOp55
 70
     1
102
RTVSPropertyOp56
 70
     1
102
RTVSPropertyOp57
 70
     1
102
RTVSPropertyOp58
 70
     1
102
RTVSPropertyOp59
 70
     1
102
RTVSPropertyOp60
 70
     1
102
RTVSPropertyOp61
 70
     1
102
RTVSPropertyOp62
 70
     1
  0
XRECORD
  5
10251
102
{ACAD_REACTORS
330
10250
102
}
330
10250
100
AcDbXrecord
280
     1
102
RTVSPost2010Prop28
280
     0
102
RTVSPost2010PropOp28
 70
     1
102
RTVSPost2010Prop29
280
     1
102
RTVSPost2010PropOp29
 70
     1
102
RTVSPost2010Prop30
280
     1
102
RTVSPost2010PropOp30
 70
     1
102
RTVSPost2010Prop31
280
     0
102
RTVSPost2010PropOp31
 70
     1
102
RTVSPost2010Prop32
280
     0
102
RTVSPost2010PropOp32
 70
     1
102
RTVSPost2010Prop33
280
     0
102
RTVSPost2010PropOp33
 70
     1
102
RTVSPost2010Prop34
280
     0
102
RTVSPost2010PropOp34
 70
     1
102
RTVSPost2010Prop35
280
     0
102
RTVSPost2010PropOp35
 70
     1
102
RTVSPost2010Prop36
280
     0
102
RTVSPost2010PropOp36
 70
     1
102
RTVSPost2010Prop37
 90
       50
102
RTVSPost2010PropOp37
 70
     0
102
RTVSPost2010Prop38
140
0.0
102
RTVSPost2010PropOp38
 70
     0
102
RTVSPost2010Prop39
140
1.0
102
RTVSPost2010PropOp39
 70
     0
102
RTVSPost2010Prop40
 90
        0
102
RTVSPost2010PropOp40
 70
     0
102
RTVSPost2010Prop41ColorIndex
 90
       18
102
RTVSPost2010Prop41ColorRGB
 90
        0
102
RTVSPost2010PropOp41
 70
     0
102
RTVSPost2010Prop42
 90
       50
102
RTVSPost2010PropOp42
 70
     0
102
RTVSPost2010Prop43
 90
        3
102
RTVSPost2010PropOp43
 70
     0
102
RTVSPost2010Prop44ColorIndex
 90
        5
102
RTVSPost2010Prop44ColorRGB
 90
      255
102
RTVSPost2010PropOp44
 70
     0
102
RTVSPost2010Prop45
280
     0
102
RTVSPost2010PropOp45
 70
     1
102
RTVSPost2010Prop46
 90
       50
102
RTVSPost2010PropOp46
 70
     0
102
RTVSPost2010Prop47
 90
       50
102
RTVSPost2010PropOp47
 70
     0
102
RTVSPost2010Prop48
 90
       50
102
RTVSPost2010PropOp48
 70
     0
102
RTVSPost2010Prop49
280
     0
102
RTVSPost2010PropOp49
 70
     1
102
RTVSPost2010Prop50
 90
       50
102
RTVSPost2010PropOp50
 70
     0
102
RTVSPost2010Prop51ColorIndex
 90
      256
102
RTVSPost2010Prop51ColorRGB
 90
-16777216
102
RTVSPost2010PropOp51
 70
     0
102
RTVSPost2010Prop52
140
1.0
102
RTVSPost2010PropOp52
 70
     0
102
RTVSPost2010Prop53
 90
        2
102
RTVSPost2010PropOp53
 70
     0
102
RTVSPost2010Prop54
  1
strokes_ogs.tif
102
RTVSPost2010PropOp54
 70
     0
102
RTVSPost2010Prop55
280
     0
102
RTVSPost2010PropOp55
 70
     1
102
RTVSPost2010Prop56
140
1.0
102
RTVSPost2010PropOp56
 70
     0
102
RTVSPost2010Prop57
140
1.0
102
RTVSPost2010PropOp57
 70
     0
102
RTVSPropertyOp0
 70
     0
102
RTVSPropertyOp1
 70
     0
102
RTVSPropertyOp2
 70
     0
102
RTVSPropertyOp3
 70
     0
102
RTVSPropertyOp4
 70
     0
102
RTVSPropertyOp5
 70
     0
102
RTVSPropertyOp6
 70
     0
102
RTVSPropertyOp7
 70
     0
102
RTVSPropertyOp8
 70
     0
102
RTVSPropertyOp9
 70
     0
102
RTVSPropertyOp10
 70
     0
102
RTVSPropertyOp11
 70
     0
102
RTVSPropertyOp12
 70
     0
102
RTVSPropertyOp13
 70
     0
102
RTVSPropertyOp14
 70
     2
102
RTVSPropertyOp15
 70
     0
102
RTVSPropertyOp16
 70
     0
102
RTVSPropertyOp17
 70
     0
102
RTVSPropertyOp18
 70
     0
102
RTVSPropertyOp19
 70
     0
102
RTVSPropertyOp20
 70
     0
102
RTVSPropertyOp21
 70
     0
102
RTVSPropertyOp22
 70
     0
102
RTVSPropertyOp23
 70
     0
102
RTVSPropertyOp24
 70
     0
102
RTVSPropertyOp25
 70
     0
102
RTVSPropertyOp26
 70
     0
102
RTVSPropertyOp27
 70
     0
102
RTVSPropertyOp28
 70
     1
102
RTVSPropertyOp29
 70
     1
102
RTVSPropertyOp30
 70
     1
102
RTVSPropertyOp31
 70
     1
102
RTVSPropertyOp32
 70
     1
102
RTVSPropertyOp33
 70
     1
102
RTVSPropertyOp34
 70
     1
102
RTVSPropertyOp35
 70
     1
102
RTVSPropertyOp36
 70
     1
102
RTVSPropertyOp37
 70
     0
102
RTVSPropertyOp38
 70
     0
102
RTVSPropertyOp39
 70
     0
102
RTVSPropertyOp40
 70
     0
102
RTVSPropertyOp41
 70
     0
102
RTVSPropertyOp42
 70
     0
102
RTVSPropertyOp43
 70
     0
102
RTVSPropertyOp44
 70
     0
102
RTVSPropertyOp45
 70
     1
102
RTVSPropertyOp46
 70
     0
102
RTVSPropertyOp47
 70
     0
102
RTVSPropertyOp48
 70
     0
102
RTVSPropertyOp49
 70
     1
102
RTVSPropertyOp50
 70
     0
102
RTVSPropertyOp51
 70
     0
102
RTVSPropertyOp52
 70
     0
102
RTVSPropertyOp53
 70
     0
102
RTVSPropertyOp54
 70
     0
102
RTVSPropertyOp55
 70
     1
102
RTVSPropertyOp56
 70
     0
102
RTVSPropertyOp57
 70
     0
102
RTVSPropertyOp58
 70
     1
102
RTVSPropertyOp59
 70
     1
102
RTVSPropertyOp60
 70
     1
102
RTVSPropertyOp61
 70
     1
102
RTVSPropertyOp62
 70
     1
  0
XRECORD
  5
10241
102
{ACAD_REACTORS
330
10240
102
}
330
10240
100
AcDbXrecord
280
     1
102
RTVSPost2010Prop28
280
     0
102
RTVSPost2010PropOp28
 70
     1
102
RTVSPost2010Prop29
280
     1
102
RTVSPost2010PropOp29
 70
     1
102
RTVSPost2010Prop30
280
     1
102
RTVSPost2010PropOp30
 70
     1
102
RTVSPost2010Prop31
280
     0
102
RTVSPost2010PropOp31
 70
     1
102
RTVSPost2010Prop32
280
     0
102
RTVSPost2010PropOp32
 70
     1
102
RTVSPost2010Prop33
280
     0
102
RTVSPost2010PropOp33
 70
     1
102
RTVSPost2010Prop34
280
     0
102
RTVSPost2010PropOp34
 70
     1
102
RTVSPost2010Prop35
280
     0
102
RTVSPost2010PropOp35
 70
     1
102
RTVSPost2010Prop36
280
     0
102
RTVSPost2010PropOp36
 70
     1
102
RTVSPost2010Prop37
 90
       50
102
RTVSPost2010PropOp37
 70
     1
102
RTVSPost2010Prop38
140
0.0
102
RTVSPost2010PropOp38
 70
     1
102
RTVSPost2010Prop39
140
1.0
102
RTVSPost2010PropOp39
 70
     1
102
RTVSPost2010Prop40
 90
        0
102
RTVSPost2010PropOp40
 70
     1
102
RTVSPost2010Prop41ColorIndex
 90
       18
102
RTVSPost2010Prop41ColorRGB
 90
        0
102
RTVSPost2010PropOp41
 70
     1
102
RTVSPost2010Prop42
 90
       50
102
RTVSPost2010PropOp42
 70
     1
102
RTVSPost2010Prop43
 90
        3
102
RTVSPost2010PropOp43
 70
     1
102
RTVSPost2010Prop44ColorIndex
 90
        5
102
RTVSPost2010Prop44ColorRGB
 90
      255
102
RTVSPost2010PropOp44
 70
     1
102
RTVSPost2010Prop45
280
     0
102
RTVSPost2010PropOp45
 70
     1
102
RTVSPost2010Prop46
 90
       50
102
RTVSPost2010PropOp46
 70
     1
102
RTVSPost2010Prop47
 90
       50
102
RTVSPost2010PropOp47
 70
     1
102
RTVSPost2010Prop48
 90
       50
102
RTVSPost2010PropOp48
 70
     1
102
RTVSPost2010Prop49
280
     0
102
RTVSPost2010PropOp49
 70
     1
102
RTVSPost2010Prop50
 90
       50
102
RTVSPost2010PropOp50
 70
     1
102
RTVSPost2010Prop51ColorIndex
 90
      256
102
RTVSPost2010Prop51ColorRGB
 90
-16777216
102
RTVSPost2010PropOp51
 70
     0
102
RTVSPost2010Prop52
140
1.0
102
RTVSPost2010PropOp52
 70
     0
102
RTVSPost2010Prop53
 90
        2
102
RTVSPost2010PropOp53
 70
     1
102
RTVSPost2010Prop54
  1
strokes_ogs.tif
102
RTVSPost2010PropOp54
 70
     1
102
RTVSPost2010Prop55
280
     0
102
RTVSPost2010PropOp55
 70
     1
102
RTVSPost2010Prop56
140
1.0
102
RTVSPost2010PropOp56
 70
     1
102
RTVSPost2010Prop57
140
1.0
102
RTVSPost2010PropOp57
 70
     1
102
RTVSPropertyOp0
 70
     1
102
RTVSPropertyOp1
 70
     1
102
RTVSPropertyOp2
 70
     1
102
RTVSPropertyOp3
 70
     1
102
RTVSPropertyOp4
 70
     1
102
RTVSPropertyOp5
 70
     1
102
RTVSPropertyOp6
 70
     1
102
RTVSPropertyOp7
 70
     1
102
RTVSPropertyOp8
 70
     1
102
RTVSPropertyOp9
 70
     1
102
RTVSPropertyOp10
 70
     1
102
RTVSPropertyOp11
 70
     1
102
RTVSPropertyOp12
 70
     1
102
RTVSPropertyOp13
 70
     1
102
RTVSPropertyOp14
 70
     1
102
RTVSPropertyOp15
 70
     1
102
RTVSPropertyOp16
 70
     1
102
RTVSPropertyOp17
 70
     1
102
RTVSPropertyOp18
 70
     1
102
RTVSPropertyOp19
 70
     1
102
RTVSPropertyOp20
 70
     1
102
RTVSPropertyOp21
 70
     1
102
RTVSPropertyOp22
 70
     1
102
RTVSPropertyOp23
 70
     1
102
RTVSPropertyOp24
 70
     1
102
RTVSPropertyOp25
 70
     1
102
RTVSPropertyOp26
 70
     1
102
RTVSPropertyOp27
 70
     1
102
RTVSPropertyOp28
 70
     1
102
RTVSPropertyOp29
 70
     1
102
RTVSPropertyOp30
 70
     1
102
RTVSPropertyOp31
 70
     1
102
RTVSPropertyOp32
 70
     1
102
RTVSPropertyOp33
 70
     1
102
RTVSPropertyOp34
 70
     1
102
RTVSPropertyOp35
 70
     1
102
RTVSPropertyOp36
 70
     1
102
RTVSPropertyOp37
 70
     1
102
RTVSPropertyOp38
 70
     1
102
RTVSPropertyOp39
 70
     1
102
RTVSPropertyOp40
 70
     1
102
RTVSPropertyOp41
 70
     1
102
RTVSPropertyOp42
 70
     1
102
RTVSPropertyOp43
 70
     1
102
RTVSPropertyOp44
 70
     1
102
RTVSPropertyOp45
 70
     1
102
RTVSPropertyOp46
 70
     1
102
RTVSPropertyOp47
 70
     1
102
RTVSPropertyOp48
 70
     1
102
RTVSPropertyOp49
 70
     1
102
RTVSPropertyOp50
 70
     1
102
RTVSPropertyOp51
 70
     0
102
RTVSPropertyOp52
 70
     0
102
RTVSPropertyOp53
 70
     1
102
RTVSPropertyOp54
 70
     1
102
RTVSPropertyOp55
 70
     1
102
RTVSPropertyOp56
 70
     1
102
RTVSPropertyOp57
 70
     1
102
RTVSPropertyOp58
 70
     1
102
RTVSPropertyOp59
 70
     1
102
RTVSPropertyOp60
 70
     1
102
RTVSPropertyOp61
 70
     1
102
RTVSPropertyOp62
 70
     1
  0
XRECORD
  5
10253
102
{ACAD_REACTORS
330
10252
102
}
330
10252
100
AcDbXrecord
280
     1
102
RTVSPost2010Prop28
280
     0
102
RTVSPost2010PropOp28
 70
     1
102
RTVSPost2010Prop29
280
     1
102
RTVSPost2010PropOp29
 70
     1
102
RTVSPost2010Prop30
280
     1
102
RTVSPost2010PropOp30
 70
     1
102
RTVSPost2010Prop31
280
     0
102
RTVSPost2010PropOp31
 70
     1
102
RTVSPost2010Prop32
280
     0
102
RTVSPost2010PropOp32
 70
     1
102
RTVSPost2010Prop33
280
     0
102
RTVSPost2010PropOp33
 70
     1
102
RTVSPost2010Prop34
280
     0
102
RTVSPost2010PropOp34
 70
     1
102
RTVSPost2010Prop35
280
     0
102
RTVSPost2010PropOp35
 70
     1
102
RTVSPost2010Prop36
280
     0
102
RTVSPost2010PropOp36
 70
     1
102
RTVSPost2010Prop37
 90
       50
102
RTVSPost2010PropOp37
 70
     0
102
RTVSPost2010Prop38
140
0.0
102
RTVSPost2010PropOp38
 70
     0
102
RTVSPost2010Prop39
140
1.0
102
RTVSPost2010PropOp39
 70
     0
102
RTVSPost2010Prop40
 90
        0
102
RTVSPost2010PropOp40
 70
     0
102
RTVSPost2010Prop41ColorIndex
 90
       18
102
RTVSPost2010Prop41ColorRGB
 90
        0
102
RTVSPost2010PropOp41
 70
     0
102
RTVSPost2010Prop42
 90
       50
102
RTVSPost2010PropOp42
 70
     0
102
RTVSPost2010Prop43
 90
        3
102
RTVSPost2010PropOp43
 70
     0
102
RTVSPost2010Prop44ColorIndex
 90
        5
102
RTVSPost2010Prop44ColorRGB
 90
      255
102
RTVSPost2010PropOp44
 70
     0
102
RTVSPost2010Prop45
280
     0
102
RTVSPost2010PropOp45
 70
     1
102
RTVSPost2010Prop46
 90
       50
102
RTVSPost2010PropOp46
 70
     0
102
RTVSPost2010Prop47
 90
       50
102
RTVSPost2010PropOp47
 70
     0
102
RTVSPost2010Prop48
 90
       50
102
RTVSPost2010PropOp48
 70
     0
102
RTVSPost2010Prop49
280
     0
102
RTVSPost2010PropOp49
 70
     1
102
RTVSPost2010Prop50
 90
       50
102
RTVSPost2010PropOp50
 70
     0
102
RTVSPost2010Prop51ColorIndex
 90
      256
102
RTVSPost2010Prop51ColorRGB
 90
-16777216
102
RTVSPost2010PropOp51
 70
     0
102
RTVSPost2010Prop52
140
1.0
102
RTVSPost2010PropOp52
 70
     0
102
RTVSPost2010Prop53
 90
        2
102
RTVSPost2010PropOp53
 70
     0
102
RTVSPost2010Prop54
  1
strokes_ogs.tif
102
RTVSPost2010PropOp54
 70
     0
102
RTVSPost2010Prop55
280
     0
102
RTVSPost2010PropOp55
 70
     1
102
RTVSPost2010Prop56
140
1.0
102
RTVSPost2010PropOp56
 70
     0
102
RTVSPost2010Prop57
140
1.0
102
RTVSPost2010PropOp57
 70
     0
102
RTVSPropertyOp0
 70
     0
102
RTVSPropertyOp1
 70
     0
102
RTVSPropertyOp2
 70
     0
102
RTVSPropertyOp3
 70
     0
102
RTVSPropertyOp4
 70
     0
102
RTVSPropertyOp5
 70
     0
102
RTVSPropertyOp6
 70
     0
102
RTVSPropertyOp7
 70
     0
102
RTVSPropertyOp8
 70
     0
102
RTVSPropertyOp9
 70
     0
102
RTVSPropertyOp10
 70
     0
102
RTVSPropertyOp11
 70
     0
102
RTVSPropertyOp12
 70
     0
102
RTVSPropertyOp13
 70
     0
102
RTVSPropertyOp14
 70
     2
102
RTVSPropertyOp15
 70
     0
102
RTVSPropertyOp16
 70
     0
102
RTVSPropertyOp17
 70
     0
102
RTVSPropertyOp18
 70
     0
102
RTVSPropertyOp19
 70
     0
102
RTVSPropertyOp20
 70
     0
102
RTVSPropertyOp21
 70
     0
102
RTVSPropertyOp22
 70
     0
102
RTVSPropertyOp23
 70
     0
102
RTVSPropertyOp24
 70
     0
102
RTVSPropertyOp25
 70
     0
102
RTVSPropertyOp26
 70
     0
102
RTVSPropertyOp27
 70
     0
102
RTVSPropertyOp28
 70
     1
102
RTVSPropertyOp29
 70
     1
102
RTVSPropertyOp30
 70
     1
102
RTVSPropertyOp31
 70
     1
102
RTVSPropertyOp32
 70
     1
102
RTVSPropertyOp33
 70
     1
102
RTVSPropertyOp34
 70
     1
102
RTVSPropertyOp35
 70
     1
102
RTVSPropertyOp36
 70
     1
102
RTVSPropertyOp37
 70
     0
102
RTVSPropertyOp38
 70
     0
102
RTVSPropertyOp39
 70
     0
102
RTVSPropertyOp40
 70
     0
102
RTVSPropertyOp41
 70
     0
102
RTVSPropertyOp42
 70
     0
102
RTVSPropertyOp43
 70
     0
102
RTVSPropertyOp44
 70
     0
102
RTVSPropertyOp45
 70
     1
102
RTVSPropertyOp46
 70
     0
102
RTVSPropertyOp47
 70
     0
102
RTVSPropertyOp48
 70
     0
102
RTVSPropertyOp49
 70
     1
102
RTVSPropertyOp50
 70
     0
102
RTVSPropertyOp51
 70
     0
102
RTVSPropertyOp52
 70
     0
102
RTVSPropertyOp53
 70
     0
102
RTVSPropertyOp54
 70
     0
102
RTVSPropertyOp55
 70
     1
102
RTVSPropertyOp56
 70
     0
102
RTVSPropertyOp57
 70
     0
102
RTVSPropertyOp58
 70
     1
102
RTVSPropertyOp59
 70
     1
102
RTVSPropertyOp60
 70
     1
102
RTVSPropertyOp61
 70
     1
102
RTVSPropertyOp62
 70
     1
  0
XRECORD
  5
10239
102
{ACAD_REACTORS
330
10238
102
}
330
10238
100
AcDbXrecord
280
     1
102
RTVSPost2010Prop28
280
     0
102
RTVSPost2010PropOp28
 70
     1
102
RTVSPost2010Prop29
280
     1
102
RTVSPost2010PropOp29
 70
     1
102
RTVSPost2010Prop30
280
     1
102
RTVSPost2010PropOp30
 70
     1
102
RTVSPost2010Prop31
280
     0
102
RTVSPost2010PropOp31
 70
     1
102
RTVSPost2010Prop32
280
     0
102
RTVSPost2010PropOp32
 70
     1
102
RTVSPost2010Prop33
280
     0
102
RTVSPost2010PropOp33
 70
     1
102
RTVSPost2010Prop34
280
     0
102
RTVSPost2010PropOp34
 70
     1
102
RTVSPost2010Prop35
280
     0
102
RTVSPost2010PropOp35
 70
     1
102
RTVSPost2010Prop36
280
     0
102
RTVSPost2010PropOp36
 70
     1
102
RTVSPost2010Prop37
 90
       50
102
RTVSPost2010PropOp37
 70
     1
102
RTVSPost2010Prop38
140
0.0
102
RTVSPost2010PropOp38
 70
     1
102
RTVSPost2010Prop39
140
1.0
102
RTVSPost2010PropOp39
 70
     1
102
RTVSPost2010Prop40
 90
        0
102
RTVSPost2010PropOp40
 70
     1
102
RTVSPost2010Prop41ColorIndex
 90
       18
102
RTVSPost2010Prop41ColorRGB
 90
        0
102
RTVSPost2010PropOp41
 70
     1
102
RTVSPost2010Prop42
 90
       50
102
RTVSPost2010PropOp42
 70
     1
102
RTVSPost2010Prop43
 90
        3
102
RTVSPost2010PropOp43
 70
     1
102
RTVSPost2010Prop44ColorIndex
 90
        5
102
RTVSPost2010Prop44ColorRGB
 90
      255
102
RTVSPost2010PropOp44
 70
     1
102
RTVSPost2010Prop45
280
     0
102
RTVSPost2010PropOp45
 70
     1
102
RTVSPost2010Prop46
 90
       50
102
RTVSPost2010PropOp46
 70
     1
102
RTVSPost2010Prop47
 90
       50
102
RTVSPost2010PropOp47
 70
     1
102
RTVSPost2010Prop48
 90
       50
102
RTVSPost2010PropOp48
 70
     1
102
RTVSPost2010Prop49
280
     0
102
RTVSPost2010PropOp49
 70
     1
102
RTVSPost2010Prop50
 90
       50
102
RTVSPost2010PropOp50
 70
     1
102
RTVSPost2010Prop51ColorIndex
 90
      256
102
RTVSPost2010Prop51ColorRGB
 90
-16777216
102
RTVSPost2010PropOp51
 70
     0
102
RTVSPost2010Prop52
140
1.0
102
RTVSPost2010PropOp52
 70
     0
102
RTVSPost2010Prop53
 90
        2
102
RTVSPost2010PropOp53
 70
     1
102
RTVSPost2010Prop54
  1
strokes_ogs.tif
102
RTVSPost2010PropOp54
 70
     1
102
RTVSPost2010Prop55
280
     0
102
RTVSPost2010PropOp55
 70
     1
102
RTVSPost2010Prop56
140
1.0
102
RTVSPost2010PropOp56
 70
     1
102
RTVSPost2010Prop57
140
1.0
102
RTVSPost2010PropOp57
 70
     1
102
RTVSPropertyOp0
 70
     1
102
RTVSPropertyOp1
 70
     1
102
RTVSPropertyOp2
 70
     1
102
RTVSPropertyOp3
 70
     1
102
RTVSPropertyOp4
 70
     1
102
RTVSPropertyOp5
 70
     1
102
RTVSPropertyOp6
 70
     1
102
RTVSPropertyOp7
 70
     1
102
RTVSPropertyOp8
 70
     1
102
RTVSPropertyOp9
 70
     1
102
RTVSPropertyOp10
 70
     1
102
RTVSPropertyOp11
 70
     1
102
RTVSPropertyOp12
 70
     1
102
RTVSPropertyOp13
 70
     1
102
RTVSPropertyOp14
 70
     1
102
RTVSPropertyOp15
 70
     1
102
RTVSPropertyOp16
 70
     1
102
RTVSPropertyOp17
 70
     1
102
RTVSPropertyOp18
 70
     1
102
RTVSPropertyOp19
 70
     1
102
RTVSPropertyOp20
 70
     1
102
RTVSPropertyOp21
 70
     1
102
RTVSPropertyOp22
 70
     1
102
RTVSPropertyOp23
 70
     1
102
RTVSPropertyOp24
 70
     1
102
RTVSPropertyOp25
 70
     1
102
RTVSPropertyOp26
 70
     1
102
RTVSPropertyOp27
 70
     1
102
RTVSPropertyOp28
 70
     1
102
RTVSPropertyOp29
 70
     1
102
RTVSPropertyOp30
 70
     1
102
RTVSPropertyOp31
 70
     1
102
RTVSPropertyOp32
 70
     1
102
RTVSPropertyOp33
 70
     1
102
RTVSPropertyOp34
 70
     1
102
RTVSPropertyOp35
 70
     1
102
RTVSPropertyOp36
 70
     1
102
RTVSPropertyOp37
 70
     1
102
RTVSPropertyOp38
 70
     1
102
RTVSPropertyOp39
 70
     1
102
RTVSPropertyOp40
 70
     1
102
RTVSPropertyOp41
 70
     1
102
RTVSPropertyOp42
 70
     1
102
RTVSPropertyOp43
 70
     1
102
RTVSPropertyOp44
 70
     1
102
RTVSPropertyOp45
 70
     1
102
RTVSPropertyOp46
 70
     1
102
RTVSPropertyOp47
 70
     1
102
RTVSPropertyOp48
 70
     1
102
RTVSPropertyOp49
 70
     1
102
RTVSPropertyOp50
 70
     1
102
RTVSPropertyOp51
 70
     0
102
RTVSPropertyOp52
 70
     0
102
RTVSPropertyOp53
 70
     1
102
RTVSPropertyOp54
 70
     1
102
RTVSPropertyOp55
 70
     1
102
RTVSPropertyOp56
 70
     1
102
RTVSPropertyOp57
 70
     1
102
RTVSPropertyOp58
 70
     1
102
RTVSPropertyOp59
 70
     1
102
RTVSPropertyOp60
 70
     1
102
RTVSPropertyOp61
 70
     1
102
RTVSPropertyOp62
 70
     1
  0
XRECORD
  5
1024F
102
{ACAD_REACTORS
330
1024E
102
}
330
1024E
100
AcDbXrecord
280
     1
102
RTVSPost2010Prop28
280
     0
102
RTVSPost2010PropOp28
 70
     1
102
RTVSPost2010Prop29
280
     1
102
RTVSPost2010PropOp29
 70
     1
102
RTVSPost2010Prop30
280
     1
102
RTVSPost2010PropOp30
 70
     1
102
RTVSPost2010Prop31
280
     0
102
RTVSPost2010PropOp31
 70
     1
102
RTVSPost2010Prop32
280
     0
102
RTVSPost2010PropOp32
 70
     1
102
RTVSPost2010Prop33
280
     0
102
RTVSPost2010PropOp33
 70
     1
102
RTVSPost2010Prop34
280
     0
102
RTVSPost2010PropOp34
 70
     1
102
RTVSPost2010Prop35
280
     0
102
RTVSPost2010PropOp35
 70
     1
102
RTVSPost2010Prop36
280
     0
102
RTVSPost2010PropOp36
 70
     1
102
RTVSPost2010Prop37
 90
       50
102
RTVSPost2010PropOp37
 70
     1
102
RTVSPost2010Prop38
140
0.0
102
RTVSPost2010PropOp38
 70
     1
102
RTVSPost2010Prop39
140
1.0
102
RTVSPost2010PropOp39
 70
     1
102
RTVSPost2010Prop40
 90
        0
102
RTVSPost2010PropOp40
 70
     1
102
RTVSPost2010Prop41ColorIndex
 90
       18
102
RTVSPost2010Prop41ColorRGB
 90
        0
102
RTVSPost2010PropOp41
 70
     1
102
RTVSPost2010Prop42
 90
       50
102
RTVSPost2010PropOp42
 70
     1
102
RTVSPost2010Prop43
 90
        3
102
RTVSPost2010PropOp43
 70
     1
102
RTVSPost2010Prop44ColorIndex
 90
        5
102
RTVSPost2010Prop44ColorRGB
 90
      255
102
RTVSPost2010PropOp44
 70
     1
102
RTVSPost2010Prop45
280
     0
102
RTVSPost2010PropOp45
 70
     1
102
RTVSPost2010Prop46
 90
       50
102
RTVSPost2010PropOp46
 70
     1
102
RTVSPost2010Prop47
 90
       50
102
RTVSPost2010PropOp47
 70
     1
102
RTVSPost2010Prop48
 90
       50
102
RTVSPost2010PropOp48
 70
     1
102
RTVSPost2010Prop49
280
     0
102
RTVSPost2010PropOp49
 70
     1
102
RTVSPost2010Prop50
 90
       50
102
RTVSPost2010PropOp50
 70
     1
102
RTVSPost2010Prop51ColorIndex
 90
      256
102
RTVSPost2010Prop51ColorRGB
 90
-16777216
102
RTVSPost2010PropOp51
 70
     0
102
RTVSPost2010Prop52
140
1.0
102
RTVSPost2010PropOp52
 70
     0
102
RTVSPost2010Prop53
 90
        2
102
RTVSPost2010PropOp53
 70
     1
102
RTVSPost2010Prop54
  1
strokes_ogs.tif
102
RTVSPost2010PropOp54
 70
     1
102
RTVSPost2010Prop55
280
     0
102
RTVSPost2010PropOp55
 70
     1
102
RTVSPost2010Prop56
140
1.0
102
RTVSPost2010PropOp56
 70
     1
102
RTVSPost2010Prop57
140
1.0
102
RTVSPost2010PropOp57
 70
     1
102
RTVSPropertyOp0
 70
     1
102
RTVSPropertyOp1
 70
     1
102
RTVSPropertyOp2
 70
     1
102
RTVSPropertyOp3
 70
     1
102
RTVSPropertyOp4
 70
     1
102
RTVSPropertyOp5
 70
     1
102
RTVSPropertyOp6
 70
     1
102
RTVSPropertyOp7
 70
     1
102
RTVSPropertyOp8
 70
     1
102
RTVSPropertyOp9
 70
     1
102
RTVSPropertyOp10
 70
     1
102
RTVSPropertyOp11
 70
     1
102
RTVSPropertyOp12
 70
     1
102
RTVSPropertyOp13
 70
     1
102
RTVSPropertyOp14
 70
     1
102
RTVSPropertyOp15
 70
     1
102
RTVSPropertyOp16
 70
     1
102
RTVSPropertyOp17
 70
     1
102
RTVSPropertyOp18
 70
     1
102
RTVSPropertyOp19
 70
     1
102
RTVSPropertyOp20
 70
     1
102
RTVSPropertyOp21
 70
     1
102
RTVSPropertyOp22
 70
     1
102
RTVSPropertyOp23
 70
     1
102
RTVSPropertyOp24
 70
     1
102
RTVSPropertyOp25
 70
     1
102
RTVSPropertyOp26
 70
     1
102
RTVSPropertyOp27
 70
     1
102
RTVSPropertyOp28
 70
     1
102
RTVSPropertyOp29
 70
     1
102
RTVSPropertyOp30
 70
     1
102
RTVSPropertyOp31
 70
     1
102
RTVSPropertyOp32
 70
     1
102
RTVSPropertyOp33
 70
     1
102
RTVSPropertyOp34
 70
     1
102
RTVSPropertyOp35
 70
     1
102
RTVSPropertyOp36
 70
     1
102
RTVSPropertyOp37
 70
     1
102
RTVSPropertyOp38
 70
     1
102
RTVSPropertyOp39
 70
     1
102
RTVSPropertyOp40
 70
     1
102
RTVSPropertyOp41
 70
     1
102
RTVSPropertyOp42
 70
     1
102
RTVSPropertyOp43
 70
     1
102
RTVSPropertyOp44
 70
     1
102
RTVSPropertyOp45
 70
     1
102
RTVSPropertyOp46
 70
     1
102
RTVSPropertyOp47
 70
     1
102
RTVSPropertyOp48
 70
     1
102
RTVSPropertyOp49
 70
     1
102
RTVSPropertyOp50
 70
     1
102
RTVSPropertyOp51
 70
     0
102
RTVSPropertyOp52
 70
     0
102
RTVSPropertyOp53
 70
     1
102
RTVSPropertyOp54
 70
     1
102
RTVSPropertyOp55
 70
     1
102
RTVSPropertyOp56
 70
     1
102
RTVSPropertyOp57
 70
     1
102
RTVSPropertyOp58
 70
     1
102
RTVSPropertyOp59
 70
     1
102
RTVSPropertyOp60
 70
     1
102
RTVSPropertyOp61
 70
     1
102
RTVSPropertyOp62
 70
     1
  0
XRECORD
  5
1024D
102
{ACAD_REACTORS
330
1024C
102
}
330
1024C
100
AcDbXrecord
280
     1
102
RTVSPost2010Prop28
280
     0
102
RTVSPost2010PropOp28
 70
     1
102
RTVSPost2010Prop29
280
     1
102
RTVSPost2010PropOp29
 70
     1
102
RTVSPost2010Prop30
280
     1
102
RTVSPost2010PropOp30
 70
     1
102
RTVSPost2010Prop31
280
     0
102
RTVSPost2010PropOp31
 70
     1
102
RTVSPost2010Prop32
280
     0
102
RTVSPost2010PropOp32
 70
     1
102
RTVSPost2010Prop33
280
     0
102
RTVSPost2010PropOp33
 70
     1
102
RTVSPost2010Prop34
280
     0
102
RTVSPost2010PropOp34
 70
     1
102
RTVSPost2010Prop35
280
     0
102
RTVSPost2010PropOp35
 70
     1
102
RTVSPost2010Prop36
280
     0
102
RTVSPost2010PropOp36
 70
     1
102
RTVSPost2010Prop37
 90
       50
102
RTVSPost2010PropOp37
 70
     1
102
RTVSPost2010Prop38
140
0.0
102
RTVSPost2010PropOp38
 70
     1
102
RTVSPost2010Prop39
140
1.0
102
RTVSPost2010PropOp39
 70
     1
102
RTVSPost2010Prop40
 90
        0
102
RTVSPost2010PropOp40
 70
     1
102
RTVSPost2010Prop41ColorIndex
 90
       18
102
RTVSPost2010Prop41ColorRGB
 90
        0
102
RTVSPost2010PropOp41
 70
     1
102
RTVSPost2010Prop42
 90
       50
102
RTVSPost2010PropOp42
 70
     1
102
RTVSPost2010Prop43
 90
        3
102
RTVSPost2010PropOp43
 70
     1
102
RTVSPost2010Prop44ColorIndex
 90
        5
102
RTVSPost2010Prop44ColorRGB
 90
      255
102
RTVSPost2010PropOp44
 70
     1
102
RTVSPost2010Prop45
280
     0
102
RTVSPost2010PropOp45
 70
     1
102
RTVSPost2010Prop46
 90
       50
102
RTVSPost2010PropOp46
 70
     1
102
RTVSPost2010Prop47
 90
       50
102
RTVSPost2010PropOp47
 70
     1
102
RTVSPost2010Prop48
 90
       50
102
RTVSPost2010PropOp48
 70
     1
102
RTVSPost2010Prop49
280
     0
102
RTVSPost2010PropOp49
 70
     1
102
RTVSPost2010Prop50
 90
       50
102
RTVSPost2010PropOp50
 70
     1
102
RTVSPost2010Prop51ColorIndex
 90
      256
102
RTVSPost2010Prop51ColorRGB
 90
-16777216
102
RTVSPost2010PropOp51
 70
     0
102
RTVSPost2010Prop52
140
1.0
102
RTVSPost2010PropOp52
 70
     0
102
RTVSPost2010Prop53
 90
        2
102
RTVSPost2010PropOp53
 70
     1
102
RTVSPost2010Prop54
  1
strokes_ogs.tif
102
RTVSPost2010PropOp54
 70
     1
102
RTVSPost2010Prop55
280
     0
102
RTVSPost2010PropOp55
 70
     1
102
RTVSPost2010Prop56
140
1.0
102
RTVSPost2010PropOp56
 70
     1
102
RTVSPost2010Prop57
140
1.0
102
RTVSPost2010PropOp57
 70
     1
102
RTVSPropertyOp0
 70
     1
102
RTVSPropertyOp1
 70
     1
102
RTVSPropertyOp2
 70
     1
102
RTVSPropertyOp3
 70
     1
102
RTVSPropertyOp4
 70
     1
102
RTVSPropertyOp5
 70
     1
102
RTVSPropertyOp6
 70
     1
102
RTVSPropertyOp7
 70
     1
102
RTVSPropertyOp8
 70
     1
102
RTVSPropertyOp9
 70
     1
102
RTVSPropertyOp10
 70
     1
102
RTVSPropertyOp11
 70
     1
102
RTVSPropertyOp12
 70
     1
102
RTVSPropertyOp13
 70
     1
102
RTVSPropertyOp14
 70
     1
102
RTVSPropertyOp15
 70
     1
102
RTVSPropertyOp16
 70
     1
102
RTVSPropertyOp17
 70
     1
102
RTVSPropertyOp18
 70
     1
102
RTVSPropertyOp19
 70
     1
102
RTVSPropertyOp20
 70
     1
102
RTVSPropertyOp21
 70
     1
102
RTVSPropertyOp22
 70
     1
102
RTVSPropertyOp23
 70
     1
102
RTVSPropertyOp24
 70
     1
102
RTVSPropertyOp25
 70
     1
102
RTVSPropertyOp26
 70
     1
102
RTVSPropertyOp27
 70
     1
102
RTVSPropertyOp28
 70
     1
102
RTVSPropertyOp29
 70
     1
102
RTVSPropertyOp30
 70
     1
102
RTVSPropertyOp31
 70
     1
102
RTVSPropertyOp32
 70
     1
102
RTVSPropertyOp33
 70
     1
102
RTVSPropertyOp34
 70
     1
102
RTVSPropertyOp35
 70
     1
102
RTVSPropertyOp36
 70
     1
102
RTVSPropertyOp37
 70
     1
102
RTVSPropertyOp38
 70
     1
102
RTVSPropertyOp39
 70
     1
102
RTVSPropertyOp40
 70
     1
102
RTVSPropertyOp41
 70
     1
102
RTVSPropertyOp42
 70
     1
102
RTVSPropertyOp43
 70
     1
102
RTVSPropertyOp44
 70
     1
102
RTVSPropertyOp45
 70
     1
102
RTVSPropertyOp46
 70
     1
102
RTVSPropertyOp47
 70
     1
102
RTVSPropertyOp48
 70
     1
102
RTVSPropertyOp49
 70
     1
102
RTVSPropertyOp50
 70
     1
102
RTVSPropertyOp51
 70
     0
102
RTVSPropertyOp52
 70
     0
102
RTVSPropertyOp53
 70
     1
102
RTVSPropertyOp54
 70
     1
102
RTVSPropertyOp55
 70
     1
102
RTVSPropertyOp56
 70
     1
102
RTVSPropertyOp57
 70
     1
102
RTVSPropertyOp58
 70
     1
102
RTVSPropertyOp59
 70
     1
102
RTVSPropertyOp60
 70
     1
102
RTVSPropertyOp61
 70
     1
102
RTVSPropertyOp62
 70
     1
  0
XRECORD
  5
10247
102
{ACAD_REACTORS
330
10246
102
}
330
10246
100
AcDbXrecord
280
     1
102
RTVSPost2010Prop28
280
     0
102
RTVSPost2010PropOp28
 70
     1
102
RTVSPost2010Prop29
280
     1
102
RTVSPost2010PropOp29
 70
     1
102
RTVSPost2010Prop30
280
     1
102
RTVSPost2010PropOp30
 70
     1
102
RTVSPost2010Prop31
280
     0
102
RTVSPost2010PropOp31
 70
     1
102
RTVSPost2010Prop32
280
     0
102
RTVSPost2010PropOp32
 70
     1
102
RTVSPost2010Prop33
280
     0
102
RTVSPost2010PropOp33
 70
     1
102
RTVSPost2010Prop34
280
     0
102
RTVSPost2010PropOp34
 70
     1
102
RTVSPost2010Prop35
280
     0
102
RTVSPost2010PropOp35
 70
     1
102
RTVSPost2010Prop36
280
     0
102
RTVSPost2010PropOp36
 70
     1
102
RTVSPost2010Prop37
 90
       50
102
RTVSPost2010PropOp37
 70
     1
102
RTVSPost2010Prop38
140
0.0
102
RTVSPost2010PropOp38
 70
     1
102
RTVSPost2010Prop39
140
1.0
102
RTVSPost2010PropOp39
 70
     1
102
RTVSPost2010Prop40
 90
        0
102
RTVSPost2010PropOp40
 70
     1
102
RTVSPost2010Prop41ColorIndex
 90
       18
102
RTVSPost2010Prop41ColorRGB
 90
        0
102
RTVSPost2010PropOp41
 70
     1
102
RTVSPost2010Prop42
 90
       50
102
RTVSPost2010PropOp42
 70
     1
102
RTVSPost2010Prop43
 90
        3
102
RTVSPost2010PropOp43
 70
     1
102
RTVSPost2010Prop44ColorIndex
 90
        5
102
RTVSPost2010Prop44ColorRGB
 90
      255
102
RTVSPost2010PropOp44
 70
     1
102
RTVSPost2010Prop45
280
     0
102
RTVSPost2010PropOp45
 70
     1
102
RTVSPost2010Prop46
 90
       50
102
RTVSPost2010PropOp46
 70
     1
102
RTVSPost2010Prop47
 90
       50
102
RTVSPost2010PropOp47
 70
     1
102
RTVSPost2010Prop48
 90
       50
102
RTVSPost2010PropOp48
 70
     1
102
RTVSPost2010Prop49
280
     0
102
RTVSPost2010PropOp49
 70
     1
102
RTVSPost2010Prop50
 90
       50
102
RTVSPost2010PropOp50
 70
     1
102
RTVSPost2010Prop51ColorIndex
 90
      256
102
RTVSPost2010Prop51ColorRGB
 90
-16777216
102
RTVSPost2010PropOp51
 70
     0
102
RTVSPost2010Prop52
140
1.0
102
RTVSPost2010PropOp52
 70
     0
102
RTVSPost2010Prop53
 90
        2
102
RTVSPost2010PropOp53
 70
     1
102
RTVSPost2010Prop54
  1
strokes_ogs.tif
102
RTVSPost2010PropOp54
 70
     1
102
RTVSPost2010Prop55
280
     0
102
RTVSPost2010PropOp55
 70
     1
102
RTVSPost2010Prop56
140
1.0
102
RTVSPost2010PropOp56
 70
     1
102
RTVSPost2010Prop57
140
1.0
102
RTVSPost2010PropOp57
 70
     1
102
RTVSPropertyOp0
 70
     1
102
RTVSPropertyOp1
 70
     1
102
RTVSPropertyOp2
 70
     1
102
RTVSPropertyOp3
 70
     1
102
RTVSPropertyOp4
 70
     1
102
RTVSPropertyOp5
 70
     1
102
RTVSPropertyOp6
 70
     1
102
RTVSPropertyOp7
 70
     1
102
RTVSPropertyOp8
 70
     1
102
RTVSPropertyOp9
 70
     1
102
RTVSPropertyOp10
 70
     1
102
RTVSPropertyOp11
 70
     1
102
RTVSPropertyOp12
 70
     1
102
RTVSPropertyOp13
 70
     1
102
RTVSPropertyOp14
 70
     1
102
RTVSPropertyOp15
 70
     1
102
RTVSPropertyOp16
 70
     1
102
RTVSPropertyOp17
 70
     1
102
RTVSPropertyOp18
 70
     1
102
RTVSPropertyOp19
 70
     1
102
RTVSPropertyOp20
 70
     1
102
RTVSPropertyOp21
 70
     1
102
RTVSPropertyOp22
 70
     1
102
RTVSPropertyOp23
 70
     1
102
RTVSPropertyOp24
 70
     1
102
RTVSPropertyOp25
 70
     1
102
RTVSPropertyOp26
 70
     1
102
RTVSPropertyOp27
 70
     1
102
RTVSPropertyOp28
 70
     1
102
RTVSPropertyOp29
 70
     1
102
RTVSPropertyOp30
 70
     1
102
RTVSPropertyOp31
 70
     1
102
RTVSPropertyOp32
 70
     1
102
RTVSPropertyOp33
 70
     1
102
RTVSPropertyOp34
 70
     1
102
RTVSPropertyOp35
 70
     1
102
RTVSPropertyOp36
 70
     1
102
RTVSPropertyOp37
 70
     1
102
RTVSPropertyOp38
 70
     1
102
RTVSPropertyOp39
 70
     1
102
RTVSPropertyOp40
 70
     1
102
RTVSPropertyOp41
 70
     1
102
RTVSPropertyOp42
 70
     1
102
RTVSPropertyOp43
 70
     1
102
RTVSPropertyOp44
 70
     1
102
RTVSPropertyOp45
 70
     1
102
RTVSPropertyOp46
 70
     1
102
RTVSPropertyOp47
 70
     1
102
RTVSPropertyOp48
 70
     1
102
RTVSPropertyOp49
 70
     1
102
RTVSPropertyOp50
 70
     1
102
RTVSPropertyOp51
 70
     0
102
RTVSPropertyOp52
 70
     0
102
RTVSPropertyOp53
 70
     1
102
RTVSPropertyOp54
 70
     1
102
RTVSPropertyOp55
 70
     1
102
RTVSPropertyOp56
 70
     1
102
RTVSPropertyOp57
 70
     1
102
RTVSPropertyOp58
 70
     1
102
RTVSPropertyOp59
 70
     1
102
RTVSPropertyOp60
 70
     1
102
RTVSPropertyOp61
 70
     1
102
RTVSPropertyOp62
 70
     1
  0
XRECORD
  5
10249
102
{ACAD_REACTORS
330
10248
102
}
330
10248
100
AcDbXrecord
280
     1
102
RTVSPost2010Prop28
280
     0
102
RTVSPost2010PropOp28
 70
     1
102
RTVSPost2010Prop29
280
     1
102
RTVSPost2010PropOp29
 70
     1
102
RTVSPost2010Prop30
280
     1
102
RTVSPost2010PropOp30
 70
     1
102
RTVSPost2010Prop31
280
     0
102
RTVSPost2010PropOp31
 70
     1
102
RTVSPost2010Prop32
280
     0
102
RTVSPost2010PropOp32
 70
     1
102
RTVSPost2010Prop33
280
     0
102
RTVSPost2010PropOp33
 70
     1
102
RTVSPost2010Prop34
280
     0
102
RTVSPost2010PropOp34
 70
     1
102
RTVSPost2010Prop35
280
     0
102
RTVSPost2010PropOp35
 70
     1
102
RTVSPost2010Prop36
280
     0
102
RTVSPost2010PropOp36
 70
     1
102
RTVSPost2010Prop37
 90
       50
102
RTVSPost2010PropOp37
 70
     1
102
RTVSPost2010Prop38
140
0.0
102
RTVSPost2010PropOp38
 70
     1
102
RTVSPost2010Prop39
140
1.0
102
RTVSPost2010PropOp39
 70
     1
102
RTVSPost2010Prop40
 90
        0
102
RTVSPost2010PropOp40
 70
     1
102
RTVSPost2010Prop41ColorIndex
 90
       18
102
RTVSPost2010Prop41ColorRGB
 90
        0
102
RTVSPost2010PropOp41
 70
     1
102
RTVSPost2010Prop42
 90
       50
102
RTVSPost2010PropOp42
 70
     1
102
RTVSPost2010Prop43
 90
        3
102
RTVSPost2010PropOp43
 70
     1
102
RTVSPost2010Prop44ColorIndex
 90
        5
102
RTVSPost2010Prop44ColorRGB
 90
      255
102
RTVSPost2010PropOp44
 70
     1
102
RTVSPost2010Prop45
280
     0
102
RTVSPost2010PropOp45
 70
     1
102
RTVSPost2010Prop46
 90
       50
102
RTVSPost2010PropOp46
 70
     1
102
RTVSPost2010Prop47
 90
       50
102
RTVSPost2010PropOp47
 70
     1
102
RTVSPost2010Prop48
 90
       50
102
RTVSPost2010PropOp48
 70
     1
102
RTVSPost2010Prop49
280
     0
102
RTVSPost2010PropOp49
 70
     1
102
RTVSPost2010Prop50
 90
       50
102
RTVSPost2010PropOp50
 70
     1
102
RTVSPost2010Prop51ColorIndex
 90
      256
102
RTVSPost2010Prop51ColorRGB
 90
-16777216
102
RTVSPost2010PropOp51
 70
     0
102
RTVSPost2010Prop52
140
1.0
102
RTVSPost2010PropOp52
 70
     0
102
RTVSPost2010Prop53
 90
        2
102
RTVSPost2010PropOp53
 70
     1
102
RTVSPost2010Prop54
  1
strokes_ogs.tif
102
RTVSPost2010PropOp54
 70
     1
102
RTVSPost2010Prop55
280
     0
102
RTVSPost2010PropOp55
 70
     1
102
RTVSPost2010Prop56
140
1.0
102
RTVSPost2010PropOp56
 70
     1
102
RTVSPost2010Prop57
140
1.0
102
RTVSPost2010PropOp57
 70
     1
102
RTVSPropertyOp0
 70
     1
102
RTVSPropertyOp1
 70
     1
102
RTVSPropertyOp2
 70
     1
102
RTVSPropertyOp3
 70
     1
102
RTVSPropertyOp4
 70
     1
102
RTVSPropertyOp5
 70
     1
102
RTVSPropertyOp6
 70
     1
102
RTVSPropertyOp7
 70
     1
102
RTVSPropertyOp8
 70
     1
102
RTVSPropertyOp9
 70
     1
102
RTVSPropertyOp10
 70
     1
102
RTVSPropertyOp11
 70
     1
102
RTVSPropertyOp12
 70
     1
102
RTVSPropertyOp13
 70
     1
102
RTVSPropertyOp14
 70
     1
102
RTVSPropertyOp15
 70
     1
102
RTVSPropertyOp16
 70
     1
102
RTVSPropertyOp17
 70
     1
102
RTVSPropertyOp18
 70
     1
102
RTVSPropertyOp19
 70
     1
102
RTVSPropertyOp20
 70
     1
102
RTVSPropertyOp21
 70
     1
102
RTVSPropertyOp22
 70
     1
102
RTVSPropertyOp23
 70
     1
102
RTVSPropertyOp24
 70
     1
102
RTVSPropertyOp25
 70
     1
102
RTVSPropertyOp26
 70
     1
102
RTVSPropertyOp27
 70
     1
102
RTVSPropertyOp28
 70
     1
102
RTVSPropertyOp29
 70
     1
102
RTVSPropertyOp30
 70
     1
102
RTVSPropertyOp31
 70
     1
102
RTVSPropertyOp32
 70
     1
102
RTVSPropertyOp33
 70
     1
102
RTVSPropertyOp34
 70
     1
102
RTVSPropertyOp35
 70
     1
102
RTVSPropertyOp36
 70
     1
102
RTVSPropertyOp37
 70
     1
102
RTVSPropertyOp38
 70
     1
102
RTVSPropertyOp39
 70
     1
102
RTVSPropertyOp40
 70
     1
102
RTVSPropertyOp41
 70
     1
102
RTVSPropertyOp42
 70
     1
102
RTVSPropertyOp43
 70
     1
102
RTVSPropertyOp44
 70
     1
102
RTVSPropertyOp45
 70
     1
102
RTVSPropertyOp46
 70
     1
102
RTVSPropertyOp47
 70
     1
102
RTVSPropertyOp48
 70
     1
102
RTVSPropertyOp49
 70
     1
102
RTVSPropertyOp50
 70
     1
102
RTVSPropertyOp51
 70
     0
102
RTVSPropertyOp52
 70
     0
102
RTVSPropertyOp53
 70
     1
102
RTVSPropertyOp54
 70
     1
102
RTVSPropertyOp55
 70
     1
102
RTVSPropertyOp56
 70
     1
102
RTVSPropertyOp57
 70
     1
102
RTVSPropertyOp58
 70
     1
102
RTVSPropertyOp59
 70
     1
102
RTVSPropertyOp60
 70
     1
102
RTVSPropertyOp61
 70
     1
102
RTVSPropertyOp62
 70
     1
  0
XRECORD
  5
1023F
102
{ACAD_REACTORS
330
1023E
102
}
330
1023E
100
AcDbXrecord
280
     1
102
RTVSPost2010Prop28
280
     0
102
RTVSPost2010PropOp28
 70
     1
102
RTVSPost2010Prop29
280
     1
102
RTVSPost2010PropOp29
 70
     1
102
RTVSPost2010Prop30
280
     1
102
RTVSPost2010PropOp30
 70
     1
102
RTVSPost2010Prop31
280
     0
102
RTVSPost2010PropOp31
 70
     1
102
RTVSPost2010Prop32
280
     0
102
RTVSPost2010PropOp32
 70
     1
102
RTVSPost2010Prop33
280
     0
102
RTVSPost2010PropOp33
 70
     1
102
RTVSPost2010Prop34
280
     0
102
RTVSPost2010PropOp34
 70
     1
102
RTVSPost2010Prop35
280
     0
102
RTVSPost2010PropOp35
 70
     1
102
RTVSPost2010Prop36
280
     0
102
RTVSPost2010PropOp36
 70
     1
102
RTVSPost2010Prop37
 90
       50
102
RTVSPost2010PropOp37
 70
     1
102
RTVSPost2010Prop38
140
0.0
102
RTVSPost2010PropOp38
 70
     1
102
RTVSPost2010Prop39
140
1.0
102
RTVSPost2010PropOp39
 70
     1
102
RTVSPost2010Prop40
 90
        0
102
RTVSPost2010PropOp40
 70
     1
102
RTVSPost2010Prop41ColorIndex
 90
       18
102
RTVSPost2010Prop41ColorRGB
 90
        0
102
RTVSPost2010PropOp41
 70
     1
102
RTVSPost2010Prop42
 90
       50
102
RTVSPost2010PropOp42
 70
     1
102
RTVSPost2010Prop43
 90
        3
102
RTVSPost2010PropOp43
 70
     1
102
RTVSPost2010Prop44ColorIndex
 90
        5
102
RTVSPost2010Prop44ColorRGB
 90
      255
102
RTVSPost2010PropOp44
 70
     1
102
RTVSPost2010Prop45
280
     0
102
RTVSPost2010PropOp45
 70
     1
102
RTVSPost2010Prop46
 90
       50
102
RTVSPost2010PropOp46
 70
     1
102
RTVSPost2010Prop47
 90
       50
102
RTVSPost2010PropOp47
 70
     1
102
RTVSPost2010Prop48
 90
       50
102
RTVSPost2010PropOp48
 70
     1
102
RTVSPost2010Prop49
280
     0
102
RTVSPost2010PropOp49
 70
     1
102
RTVSPost2010Prop50
 90
       50
102
RTVSPost2010PropOp50
 70
     1
102
RTVSPost2010Prop51ColorIndex
 90
      256
102
RTVSPost2010Prop51ColorRGB
 90
-16777216
102
RTVSPost2010PropOp51
 70
     0
102
RTVSPost2010Prop52
140
1.0
102
RTVSPost2010PropOp52
 70
     0
102
RTVSPost2010Prop53
 90
        2
102
RTVSPost2010PropOp53
 70
     1
102
RTVSPost2010Prop54
  1
strokes_ogs.tif
102
RTVSPost2010PropOp54
 70
     1
102
RTVSPost2010Prop55
280
     0
102
RTVSPost2010PropOp55
 70
     1
102
RTVSPost2010Prop56
140
1.0
102
RTVSPost2010PropOp56
 70
     1
102
RTVSPost2010Prop57
140
1.0
102
RTVSPost2010PropOp57
 70
     1
102
RTVSPropertyOp0
 70
     1
102
RTVSPropertyOp1
 70
     1
102
RTVSPropertyOp2
 70
     1
102
RTVSPropertyOp3
 70
     1
102
RTVSPropertyOp4
 70
     1
102
RTVSPropertyOp5
 70
     1
102
RTVSPropertyOp6
 70
     1
102
RTVSPropertyOp7
 70
     1
102
RTVSPropertyOp8
 70
     1
102
RTVSPropertyOp9
 70
     1
102
RTVSPropertyOp10
 70
     1
102
RTVSPropertyOp11
 70
     1
102
RTVSPropertyOp12
 70
     1
102
RTVSPropertyOp13
 70
     1
102
RTVSPropertyOp14
 70
     1
102
RTVSPropertyOp15
 70
     1
102
RTVSPropertyOp16
 70
     1
102
RTVSPropertyOp17
 70
     1
102
RTVSPropertyOp18
 70
     1
102
RTVSPropertyOp19
 70
     1
102
RTVSPropertyOp20
 70
     1
102
RTVSPropertyOp21
 70
     1
102
RTVSPropertyOp22
 70
     1
102
RTVSPropertyOp23
 70
     1
102
RTVSPropertyOp24
 70
     1
102
RTVSPropertyOp25
 70
     1
102
RTVSPropertyOp26
 70
     1
102
RTVSPropertyOp27
 70
     1
102
RTVSPropertyOp28
 70
     1
102
RTVSPropertyOp29
 70
     1
102
RTVSPropertyOp30
 70
     1
102
RTVSPropertyOp31
 70
     1
102
RTVSPropertyOp32
 70
     1
102
RTVSPropertyOp33
 70
     1
102
RTVSPropertyOp34
 70
     1
102
RTVSPropertyOp35
 70
     1
102
RTVSPropertyOp36
 70
     1
102
RTVSPropertyOp37
 70
     1
102
RTVSPropertyOp38
 70
     1
102
RTVSPropertyOp39
 70
     1
102
RTVSPropertyOp40
 70
     1
102
RTVSPropertyOp41
 70
     1
102
RTVSPropertyOp42
 70
     1
102
RTVSPropertyOp43
 70
     1
102
RTVSPropertyOp44
 70
     1
102
RTVSPropertyOp45
 70
     1
102
RTVSPropertyOp46
 70
     1
102
RTVSPropertyOp47
 70
     1
102
RTVSPropertyOp48
 70
     1
102
RTVSPropertyOp49
 70
     1
102
RTVSPropertyOp50
 70
     1
102
RTVSPropertyOp51
 70
     0
102
RTVSPropertyOp52
 70
     0
102
RTVSPropertyOp53
 70
     1
102
RTVSPropertyOp54
 70
     1
102
RTVSPropertyOp55
 70
     1
102
RTVSPropertyOp56
 70
     1
102
RTVSPropertyOp57
 70
     1
102
RTVSPropertyOp58
 70
     1
102
RTVSPropertyOp59
 70
     1
102
RTVSPropertyOp60
 70
     1
102
RTVSPropertyOp61
 70
     1
102
RTVSPropertyOp62
 70
     1
  0
XRECORD
  5
10233
102
{ACAD_REACTORS
330
10232
102
}
330
10232
100
AcDbXrecord
280
     1
102
RTVSPost2010Prop28
280
     0
102
RTVSPost2010PropOp28
 70
     1
102
RTVSPost2010Prop29
280
     1
102
RTVSPost2010PropOp29
 70
     1
102
RTVSPost2010Prop30
280
     1
102
RTVSPost2010PropOp30
 70
     1
102
RTVSPost2010Prop31
280
     0
102
RTVSPost2010PropOp31
 70
     1
102
RTVSPost2010Prop32
280
     0
102
RTVSPost2010PropOp32
 70
     1
102
RTVSPost2010Prop33
280
     0
102
RTVSPost2010PropOp33
 70
     1
102
RTVSPost2010Prop34
280
     0
102
RTVSPost2010PropOp34
 70
     1
102
RTVSPost2010Prop35
280
     0
102
RTVSPost2010PropOp35
 70
     1
102
RTVSPost2010Prop36
280
     0
102
RTVSPost2010PropOp36
 70
     1
102
RTVSPost2010Prop37
 90
       50
102
RTVSPost2010PropOp37
 70
     1
102
RTVSPost2010Prop38
140
0.0
102
RTVSPost2010PropOp38
 70
     1
102
RTVSPost2010Prop39
140
1.0
102
RTVSPost2010PropOp39
 70
     1
102
RTVSPost2010Prop40
 90
        0
102
RTVSPost2010PropOp40
 70
     1
102
RTVSPost2010Prop41ColorIndex
 90
       18
102
RTVSPost2010Prop41ColorRGB
 90
        0
102
RTVSPost2010PropOp41
 70
     1
102
RTVSPost2010Prop42
 90
       50
102
RTVSPost2010PropOp42
 70
     1
102
RTVSPost2010Prop43
 90
        3
102
RTVSPost2010PropOp43
 70
     1
102
RTVSPost2010Prop44ColorIndex
 90
        5
102
RTVSPost2010Prop44ColorRGB
 90
      255
102
RTVSPost2010PropOp44
 70
     1
102
RTVSPost2010Prop45
280
     0
102
RTVSPost2010PropOp45
 70
     1
102
RTVSPost2010Prop46
 90
       50
102
RTVSPost2010PropOp46
 70
     1
102
RTVSPost2010Prop47
 90
       50
102
RTVSPost2010PropOp47
 70
     1
102
RTVSPost2010Prop48
 90
       50
102
RTVSPost2010PropOp48
 70
     1
102
RTVSPost2010Prop49
280
     0
102
RTVSPost2010PropOp49
 70
     1
102
RTVSPost2010Prop50
 90
       50
102
RTVSPost2010PropOp50
 70
     1
102
RTVSPost2010Prop51ColorIndex
 90
      256
102
RTVSPost2010Prop51ColorRGB
 90
-16777216
102
RTVSPost2010PropOp51
 70
     0
102
RTVSPost2010Prop52
140
1.0
102
RTVSPost2010PropOp52
 70
     0
102
RTVSPost2010Prop53
 90
        2
102
RTVSPost2010PropOp53
 70
     1
102
RTVSPost2010Prop54
  1
strokes_ogs.tif
102
RTVSPost2010PropOp54
 70
     1
102
RTVSPost2010Prop55
280
     0
102
RTVSPost2010PropOp55
 70
     1
102
RTVSPost2010Prop56
140
1.0
102
RTVSPost2010PropOp56
 70
     1
102
RTVSPost2010Prop57
140
1.0
102
RTVSPost2010PropOp57
 70
     1
102
RTVSPropertyOp0
 70
     1
102
RTVSPropertyOp1
 70
     1
102
RTVSPropertyOp2
 70
     1
102
RTVSPropertyOp3
 70
     1
102
RTVSPropertyOp4
 70
     1
102
RTVSPropertyOp5
 70
     1
102
RTVSPropertyOp6
 70
     1
102
RTVSPropertyOp7
 70
     1
102
RTVSPropertyOp8
 70
     1
102
RTVSPropertyOp9
 70
     1
102
RTVSPropertyOp10
 70
     1
102
RTVSPropertyOp11
 70
     1
102
RTVSPropertyOp12
 70
     1
102
RTVSPropertyOp13
 70
     1
102
RTVSPropertyOp14
 70
     1
102
RTVSPropertyOp15
 70
     1
102
RTVSPropertyOp16
 70
     1
102
RTVSPropertyOp17
 70
     1
102
RTVSPropertyOp18
 70
     1
102
RTVSPropertyOp19
 70
     1
102
RTVSPropertyOp20
 70
     1
102
RTVSPropertyOp21
 70
     1
102
RTVSPropertyOp22
 70
     1
102
RTVSPropertyOp23
 70
     1
102
RTVSPropertyOp24
 70
     1
102
RTVSPropertyOp25
 70
     1
102
RTVSPropertyOp26
 70
     1
102
RTVSPropertyOp27
 70
     1
102
RTVSPropertyOp28
 70
     1
102
RTVSPropertyOp29
 70
     1
102
RTVSPropertyOp30
 70
     1
102
RTVSPropertyOp31
 70
     1
102
RTVSPropertyOp32
 70
     1
102
RTVSPropertyOp33
 70
     1
102
RTVSPropertyOp34
 70
     1
102
RTVSPropertyOp35
 70
     1
102
RTVSPropertyOp36
 70
     1
102
RTVSPropertyOp37
 70
     1
102
RTVSPropertyOp38
 70
     1
102
RTVSPropertyOp39
 70
     1
102
RTVSPropertyOp40
 70
     1
102
RTVSPropertyOp41
 70
     1
102
RTVSPropertyOp42
 70
     1
102
RTVSPropertyOp43
 70
     1
102
RTVSPropertyOp44
 70
     1
102
RTVSPropertyOp45
 70
     1
102
RTVSPropertyOp46
 70
     1
102
RTVSPropertyOp47
 70
     1
102
RTVSPropertyOp48
 70
     1
102
RTVSPropertyOp49
 70
     1
102
RTVSPropertyOp50
 70
     1
102
RTVSPropertyOp51
 70
     0
102
RTVSPropertyOp52
 70
     0
102
RTVSPropertyOp53
 70
     1
102
RTVSPropertyOp54
 70
     1
102
RTVSPropertyOp55
 70
     1
102
RTVSPropertyOp56
 70
     1
102
RTVSPropertyOp57
 70
     1
102
RTVSPropertyOp58
 70
     1
102
RTVSPropertyOp59
 70
     1
102
RTVSPropertyOp60
 70
     1
102
RTVSPropertyOp61
 70
     1
102
RTVSPropertyOp62
 70
     1
  0
XRECORD
  5
1024B
102
{ACAD_REACTORS
330
1024A
102
}
330
1024A
100
AcDbXrecord
280
     1
102
RTVSPost2010Prop28
280
     0
102
RTVSPost2010PropOp28
 70
     1
102
RTVSPost2010Prop29
280
     1
102
RTVSPost2010PropOp29
 70
     1
102
RTVSPost2010Prop30
280
     1
102
RTVSPost2010PropOp30
 70
     1
102
RTVSPost2010Prop31
280
     0
102
RTVSPost2010PropOp31
 70
     1
102
RTVSPost2010Prop32
280
     0
102
RTVSPost2010PropOp32
 70
     1
102
RTVSPost2010Prop33
280
     0
102
RTVSPost2010PropOp33
 70
     1
102
RTVSPost2010Prop34
280
     0
102
RTVSPost2010PropOp34
 70
     1
102
RTVSPost2010Prop35
280
     0
102
RTVSPost2010PropOp35
 70
     1
102
RTVSPost2010Prop36
280
     0
102
RTVSPost2010PropOp36
 70
     1
102
RTVSPost2010Prop37
 90
       50
102
RTVSPost2010PropOp37
 70
     1
102
RTVSPost2010Prop38
140
0.0
102
RTVSPost2010PropOp38
 70
     1
102
RTVSPost2010Prop39
140
1.0
102
RTVSPost2010PropOp39
 70
     1
102
RTVSPost2010Prop40
 90
        0
102
RTVSPost2010PropOp40
 70
     1
102
RTVSPost2010Prop41ColorIndex
 90
       18
102
RTVSPost2010Prop41ColorRGB
 90
        0
102
RTVSPost2010PropOp41
 70
     1
102
RTVSPost2010Prop42
 90
       50
102
RTVSPost2010PropOp42
 70
     1
102
RTVSPost2010Prop43
 90
        3
102
RTVSPost2010PropOp43
 70
     1
102
RTVSPost2010Prop44ColorIndex
 90
        5
102
RTVSPost2010Prop44ColorRGB
 90
      255
102
RTVSPost2010PropOp44
 70
     1
102
RTVSPost2010Prop45
280
     0
102
RTVSPost2010PropOp45
 70
     1
102
RTVSPost2010Prop46
 90
       50
102
RTVSPost2010PropOp46
 70
     1
102
RTVSPost2010Prop47
 90
       50
102
RTVSPost2010PropOp47
 70
     1
102
RTVSPost2010Prop48
 90
       50
102
RTVSPost2010PropOp48
 70
     1
102
RTVSPost2010Prop49
280
     0
102
RTVSPost2010PropOp49
 70
     1
102
RTVSPost2010Prop50
 90
       50
102
RTVSPost2010PropOp50
 70
     1
102
RTVSPost2010Prop51ColorIndex
 90
      256
102
RTVSPost2010Prop51ColorRGB
 90
-16777216
102
RTVSPost2010PropOp51
 70
     0
102
RTVSPost2010Prop52
140
1.0
102
RTVSPost2010PropOp52
 70
     0
102
RTVSPost2010Prop53
 90
        2
102
RTVSPost2010PropOp53
 70
     1
102
RTVSPost2010Prop54
  1
strokes_ogs.tif
102
RTVSPost2010PropOp54
 70
     1
102
RTVSPost2010Prop55
280
     0
102
RTVSPost2010PropOp55
 70
     1
102
RTVSPost2010Prop56
140
1.0
102
RTVSPost2010PropOp56
 70
     1
102
RTVSPost2010Prop57
140
1.0
102
RTVSPost2010PropOp57
 70
     1
102
RTVSPropertyOp0
 70
     1
102
RTVSPropertyOp1
 70
     1
102
RTVSPropertyOp2
 70
     1
102
RTVSPropertyOp3
 70
     1
102
RTVSPropertyOp4
 70
     1
102
RTVSPropertyOp5
 70
     1
102
RTVSPropertyOp6
 70
     1
102
RTVSPropertyOp7
 70
     1
102
RTVSPropertyOp8
 70
     1
102
RTVSPropertyOp9
 70
     1
102
RTVSPropertyOp10
 70
     1
102
RTVSPropertyOp11
 70
     1
102
RTVSPropertyOp12
 70
     1
102
RTVSPropertyOp13
 70
     1
102
RTVSPropertyOp14
 70
     1
102
RTVSPropertyOp15
 70
     1
102
RTVSPropertyOp16
 70
     1
102
RTVSPropertyOp17
 70
     1
102
RTVSPropertyOp18
 70
     1
102
RTVSPropertyOp19
 70
     1
102
RTVSPropertyOp20
 70
     1
102
RTVSPropertyOp21
 70
     1
102
RTVSPropertyOp22
 70
     1
102
RTVSPropertyOp23
 70
     1
102
RTVSPropertyOp24
 70
     1
102
RTVSPropertyOp25
 70
     1
102
RTVSPropertyOp26
 70
     1
102
RTVSPropertyOp27
 70
     1
102
RTVSPropertyOp28
 70
     1
102
RTVSPropertyOp29
 70
     1
102
RTVSPropertyOp30
 70
     1
102
RTVSPropertyOp31
 70
     1
102
RTVSPropertyOp32
 70
     1
102
RTVSPropertyOp33
 70
     1
102
RTVSPropertyOp34
 70
     1
102
RTVSPropertyOp35
 70
     1
102
RTVSPropertyOp36
 70
     1
102
RTVSPropertyOp37
 70
     1
102
RTVSPropertyOp38
 70
     1
102
RTVSPropertyOp39
 70
     1
102
RTVSPropertyOp40
 70
     1
102
RTVSPropertyOp41
 70
     1
102
RTVSPropertyOp42
 70
     1
102
RTVSPropertyOp43
 70
     1
102
RTVSPropertyOp44
 70
     1
102
RTVSPropertyOp45
 70
     1
102
RTVSPropertyOp46
 70
     1
102
RTVSPropertyOp47
 70
     1
102
RTVSPropertyOp48
 70
     1
102
RTVSPropertyOp49
 70
     1
102
RTVSPropertyOp50
 70
     1
102
RTVSPropertyOp51
 70
     0
102
RTVSPropertyOp52
 70
     0
102
RTVSPropertyOp53
 70
     1
102
RTVSPropertyOp54
 70
     1
102
RTVSPropertyOp55
 70
     1
102
RTVSPropertyOp56
 70
     1
102
RTVSPropertyOp57
 70
     1
102
RTVSPropertyOp58
 70
     1
102
RTVSPropertyOp59
 70
     1
102
RTVSPropertyOp60
 70
     1
102
RTVSPropertyOp61
 70
     1
102
RTVSPropertyOp62
 70
     1
  0
ENDSEC
  0
EOF
